osu file format v14

[General]
AudioFilename: will.mp3
AudioLeadIn: 0
PreviewTime: 42992
Countdown: 1
SampleSet: Normal
StackLeniency: 0.7
Mode: 0
LetterboxInBreaks: 1
WidescreenStoryboard: 1

[Editor]
Bookmarks: 64095
DistanceSpacing: 1
BeatDivisor: 4
GridSize: 4
TimelineZoom: 1

[Metadata]
Title:will
TitleUnicode:will
Artist:NAOKI
ArtistUnicode:NAOKI
Creator:6th
Version:Hard
Source:
Tags:
BeatmapID:1081597
BeatmapSetID:508588

[Difficulty]
HPDrainRate:6
CircleSize:3.7
OverallDifficulty:6
ApproachRate:8
SliderMultiplier:1.99999990463257
SliderTickRate:1

[Events]
//Background and Video events
0,0,"will-bg.jpg",0,0
//Break Periods
2,60157,63345
//Storyboard Layer 0 (Background)
//Storyboard Layer 1 (Fail)
//Storyboard Layer 2 (Pass)
//Storyboard Layer 3 (Foreground)
//Storyboard Sound Samples

[TimingPoints]
1199,413.793103448276,4,1,1,80,1,0
1199,-133.333333333333,4,1,1,80,0,0
44233,-80,4,1,1,80,0,1
54164,-80,4,1,1,80,0,0
55819,-66.6666666666667,4,1,1,80,0,0
56647,-100,4,1,1,80,0,0
57474,-133.333333333333,4,1,1,80,0,0
70716,-80,4,1,1,80,0,1
96371,-80,4,1,1,80,0,0

[Colours]
Combo1 : 0,255,64
Combo2 : 255,0,0
Combo3 : 0,128,255

[HitObjects]
134,128,164,5,0,0:0:0:0:
209,128,371,1,0,0:0:0:0:
285,128,578,1,0,0:0:0:0:
360,128,785,1,0,0:0:0:0:
440,132,992,1,0,0:0:0:0:
440,132,1199,6,0,P|464:204|424:288,1,149.999998569489
376,308,1819,2,0,L|212:288,1,149.999998569489
152,276,2440,1,0,0:0:0:0:
152,276,2647,1,0,0:0:0:0:
60,352,2854,6,0,L|60:188,1,149.999998569489
112,148,3474,2,0,P|180:124|272:156,1,149.999998569489
312,204,4095,1,0,0:0:0:0:
312,204,4302,1,0,0:0:0:0:
380,124,4509,6,0,B|424:140|424:140|512:136,2,112.499998927116
304,88,5336,2,0,B|260:104|260:104|172:100,2,112.499998927116
376,48,6164,5,0,0:0:0:0:
372,160,6474,1,0,0:0:0:0:
368,272,6785,1,0,0:0:0:0:
364,348,6992,2,0,L|180:336,1,149.999998569489
124,308,7612,1,0,0:0:0:0:
88,312,7716,1,0,0:0:0:0:
52,316,7819,6,0,L|44:204,1,112.499998927116
140,56,8440,1,0,0:0:0:0:
132,136,8647,2,0,L|124:248,1,112.499998927116
208,104,9267,1,0,0:0:0:0:
276,152,9474,5,0,0:0:0:0:
348,64,9785,1,0,0:0:0:0:
276,152,10095,1,0,0:0:0:0:
344,200,10302,1,0,0:0:0:0:
416,112,10613,1,0,0:0:0:0:
344,200,10923,1,0,0:0:0:0:
400,264,11130,6,0,P|412:304|384:360,1,74.9999992847443
282,336,11543,2,0,P|274:299|286:264,1,74.9999992847443
344,200,11957,1,0,0:0:0:0:
400,264,12164,1,0,0:0:0:0:
286,264,12371,1,0,0:0:0:0:
286,144,12578,1,0,0:0:0:0:
400,144,12785,6,0,L|420:96,3,37.4999996423721
424,84,13199,2,0,L|404:36,3,37.4999996423721
392,28,13612,2,0,L|120:40,1,262.499997496605
256,192,14440,12,0,17336,0:0:0:0:
404,192,17750,5,0,0:0:0:0:
328,140,17957,1,0,0:0:0:0:
304,144,18061,1,0,0:0:0:0:
280,148,18164,1,0,0:0:0:0:
148,104,18371,1,0,0:0:0:0:
184,188,18578,2,0,P|175:228|104:284,1,112.499998927116
84,296,18992,2,0,L|52:372,1,74.9999992847443
184,340,19405,6,0,L|356:360,1,149.999998569489
408,308,20026,1,0,0:0:0:0:
436,304,20130,1,0,0:0:0:0:
464,300,20233,2,0,L|472:224,1,74.9999992847443
380,220,20647,2,0,L|364:144,1,74.9999992847443
444,92,21061,5,0,0:0:0:0:
471,225,21371,1,0,0:0:0:0:
444,92,21681,1,0,0:0:0:0:
364,146,21888,1,0,0:0:0:0:
231,119,22198,1,0,0:0:0:0:
364,146,22509,1,0,0:0:0:0:
288,192,22716,6,0,P|260:256|292:336,1,149.999998569489
372,356,23336,1,0,0:0:0:0:
200,352,23543,2,0,L|96:356,1,74.9999992847443
0,292,23957,2,0,L|74:289,1,74.9999992847443
186,283,24371,6,0,L|74:288,1,112.499998927116
74,288,24785,1,0,0:0:0:0:
184,200,24992,1,0,0:0:0:0:
71,204,25199,2,0,L|184:200,1,112.499998927116
184,200,25612,1,0,0:0:0:0:
72,120,25819,1,0,0:0:0:0:
196,112,26026,6,0,P|246:135|265:234,1,149.999998569489
184,200,26647,1,0,0:0:0:0:
196,112,26854,2,0,L|296:116,1,74.9999992847443
352,152,27267,2,0,L|426:149,1,74.9999992847443
468,256,27681,6,0,B|496:208|496:208|508:128,2,112.499998927116
384,292,28509,2,0,L|244:280,2,112.499998927116
416,208,29336,6,0,L|237:192,1,149.999998569489
192,144,29957,1,0,0:0:0:0:
192,144,30164,2,0,L|42:157,1,149.999998569489
56,180,30681,1,0,0:0:0:0:
68,204,30785,1,0,0:0:0:0:
80,228,30888,1,0,0:0:0:0:
92,252,30992,6,0,L|48:372,1,112.499998927116
176,260,31612,1,0,0:0:0:0:
176,260,31819,1,0,0:0:0:0:
132,368,32130,1,0,0:0:0:0:
176,260,32440,1,0,0:0:0:0:
268,328,32647,6,0,L|412:320,1,112.499998927116
500,220,33267,1,0,0:0:0:0:
416,224,33474,2,0,L|272:232,1,112.499998927116
276,232,33888,1,0,0:0:0:0:
180,200,34095,1,0,0:0:0:0:
156,204,34199,1,0,0:0:0:0:
132,208,34302,6,0,L|136:344,2,112.499998927116
176,128,35130,1,0,0:0:0:0:
179,15,35440,1,0,0:0:0:0:
176,128,35751,1,0,0:0:0:0:
252,80,35957,6,0,L|363:91,1,112.499998927116
248,192,36578,1,0,0:0:0:0:
360,204,36785,2,0,L|248:192,1,112.499998927116
220,188,37199,1,0,0:0:0:0:
148,240,37405,1,0,0:0:0:0:
120,236,37509,1,0,0:0:0:0:
96,232,37612,6,0,B|52:272|52:272|24:340,1,112.499998927116
168,280,38233,1,0,0:0:0:0:
196,196,38440,2,0,B|156:152|156:152|88:124,1,112.499998927116
168,280,39061,1,0,0:0:0:0:
256,264,39267,6,0,B|300:224|300:224|328:156,2,112.499998927116
168,280,40095,1,0,0:0:0:0:
232,160,40405,1,0,0:0:0:0:
232,160,40509,1,0,0:0:0:0:
320,174,40716,1,0,0:0:0:0:
408,188,40923,6,0,L|416:142,3,37.4999996423721
424,106,41336,1,0,0:0:0:0:
336,126,41543,1,0,0:0:0:0:
256,82,41750,2,0,L|208:58,3,37.4999996423721
176,66,42164,2,0,L|142:49,3,37.4999996423721
96,50,42578,5,0,0:0:0:0:
88,68,43199,5,0,0:0:0:0:
148,136,43405,1,0,0:0:0:0:
144,152,43509,1,0,0:0:0:0:
140,168,43612,1,0,0:0:0:0:
136,184,43716,1,0,0:0:0:0:
132,200,43819,2,0,L|132:232,6,18.7499998211861
136,296,44233,6,0,L|316:308,1,124.999994039536
356,244,44647,1,0,0:0:0:0:
424,332,44854,2,0,P|341:352|248:224,1,249.999988079071
356,244,45474,1,0,0:0:0:0:
468,252,45681,1,0,0:0:0:0:
368,128,45888,6,0,L|224:120,1,124.999994039536
132,112,46302,1,0,0:0:0:0:
243,121,46509,2,0,P|288:244|212:320,1,249.999988079071
112,272,47130,1,0,0:0:0:0:
124,160,47336,1,0,0:0:0:0:
214,319,47543,6,0,L|420:284,1,187.499991059303
192,240,48164,1,0,0:0:0:0:
192,240,48371,2,0,L|397:204,1,187.499991059303
168,152,48992,1,0,0:0:0:0:
168,152,49199,5,0,0:0:0:0:
352,120,49509,1,0,0:0:0:0:
168,152,49819,1,0,0:0:0:0:
292,192,50026,2,0,L|296:328,1,124.999994039536
280,336,50336,1,0,0:0:0:0:
264,356,50440,1,0,0:0:0:0:
164,340,50647,1,0,0:0:0:0:
140,336,50750,1,0,0:0:0:0:
116,332,50854,6,0,P|80:276|92:160,1,187.499991059303
224,56,51474,1,0,0:0:0:0:
312,124,51681,2,0,P|354:205|336:295,2,187.499991059303
224,192,52509,5,0,0:0:0:0:
392,172,52819,1,0,0:0:0:0:
256,276,53130,1,0,0:0:0:0:
224,192,53336,2,0,L|16:172,1,187.499991059303
44,344,53957,1,0,0:0:0:0:
136,276,54164,6,0,L|272:280,1,124.999994039536
348,195,54578,2,0,L|212:191,1,124.999994039536
344,272,54992,1,0,0:0:0:0:
352,120,55199,1,0,0:0:0:0:
227,113,55405,1,0,0:0:0:0:
219,265,55612,1,0,0:0:0:0:
344,272,55819,1,0,0:0:0:0:
368,268,55922,1,0,0:0:0:0:
392,261,56025,1,0,0:0:0:0:
414,249,56129,1,0,0:0:0:0:
435,235,56232,1,0,0:0:0:0:
452,217,56336,1,0,0:0:0:0:
467,197,56439,1,0,0:0:0:0:
478,174,56543,1,0,0:0:0:0:
485,150,56647,6,0,B|440:156|419:130|419:130|304:144|304:144|340:228|340:228|232:176|184:204,1,399.999980926514
256,192,57578,12,0,59957,0:0:0:0:
76,336,64095,6,0,L|212:344,1,112.499998927116
324,352,64716,1,0,0:0:0:0:
412,360,64923,2,0,L|420:224,1,112.499998927116
428,112,65544,1,0,0:0:0:0:
432,24,65750,6,0,P|374:16|304:44,1,112.499998927116
240,136,66371,1,0,0:0:0:0:
324,168,66578,2,0,P|381:175|452:148,1,112.499998927116
240,64,67199,1,0,0:0:0:0:
160,100,67405,6,0,L|0:88,1,149.999998569489
76,176,68026,1,0,0:0:0:0:
100,184,68130,1,0,0:0:0:0:
124,192,68233,2,0,L|284:180,1,149.999998569489
204,264,68854,1,0,0:0:0:0:
204,264,69061,5,0,0:0:0:0:
116,272,69267,1,0,0:0:0:0:
124,360,69474,1,0,0:0:0:0:
212,352,69680,1,0,0:0:0:0:
288,300,69888,2,0,B|464:264|464:264|360:264,1,262.499997496605
288,300,70716,6,0,P|208:352|72:268,1,249.999988079071
192,188,71336,1,0,0:0:0:0:
288,300,71543,2,0,L|428:288,1,124.999994039536
492,160,71957,2,0,L|367:170,1,124.999994039536
236,96,72371,6,0,P|168:88|132:264,1,249.999988079071
220,328,72992,2,0,P|288:336|324:160,1,249.999988079071
236,96,73612,1,0,0:0:0:0:
268,244,73819,1,0,0:0:0:0:
452,188,74026,6,0,L|388:12,2,187.499991059303
352,193,74854,2,0,L|176:257,2,187.499991059303
432,244,75681,6,0,P|352:288|256:192,2,187.499991059303
352,116,76509,2,0,L|140:140,1,187.499991059303
165,137,76923,1,0,0:0:0:0:
273,247,77130,1,0,0:0:0:0:
292,264,77233,1,0,0:0:0:0:
312,280,77336,6,0,L|112:292,1,187.499991059303
328,196,77956,1,0,0:0:0:0:
396,328,78163,2,0,L|424:132,2,187.499991059303
328,196,78991,5,0,0:0:0:0:
124,291,79301,1,0,0:0:0:0:
312,280,79612,1,0,0:0:0:0:
260,140,79818,2,0,L|48:152,1,187.499991059303
220,320,80439,1,0,0:0:0:0:
100,232,80646,6,0,L|240:224,1,124.999994039536
372,188,81061,2,0,L|496:195,1,124.999994039536
360,260,81474,1,0,0:0:0:0:
252,156,81681,1,0,0:0:0:0:
384,112,81887,1,0,0:0:0:0:
212,300,82094,1,0,0:0:0:0:
252,156,82301,5,0,0:0:0:0:
228,160,82404,1,0,0:0:0:0:
204,167,82507,1,0,0:0:0:0:
182,179,82611,1,0,0:0:0:0:
161,193,82714,1,0,0:0:0:0:
144,211,82818,1,0,0:0:0:0:
129,231,82921,1,0,0:0:0:0:
118,254,83025,1,0,0:0:0:0:
112,276,83130,2,0,L|164:272,14,31.2499985098839
204,340,83957,6,0,L|360:344,1,124.999994039536
476,276,84371,1,0,0:0:0:0:
472,112,84578,2,0,L|200:120,1,249.999988079071
68,64,85199,1,0,0:0:0:0:
96,224,85405,1,0,0:0:0:0:
222,119,85612,6,0,P|310:119|370:291,1,249.999988079071
264,356,86233,2,0,L|4:352,1,249.999988079071
44,192,86854,1,0,0:0:0:0:
188,268,87061,1,0,0:0:0:0:
392,256,87267,6,0,P|424:196|400:44,1,187.499991059303
312,328,87888,1,0,0:0:0:0:
344,152,88095,2,0,P|248:72|144:72,2,187.499991059303
188,200,88923,5,0,0:0:0:0:
419,79,89233,1,0,0:0:0:0:
420,324,89543,1,0,0:0:0:0:
356,172,89750,1,0,0:0:0:0:
196,208,89957,1,0,0:0:0:0:
196,208,90061,1,0,0:0:0:0:
196,208,90164,1,0,0:0:0:0:
384,248,90371,1,0,0:0:0:0:
240,116,90578,6,0,P|288:68|420:68,1,187.499991059303
484,96,90992,1,0,0:0:0:0:
128,160,91405,2,0,P|198:218|290:216,1,187.499991059303
372,180,91819,1,0,0:0:0:0:
240,116,92026,1,0,0:0:0:0:
104,288,92233,6,0,L|320:324,1,187.499991059303
376,332,92647,1,0,0:0:0:0:
496,4,93061,2,0,L|280:40,1,187.499991059303
224,52,93474,2,0,L|92:80,1,124.999994039536
92,252,93888,5,0,0:0:0:0:
228,140,94095,1,0,0:0:0:0:
172,304,94302,1,0,0:0:0:0:
308,192,94509,1,0,0:0:0:0:
484,188,94716,1,0,0:0:0:0:
348,76,94923,1,0,0:0:0:0:
404,240,95130,1,0,0:0:0:0:
464,76,95337,1,0,0:0:0:0:
412,152,95543,5,0,0:0:0:0:
412,152,95647,1,0,0:0:0:0:
412,152,95750,1,0,0:0:0:0:
412,152,95854,1,0,0:0:0:0:
412,152,95957,1,0,0:0:0:0:
312,100,96164,1,0,0:0:0:0:
312,100,96267,1,0,0:0:0:0:
312,100,96371,2,0,B|220:168|124:128|124:128|164:228|76:296,1,374.999982118607
224,280,97199,5,0,0:0:0:0:
256,296,97302,1,0,0:0:0:0:
288,312,97405,1,0,0:0:0:0:
264,216,97819,5,0,0:0:0:0:
296,232,97922,1,0,0:0:0:0:
328,248,98025,1,0,0:0:0:0:
304,152,98440,5,0,0:0:0:0:
336,168,98543,1,0,0:0:0:0:
368,184,98646,1,0,0:0:0:0:
344,88,99061,5,0,0:0:0:0:
376,104,99164,1,0,0:0:0:0:
408,120,99267,1,0,0:0:0:0:
408,120,99681,5,0,0:0:0:0:
