osu file format v14

[General]
AudioFilename: audio.ogg
AudioLeadIn: 0
PreviewTime: -1
Countdown: 0
SampleSet: None
StackLeniency: 0.4
Mode: 3
LetterboxInBreaks: 0
SpecialStyle: 0
WidescreenStoryboard: 0

[Editor]
DistanceSpacing: 0.8
BeatDivisor: 4
GridSize: 4
TimelineZoom: 1

[Metadata]
Title:The Roar of the Spark
TitleUnicode:The Roar of the Spark
Artist:NAOKI
ArtistUnicode:NAOKI
Creator:JKdf_old_1
Version:Hard
Source:GGST,罪恶装备
Tags:ggst,狗狗薯条
BeatmapID:4556036
BeatmapSetID:2160558

[Difficulty]
HPDrainRate:6
CircleSize:4
OverallDifficulty:5
ApproachRate:5
SliderMultiplier:1.4
SliderTickRate:1

[Events]
//Background and Video events
//Break Periods
//Storyboard Layer 0 (Background)
//Storyboard Layer 1 (Fail)
//Storyboard Layer 2 (Pass)
//Storyboard Layer 3 (Foreground)
//Storyboard Layer 4 (Overlay)
//Storyboard Sound Samples

[TimingPoints]
-1907.75068773103,293.111871030777,4,1,0,100,1,0

[HitObjects]
192,192,70,5,0,0:0:0:0:
320,192,70,1,0,0:0:0:0:
320,192,656,128,0,1023:0:0:0:0:
64,192,1096,1,0,0:0:0:0:
448,192,1169,1,0,0:0:0:0:
320,192,1389,1,0,0:0:0:0:
192,192,1389,1,0,0:0:0:0:
448,192,1389,1,0,0:0:0:0:
64,192,1463,1,0,0:0:0:0:
448,192,1609,1,0,0:0:0:0:
192,192,1682,1,0,0:0:0:0:
320,192,1829,1,0,0:0:0:0:
448,192,1829,1,0,0:0:0:0:
448,192,2049,1,0,0:0:0:0:
192,192,2122,1,0,0:0:0:0:
320,192,2122,1,0,0:0:0:0:
320,192,2195,1,0,0:0:0:0:
64,192,2269,1,0,0:0:0:0:
448,192,2342,1,0,0:0:0:0:
448,192,2415,1,0,0:0:0:0:
64,192,2562,1,0,0:0:0:0:
320,192,2562,1,0,0:0:0:0:
192,192,2635,1,0,0:0:0:0:
320,192,2708,1,0,0:0:0:0:
192,192,2782,1,0,0:0:0:0:
448,192,2855,1,0,0:0:0:0:
64,192,3075,1,0,0:0:0:0:
320,192,3148,1,0,0:0:0:0:
320,192,3221,1,0,0:0:0:0:
64,192,3368,1,0,0:0:0:0:
192,192,3368,1,0,0:0:0:0:
448,192,3441,1,0,0:0:0:0:
448,192,3514,1,0,0:0:0:0:
64,192,3588,1,0,0:0:0:0:
320,192,3661,1,0,0:0:0:0:
64,192,3661,1,0,0:0:0:0:
448,192,3954,1,0,0:0:0:0:
192,192,3954,1,0,0:0:0:0:
320,192,4027,1,0,0:0:0:0:
64,192,4174,1,0,0:0:0:0:
192,192,4247,1,0,0:0:0:0:
448,192,4247,1,0,0:0:0:0:
320,192,4320,1,0,0:0:0:0:
64,192,4467,1,0,0:0:0:0:
448,192,4540,1,0,0:0:0:0:
320,192,4687,1,0,0:0:0:0:
192,192,4687,1,0,0:0:0:0:
64,192,4833,1,0,0:0:0:0:
192,192,4907,1,0,0:0:0:0:
448,192,4980,1,0,0:0:0:0:
64,192,5053,1,0,0:0:0:0:
448,192,5200,1,0,0:0:0:0:
192,192,5273,1,0,0:0:0:0:
448,192,5420,1,0,0:0:0:0:
320,192,5493,1,0,0:0:0:0:
64,192,5639,1,0,0:0:0:0:
448,192,5639,1,0,0:0:0:0:
192,192,5713,1,0,0:0:0:0:
64,192,5713,1,0,0:0:0:0:
448,192,6006,1,0,0:0:0:0:
192,192,6006,1,0,0:0:0:0:
320,192,6226,1,0,0:0:0:0:
192,192,6299,1,0,0:0:0:0:
448,192,6372,1,0,0:0:0:0:
320,192,6445,1,0,0:0:0:0:
64,192,6665,1,0,0:0:0:0:
448,192,6665,1,0,0:0:0:0:
192,192,6812,1,0,0:0:0:0:
320,192,6958,1,0,0:0:0:0:
64,192,7178,1,0,0:0:0:0:
448,192,7251,1,0,0:0:0:0:
320,192,7398,1,0,0:0:0:0:
64,192,7471,1,0,0:0:0:0:
192,192,7471,1,0,0:0:0:0:
448,192,7545,1,0,0:0:0:0:
320,192,7764,1,0,0:0:0:0:
448,192,7764,1,0,0:0:0:0:
64,192,7984,1,0,0:0:0:0:
192,192,8058,1,0,0:0:0:0:
448,192,8131,1,0,0:0:0:0:
64,192,8277,1,0,0:0:0:0:
448,192,8277,1,0,0:0:0:0:
320,192,8424,1,0,0:0:0:0:
64,192,8424,1,0,0:0:0:0:
448,192,8497,1,0,0:0:0:0:
320,192,8717,1,0,0:0:0:0:
64,192,8717,1,0,0:0:0:0:
448,192,8864,1,0,0:0:0:0:
64,192,8937,1,0,0:0:0:0:
192,192,9010,1,0,0:0:0:0:
320,192,9010,1,0,0:0:0:0:
64,192,9230,1,0,0:0:0:0:
448,192,9303,1,0,0:0:0:0:
192,192,9377,1,0,0:0:0:0:
320,192,9596,1,0,0:0:0:0:
64,192,9743,1,0,0:0:0:0:
448,192,9816,1,0,0:0:0:0:
64,192,10036,1,0,0:0:0:0:
320,192,10036,1,0,0:0:0:0:
192,192,10256,1,0,0:0:0:0:
448,192,10329,1,0,0:0:0:0:
320,192,10402,1,0,0:0:0:0:
64,192,10549,1,0,0:0:0:0:
448,192,10549,1,0,0:0:0:0:
192,192,10769,1,0,0:0:0:0:
320,192,10769,1,0,0:0:0:0:
64,192,10915,1,0,0:0:0:0:
448,192,10989,1,0,0:0:0:0:
192,192,11062,1,0,0:0:0:0:
320,192,11062,1,0,0:0:0:0:
64,192,11135,1,0,0:0:0:0:
448,192,11355,1,0,0:0:0:0:
192,192,11428,1,0,0:0:0:0:
64,192,11648,1,0,0:0:0:0:
448,192,11648,1,0,0:0:0:0:
320,192,11648,1,0,0:0:0:0:
64,192,11795,1,0,0:0:0:0:
448,192,11795,1,0,0:0:0:0:
192,192,11868,1,0,0:0:0:0:
320,192,11868,1,0,0:0:0:0:
64,192,12088,1,0,0:0:0:0:
448,192,12088,1,0,0:0:0:0:
192,192,12381,1,0,0:0:0:0:
320,192,12381,1,0,0:0:0:0:
64,192,12528,1,0,0:0:0:0:
448,192,12601,1,0,0:0:0:0:
320,192,12674,1,0,0:0:0:0:
192,192,12821,1,0,0:0:0:0:
448,192,13040,1,0,0:0:0:0:
320,192,13114,1,0,0:0:0:0:
64,192,13187,1,0,0:0:0:0:
192,192,13407,1,0,0:0:0:0:
448,192,13627,1,0,0:0:0:0:
320,192,13700,1,0,0:0:0:0:
64,192,13847,1,0,0:0:0:0:
192,192,13920,1,0,0:0:0:0:
64,192,13920,1,0,0:0:0:0:
448,192,13920,1,0,0:0:0:0:
320,192,14066,1,0,0:0:0:0:
448,192,14140,1,0,0:0:0:0:
320,192,14213,1,0,0:0:0:0:
192,192,14286,1,0,0:0:0:0:
64,192,14286,1,0,0:0:0:0:
448,192,14286,1,0,0:0:0:0:
192,192,14433,1,0,0:0:0:0:
320,192,14506,1,0,0:0:0:0:
64,192,14506,1,0,0:0:0:0:
448,192,14579,1,0,0:0:0:0:
320,192,14653,1,0,0:0:0:0:
192,192,14726,1,0,0:0:0:0:
448,192,14799,1,0,0:0:0:0:
64,192,14872,1,0,0:0:0:0:
192,192,15092,1,0,0:0:0:0:
64,192,15092,1,0,0:0:0:0:
448,192,15166,1,0,0:0:0:0:
320,192,15239,1,0,0:0:0:0:
320,192,15385,1,0,0:0:0:0:
64,192,15459,1,0,0:0:0:0:
448,192,15459,1,0,0:0:0:0:
192,192,15678,1,0,0:0:0:0:
192,192,15752,1,0,0:0:0:0:
320,192,15752,1,0,0:0:0:0:
448,192,15752,1,0,0:0:0:0:
448,192,15825,1,0,0:0:0:0:
64,192,15825,1,0,0:0:0:0:
320,192,15898,1,0,0:0:0:0:
448,192,15972,1,0,0:0:0:0:
64,192,15972,1,0,0:0:0:0:
192,192,15972,1,0,0:0:0:0:
448,192,16191,1,0,0:0:0:0:
64,192,16191,1,0,0:0:0:0:
192,192,16191,1,0,0:0:0:0:
320,192,16191,1,0,0:0:0:0:
320,192,16338,1,0,0:0:0:0:
64,192,16411,1,0,0:0:0:0:
448,192,16411,1,0,0:0:0:0:
64,192,16631,1,0,0:0:0:0:
320,192,16631,1,0,0:0:0:0:
448,192,16851,1,0,0:0:0:0:
192,192,16851,1,0,0:0:0:0:
64,192,16997,1,0,0:0:0:0:
448,192,16997,1,0,0:0:0:0:
64,192,17071,1,0,0:0:0:0:
320,192,17071,1,0,0:0:0:0:
192,192,17291,1,0,0:0:0:0:
448,192,17291,1,0,0:0:0:0:
64,192,17510,1,0,0:0:0:0:
320,192,17510,1,0,0:0:0:0:
448,192,17804,1,0,0:0:0:0:
64,192,17804,1,0,0:0:0:0:
64,192,17877,1,0,0:0:0:0:
320,192,17877,1,0,0:0:0:0:
448,192,17877,1,0,0:0:0:0:
192,192,17877,1,0,0:0:0:0:
448,192,18097,1,0,0:0:0:0:
192,192,18097,1,0,0:0:0:0:
320,192,18316,1,0,0:0:0:0:
448,192,18390,1,0,0:0:0:0:
64,192,18610,1,0,0:0:0:0:
448,192,18683,1,0,0:0:0:0:
192,192,18756,1,0,0:0:0:0:
320,192,18829,1,0,0:0:0:0:
64,192,18903,1,0,0:0:0:0:
448,192,18976,1,0,0:0:0:0:
192,192,18976,1,0,0:0:0:0:
320,192,19049,1,0,0:0:0:0:
448,192,19196,1,0,0:0:0:0:
320,192,19342,1,0,0:0:0:0:
64,192,19342,1,0,0:0:0:0:
64,192,19489,1,0,0:0:0:0:
448,192,19489,1,0,0:0:0:0:
192,192,19562,1,0,0:0:0:0:
320,192,19635,1,0,0:0:0:0:
64,192,19782,1,0,0:0:0:0:
192,192,19782,1,0,0:0:0:0:
448,192,19855,1,0,0:0:0:0:
320,192,19929,1,0,0:0:0:0:
448,192,20075,1,0,0:0:0:0:
64,192,20075,1,0,0:0:0:0:
192,192,20442,1,0,0:0:0:0:
320,192,20442,1,0,0:0:0:0:
64,192,20515,1,0,0:0:0:0:
448,192,20588,1,0,0:0:0:0:
320,192,20735,1,0,0:0:0:0:
192,192,20735,1,0,0:0:0:0:
448,192,20881,1,0,0:0:0:0:
448,192,21028,1,0,0:0:0:0:
64,192,21028,1,0,0:0:0:0:
192,192,21028,1,0,0:0:0:0:
320,192,21101,1,0,0:0:0:0:
448,192,21174,1,0,0:0:0:0:
64,192,21174,1,0,0:0:0:0:
320,192,21321,1,0,0:0:0:0:
64,192,21467,1,0,0:0:0:0:
448,192,21541,1,0,0:0:0:0:
192,192,21614,1,0,0:0:0:0:
320,192,21687,1,0,0:0:0:0:
64,192,21761,1,0,0:0:0:0:
448,192,21907,1,0,0:0:0:0:
320,192,21907,1,0,0:0:0:0:
64,192,22054,1,0,0:0:0:0:
320,192,22054,1,0,0:0:0:0:
192,192,22054,1,0,0:0:0:0:
448,192,22200,1,0,0:0:0:0:
320,192,22273,1,0,0:0:0:0:
192,192,22347,1,0,0:0:0:0:
64,192,22347,1,0,0:0:0:0:
320,192,22493,1,0,0:0:0:0:
448,192,22493,1,0,0:0:0:0:
448,192,22713,1,0,0:0:0:0:
64,192,22713,1,0,0:0:0:0:
192,192,22713,1,0,0:0:0:0:
320,192,22786,1,0,0:0:0:0:
320,192,23006,1,0,0:0:0:0:
448,192,23006,1,0,0:0:0:0:
192,192,23006,1,0,0:0:0:0:
448,192,23153,1,0,0:0:0:0:
64,192,23153,1,0,0:0:0:0:
192,192,23226,1,0,0:0:0:0:
320,192,23299,1,0,0:0:0:0:
192,192,23446,1,0,0:0:0:0:
448,192,23519,1,0,0:0:0:0:
320,192,23592,1,0,0:0:0:0:
448,192,23592,1,0,0:0:0:0:
64,192,23666,1,0,0:0:0:0:
448,192,23739,1,0,0:0:0:0:
192,192,23739,1,0,0:0:0:0:
320,192,23886,1,0,0:0:0:0:
192,192,24032,1,0,0:0:0:0:
320,192,24179,1,0,0:0:0:0:
448,192,24179,1,0,0:0:0:0:
192,192,24179,1,0,0:0:0:0:
448,192,24325,1,0,0:0:0:0:
64,192,24325,1,0,0:0:0:0:
192,192,24325,1,0,0:0:0:0:
320,192,24472,1,0,0:0:0:0:
448,192,24618,1,0,0:0:0:0:
192,192,24618,1,0,0:0:0:0:
320,192,24692,1,0,0:0:0:0:
192,192,24838,1,0,0:0:0:0:
64,192,24911,1,0,0:0:0:0:
448,192,24911,1,0,0:0:0:0:
64,192,25058,1,0,0:0:0:0:
448,192,25131,1,0,0:0:0:0:
64,192,25205,1,0,0:0:0:0:
320,192,25205,1,0,0:0:0:0:
192,192,25498,1,0,0:0:0:0:
448,192,25571,1,0,0:0:0:0:
64,192,25718,1,0,0:0:0:0:
320,192,25791,1,0,0:0:0:0:
192,192,25864,1,0,0:0:0:0:
448,192,25937,1,0,0:0:0:0:
64,192,26011,1,0,0:0:0:0:
448,192,26157,1,0,0:0:0:0:
320,192,26157,1,0,0:0:0:0:
64,192,26450,1,0,0:0:0:0:
448,192,26450,1,0,0:0:0:0:
320,192,26524,1,0,0:0:0:0:
320,192,26743,1,0,0:0:0:0:
64,192,26743,1,0,0:0:0:0:
320,192,26963,1,0,0:0:0:0:
192,192,26963,1,0,0:0:0:0:
64,192,27110,1,0,0:0:0:0:
448,192,27183,128,0,28062:0:0:0:0:
64,192,27256,1,0,0:0:0:0:
192,192,27403,1,0,0:0:0:0:
320,192,27476,1,0,0:0:0:0:
192,192,27476,1,0,0:0:0:0:
64,192,27696,1,0,0:0:0:0:
192,192,27843,1,0,0:0:0:0:
320,192,27989,1,0,0:0:0:0:
64,192,28062,1,0,0:0:0:0:
192,192,28136,1,0,0:0:0:0:
320,192,28209,1,0,0:0:0:0:
64,192,28282,1,0,0:0:0:0:
448,192,28282,1,0,0:0:0:0:
320,192,28429,1,0,0:0:0:0:
192,192,28502,1,0,0:0:0:0:
448,192,28575,1,0,0:0:0:0:
64,192,28722,1,0,0:0:0:0:
320,192,28795,1,0,0:0:0:0:
192,192,28868,1,0,0:0:0:0:
448,192,28942,1,0,0:0:0:0:
448,192,29088,1,0,0:0:0:0:
320,192,29162,1,0,0:0:0:0:
448,192,29235,1,0,0:0:0:0:
192,192,29455,1,0,0:0:0:0:
320,192,29528,1,0,0:0:0:0:
192,192,29601,1,0,0:0:0:0:
448,192,29675,1,0,0:0:0:0:
320,192,29821,1,0,0:0:0:0:
448,192,29968,1,0,0:0:0:0:
64,192,30114,1,0,0:0:0:0:
192,192,30261,1,0,0:0:0:0:
448,192,30407,128,0,32093:0:0:0:0:
320,192,30627,1,0,0:0:0:0:
64,192,30700,1,0,0:0:0:0:
320,192,30847,1,0,0:0:0:0:
192,192,30920,1,0,0:0:0:0:
320,192,31067,1,0,0:0:0:0:
64,192,31140,1,0,0:0:0:0:
192,192,31287,1,0,0:0:0:0:
320,192,31433,1,0,0:0:0:0:
64,192,31507,1,0,0:0:0:0:
64,192,31653,1,0,0:0:0:0:
320,192,31726,1,0,0:0:0:0:
192,192,31873,1,0,0:0:0:0:
64,192,31946,1,0,0:0:0:0:
320,192,32019,1,0,0:0:0:0:
448,192,32239,1,0,0:0:0:0:
320,192,32386,1,0,0:0:0:0:
64,192,32459,1,0,0:0:0:0:
448,192,32606,1,0,0:0:0:0:
192,192,32679,1,0,0:0:0:0:
320,192,32679,1,0,0:0:0:0:
64,192,32752,1,0,0:0:0:0:
448,192,32826,1,0,0:0:0:0:
320,192,33045,1,0,0:0:0:0:
448,192,33192,1,0,0:0:0:0:
320,192,33338,1,0,0:0:0:0:
192,192,33632,1,0,0:0:0:0:
448,192,33778,1,0,0:0:0:0:
64,192,33925,1,0,0:0:0:0:
320,192,34071,1,0,0:0:0:0:
192,192,34218,1,0,0:0:0:0:
448,192,34364,1,0,0:0:0:0:
64,192,34364,1,0,0:0:0:0:
320,192,34511,1,0,0:0:0:0:
192,192,34804,1,0,0:0:0:0:
64,192,34877,1,0,0:0:0:0:
320,192,34877,1,0,0:0:0:0:
448,192,34877,1,0,0:0:0:0:
64,192,35024,1,0,0:0:0:0:
320,192,35244,1,0,0:0:0:0:
448,192,35390,1,0,0:0:0:0:
64,192,35537,1,0,0:0:0:0:
320,192,35683,1,0,0:0:0:0:
192,192,35830,1,0,0:0:0:0:
448,192,35976,1,0,0:0:0:0:
64,192,36123,1,0,0:0:0:0:
320,192,36196,1,0,0:0:0:0:
192,192,36343,1,0,0:0:0:0:
448,192,36489,1,0,0:0:0:0:
64,192,36636,1,0,0:0:0:0:
320,192,36709,1,0,0:0:0:0:
192,192,36856,1,0,0:0:0:0:
448,192,37002,1,0,0:0:0:0:
64,192,37076,1,0,0:0:0:0:
320,192,37149,1,0,0:0:0:0:
192,192,37222,1,0,0:0:0:0:
448,192,37295,1,0,0:0:0:0:
320,192,37515,1,0,0:0:0:0:
64,192,37515,1,0,0:0:0:0:
192,192,37589,1,0,0:0:0:0:
448,192,37662,1,0,0:0:0:0:
64,192,37735,1,0,0:0:0:0:
320,192,37808,1,0,0:0:0:0:
192,192,37808,1,0,0:0:0:0:
448,192,37882,1,0,0:0:0:0:
64,192,37882,1,0,0:0:0:0:
448,192,38102,1,0,0:0:0:0:
320,192,38248,1,0,0:0:0:0:
64,192,38395,1,0,0:0:0:0:
192,192,38468,1,0,0:0:0:0:
320,192,38541,1,0,0:0:0:0:
64,192,38614,1,0,0:0:0:0:
448,192,38761,1,0,0:0:0:0:
192,192,38908,1,0,0:0:0:0:
320,192,39054,1,0,0:0:0:0:
64,192,39127,1,0,0:0:0:0:
448,192,39201,1,0,0:0:0:0:
192,192,39274,1,0,0:0:0:0:
320,192,39421,1,0,0:0:0:0:
64,192,39494,1,0,0:0:0:0:
448,192,39640,1,0,0:0:0:0:
320,192,39714,1,0,0:0:0:0:
192,192,39787,1,0,0:0:0:0:
448,192,39860,1,0,0:0:0:0:
64,192,40007,1,0,0:0:0:0:
320,192,40153,1,0,0:0:0:0:
64,192,40227,1,0,0:0:0:0:
448,192,40373,1,0,0:0:0:0:
192,192,40446,1,0,0:0:0:0:
320,192,40520,1,0,0:0:0:0:
320,192,40666,1,0,0:0:0:0:
64,192,40740,1,0,0:0:0:0:
448,192,40886,1,0,0:0:0:0:
64,192,40959,1,0,0:0:0:0:
192,192,41033,1,0,0:0:0:0:
320,192,41106,1,0,0:0:0:0:
320,192,41252,1,0,0:0:0:0:
64,192,41399,1,0,0:0:0:0:
448,192,41546,1,0,0:0:0:0:
192,192,41619,1,0,0:0:0:0:
320,192,41765,1,0,0:0:0:0:
64,192,41765,1,0,0:0:0:0:
320,192,41912,1,0,0:0:0:0:
192,192,41912,1,0,0:0:0:0:
320,192,42059,1,0,0:0:0:0:
448,192,42205,1,0,0:0:0:0:
64,192,42278,1,0,0:0:0:0:
320,192,42425,1,0,0:0:0:0:
192,192,42571,1,0,0:0:0:0:
448,192,42645,1,0,0:0:0:0:
64,192,42718,1,0,0:0:0:0:
448,192,42791,1,0,0:0:0:0:
64,192,42865,1,0,0:0:0:0:
320,192,43011,1,0,0:0:0:0:
192,192,43084,1,0,0:0:0:0:
448,192,43231,1,0,0:0:0:0:
64,192,43304,1,0,0:0:0:0:
320,192,43378,1,0,0:0:0:0:
448,192,43378,1,0,0:0:0:0:
64,192,43378,1,0,0:0:0:0:
448,192,43597,1,0,0:0:0:0:
64,192,43597,1,0,0:0:0:0:
192,192,43671,1,0,0:0:0:0:
320,192,43744,1,0,0:0:0:0:
448,192,43890,1,0,0:0:0:0:
192,192,43890,1,0,0:0:0:0:
320,192,43964,1,0,0:0:0:0:
64,192,44037,1,0,0:0:0:0:
192,192,44184,1,0,0:0:0:0:
320,192,44184,1,0,0:0:0:0:
448,192,44184,1,0,0:0:0:0:
448,192,44403,1,0,0:0:0:0:
64,192,44403,1,0,0:0:0:0:
320,192,44623,1,0,0:0:0:0:
192,192,44697,1,0,0:0:0:0:
448,192,44770,1,0,0:0:0:0:
320,192,44916,1,0,0:0:0:0:
64,192,45063,1,0,0:0:0:0:
448,192,45063,1,0,0:0:0:0:
192,192,45136,1,0,0:0:0:0:
320,192,45209,1,0,0:0:0:0:
448,192,45283,1,0,0:0:0:0:
320,192,45429,1,0,0:0:0:0:
64,192,45503,1,0,0:0:0:0:
320,192,45503,1,0,0:0:0:0:
448,192,45503,1,0,0:0:0:0:
320,192,45649,1,0,0:0:0:0:
448,192,45796,1,0,0:0:0:0:
64,192,45869,1,0,0:0:0:0:
320,192,45942,1,0,0:0:0:0:
192,192,46016,1,0,0:0:0:0:
64,192,46162,1,0,0:0:0:0:
192,192,46309,1,0,0:0:0:0:
448,192,46309,1,0,0:0:0:0:
320,192,46382,1,0,0:0:0:0:
64,192,46528,1,0,0:0:0:0:
448,192,46675,1,0,0:0:0:0:
320,192,46748,1,0,0:0:0:0:
192,192,46748,1,0,0:0:0:0:
320,192,46895,1,0,0:0:0:0:
448,192,46968,1,0,0:0:0:0:
64,192,47115,1,0,0:0:0:0:
192,192,47188,1,0,0:0:0:0:
320,192,47261,1,0,0:0:0:0:
320,192,47408,1,0,0:0:0:0:
64,192,47628,1,0,0:0:0:0:
448,192,47628,1,0,0:0:0:0:
448,192,47701,1,0,0:0:0:0:
192,192,47921,1,0,0:0:0:0:
320,192,47921,1,0,0:0:0:0:
448,192,47994,1,0,0:0:0:0:
320,192,48141,1,0,0:0:0:0:
64,192,48141,1,0,0:0:0:0:
448,192,48287,1,0,0:0:0:0:
192,192,48287,1,0,0:0:0:0:
320,192,48360,1,0,0:0:0:0:
64,192,48580,1,0,0:0:0:0:
448,192,48580,1,0,0:0:0:0:
192,192,48727,1,0,0:0:0:0:
448,192,48800,1,0,0:0:0:0:
320,192,48873,1,0,0:0:0:0:
448,192,48947,128,0,49606:0:0:0:0:
64,192,49093,1,0,0:0:0:0:
192,192,49093,1,0,0:0:0:0:
320,192,49313,1,0,0:0:0:0:
192,192,49460,1,0,0:0:0:0:
320,192,49606,1,0,0:0:0:0:
64,192,49753,1,0,0:0:0:0:
192,192,49826,1,0,0:0:0:0:
320,192,49899,1,0,0:0:0:0:
64,192,50046,1,0,0:0:0:0:
448,192,50119,1,0,0:0:0:0:
320,192,50266,1,0,0:0:0:0:
192,192,50339,1,0,0:0:0:0:
64,192,50412,1,0,0:0:0:0:
448,192,50632,1,0,0:0:0:0:
320,192,50632,1,0,0:0:0:0:
192,192,50779,1,0,0:0:0:0:
448,192,50925,1,0,0:0:0:0:
320,192,50998,1,0,0:0:0:0:
64,192,50998,1,0,0:0:0:0:
320,192,51145,1,0,0:0:0:0:
64,192,51365,1,0,0:0:0:0:
448,192,51365,1,0,0:0:0:0:
192,192,51511,1,0,0:0:0:0:
320,192,51658,1,0,0:0:0:0:
448,192,51658,1,0,0:0:0:0:
192,192,51804,1,0,0:0:0:0:
448,192,51878,1,0,0:0:0:0:
64,192,51878,1,0,0:0:0:0:
192,192,51951,1,0,0:0:0:0:
320,192,52171,1,0,0:0:0:0:
64,192,52244,1,0,0:0:0:0:
192,192,52464,128,0,52904:0:0:0:0:
448,192,52464,1,0,0:0:0:0:
320,192,52684,1,0,0:0:0:0:
64,192,52904,1,0,0:0:0:0:
192,192,52977,1,0,0:0:0:0:
448,192,52977,1,0,0:0:0:0:
320,192,53124,1,0,0:0:0:0:
64,192,53343,1,0,0:0:0:0:
448,192,53417,1,0,0:0:0:0:
192,192,53490,1,0,0:0:0:0:
320,192,53710,1,0,0:0:0:0:
64,192,53783,1,0,0:0:0:0:
64,192,53856,1,0,0:0:0:0:
192,192,53930,1,0,0:0:0:0:
448,192,54003,1,0,0:0:0:0:
448,192,54296,1,0,0:0:0:0:
320,192,54296,1,0,0:0:0:0:
64,192,54443,1,0,0:0:0:0:
64,192,54516,128,0,55102:0:0:0:0:
448,192,54589,1,0,0:0:0:0:
192,192,54662,1,0,0:0:0:0:
448,192,54882,1,0,0:0:0:0:
320,192,54955,1,0,0:0:0:0:
320,192,55175,1,0,0:0:0:0:
192,192,55249,1,0,0:0:0:0:
448,192,55395,1,0,0:0:0:0:
448,192,55542,1,0,0:0:0:0:
64,192,55615,1,0,0:0:0:0:
320,192,55688,1,0,0:0:0:0:
192,192,55688,1,0,0:0:0:0:
448,192,55835,1,0,0:0:0:0:
64,192,55908,1,0,0:0:0:0:
192,192,55981,1,0,0:0:0:0:
64,192,55981,1,0,0:0:0:0:
320,192,56055,1,0,0:0:0:0:
448,192,56128,1,0,0:0:0:0:
320,192,56274,1,0,0:0:0:0:
64,192,56421,1,0,0:0:0:0:
448,192,56421,1,0,0:0:0:0:
192,192,56568,1,0,0:0:0:0:
320,192,56641,1,0,0:0:0:0:
64,192,56934,1,0,0:0:0:0:
320,192,57081,1,0,0:0:0:0:
192,192,57154,1,0,0:0:0:0:
448,192,57154,1,0,0:0:0:0:
320,192,57300,1,0,0:0:0:0:
448,192,57374,1,0,0:0:0:0:
192,192,57447,128,0,57887:0:0:0:0:
320,192,57447,1,0,0:0:0:0:
64,192,57447,1,0,0:0:0:0:
448,192,57593,1,0,0:0:0:0:
320,192,57667,1,0,0:0:0:0:
448,192,57813,1,0,0:0:0:0:
320,192,57887,1,0,0:0:0:0:
64,192,58033,1,0,0:0:0:0:
192,192,58106,1,0,0:0:0:0:
448,192,58106,1,0,0:0:0:0:
448,192,58253,1,0,0:0:0:0:
320,192,58400,1,0,0:0:0:0:
64,192,58473,1,0,0:0:0:0:
448,192,58619,1,0,0:0:0:0:
64,192,58693,1,0,0:0:0:0:
448,192,58766,1,0,0:0:0:0:
192,192,58912,1,0,0:0:0:0:
448,192,59059,1,0,0:0:0:0:
64,192,59132,128,0,59719:0:0:0:0:
192,192,59206,1,0,0:0:0:0:
320,192,59279,1,0,0:0:0:0:
192,192,59425,1,0,0:0:0:0:
448,192,59499,1,0,0:0:0:0:
320,192,59719,1,0,0:0:0:0:
192,192,59865,1,0,0:0:0:0:
448,192,59865,1,0,0:0:0:0:
448,192,60085,128,0,60744:0:0:0:0:
64,192,60158,1,0,0:0:0:0:
320,192,60231,1,0,0:0:0:0:
320,192,60451,1,0,0:0:0:0:
192,192,60525,1,0,0:0:0:0:
320,192,60598,1,0,0:0:0:0:
192,192,60744,1,0,0:0:0:0:
320,192,60818,1,0,0:0:0:0:
64,192,60964,128,0,61770:0:0:0:0:
192,192,60964,1,0,0:0:0:0:
320,192,61038,1,0,0:0:0:0:
448,192,61184,1,0,0:0:0:0:
320,192,61331,1,0,0:0:0:0:
320,192,61477,1,0,0:0:0:0:
448,192,61624,1,0,0:0:0:0:
320,192,61697,1,0,0:0:0:0:
192,192,61844,1,0,0:0:0:0:
448,192,61917,1,0,0:0:0:0:
320,192,61990,1,0,0:0:0:0:
448,192,62137,1,0,0:0:0:0:
64,192,62137,1,0,0:0:0:0:
320,192,62357,1,0,0:0:0:0:
192,192,62357,1,0,0:0:0:0:
448,192,62357,128,0,62869:0:0:0:0:
64,192,62430,1,0,0:0:0:0:
64,192,62650,1,0,0:0:0:0:
192,192,62723,1,0,0:0:0:0:
448,192,62869,1,0,0:0:0:0:
192,192,63016,1,0,0:0:0:0:
320,192,63089,1,0,0:0:0:0:
64,192,63236,1,0,0:0:0:0:
320,192,63309,1,0,0:0:0:0:
192,192,63382,128,0,63749:0:0:0:0:
448,192,63456,1,0,0:0:0:0:
448,192,63602,1,0,0:0:0:0:
320,192,63749,1,0,0:0:0:0:
448,192,63822,128,0,64188:0:0:0:0:
64,192,63895,1,0,0:0:0:0:
64,192,64115,1,0,0:0:0:0:
320,192,64188,1,0,0:0:0:0:
192,192,64262,1,0,0:0:0:0:
64,192,64408,128,0,64775:0:0:0:0:
320,192,64408,1,0,0:0:0:0:
448,192,64555,1,0,0:0:0:0:
320,192,64701,1,0,0:0:0:0:
192,192,64848,1,0,0:0:0:0:
448,192,64848,1,0,0:0:0:0:
320,192,64995,1,0,0:0:0:0:
448,192,64995,1,0,0:0:0:0:
448,192,65068,1,0,0:0:0:0:
64,192,65288,1,0,0:0:0:0:
320,192,65288,1,0,0:0:0:0:
320,192,65434,128,0,65801:0:0:0:0:
448,192,65434,128,0,65801:0:0:0:0:
64,192,65507,1,0,0:0:0:0:
192,192,65727,1,0,0:0:0:0:
64,192,65947,1,0,0:0:0:0:
448,192,66020,1,0,0:0:0:0:
320,192,66240,1,0,0:0:0:0:
64,192,66387,128,0,66753:0:0:0:0:
192,192,66387,128,0,66753:0:0:0:0:
320,192,66460,1,0,0:0:0:0:
448,192,66533,1,0,0:0:0:0:
320,192,66680,1,0,0:0:0:0:
448,192,66900,128,0,67266:0:0:0:0:
320,192,66900,1,0,0:0:0:0:
64,192,67120,1,0,0:0:0:0:
320,192,67120,1,0,0:0:0:0:
192,192,67339,1,0,0:0:0:0:
320,192,67486,128,0,68072:0:0:0:0:
192,192,67486,128,0,68072:0:0:0:0:
448,192,67633,1,0,0:0:0:0:
64,192,67633,1,0,0:0:0:0:
192,192,68219,1,0,0:0:0:0:
320,192,68219,1,0,0:0:0:0:
448,192,68292,128,0,68952:0:0:0:0:
64,192,68292,128,0,68952:0:0:0:0:
320,192,68512,1,0,0:0:0:0:
192,192,68732,1,0,0:0:0:0:
320,192,68732,1,0,0:0:0:0:
64,192,69098,1,0,0:0:0:0:
192,192,69171,128,0,69977:0:0:0:0:
320,192,69171,128,0,69977:0:0:0:0:
448,192,69391,1,0,0:0:0:0:
64,192,69611,1,0,0:0:0:0:
448,192,69684,1,0,0:0:0:0:
64,192,69977,1,0,0:0:0:0:
448,192,69977,1,0,0:0:0:0:
320,192,70197,1,0,0:0:0:0:
192,192,70344,1,0,0:0:0:0:
448,192,70490,1,0,0:0:0:0:
64,192,70637,1,0,0:0:0:0:
448,192,70710,1,0,0:0:0:0:
320,192,70857,1,0,0:0:0:0:
192,192,71003,1,0,0:0:0:0:
64,192,71150,1,0,0:0:0:0:
448,192,71223,1,0,0:0:0:0:
320,192,71370,1,0,0:0:0:0:
192,192,71370,1,0,0:0:0:0:
64,192,71590,1,0,0:0:0:0:
320,192,71590,1,0,0:0:0:0:
448,192,71663,1,0,0:0:0:0:
192,192,71956,1,0,0:0:0:0:
320,192,72102,1,0,0:0:0:0:
64,192,72176,1,0,0:0:0:0:
448,192,72176,1,0,0:0:0:0:
192,192,72322,1,0,0:0:0:0:
448,192,72322,1,0,0:0:0:0:
192,192,72469,1,0,0:0:0:0:
448,192,72542,1,0,0:0:0:0:
320,192,72615,1,0,0:0:0:0:
64,192,72689,1,0,0:0:0:0:
192,192,72909,1,0,0:0:0:0:
448,192,72909,1,0,0:0:0:0:
320,192,72982,1,0,0:0:0:0:
64,192,73128,1,0,0:0:0:0:
448,192,73275,1,0,0:0:0:0:
192,192,73422,1,0,0:0:0:0:
320,192,73422,1,0,0:0:0:0:
64,192,73568,1,0,0:0:0:0:
448,192,73641,1,0,0:0:0:0:
320,192,73788,1,0,0:0:0:0:
64,192,73861,1,0,0:0:0:0:
448,192,74008,1,0,0:0:0:0:
192,192,74081,1,0,0:0:0:0:
448,192,74228,1,0,0:0:0:0:
64,192,74228,1,0,0:0:0:0:
320,192,74374,1,0,0:0:0:0:
192,192,74447,1,0,0:0:0:0:
448,192,74521,1,0,0:0:0:0:
320,192,74667,1,0,0:0:0:0:
64,192,74814,1,0,0:0:0:0:
448,192,74887,1,0,0:0:0:0:
64,192,75034,1,0,0:0:0:0:
192,192,75034,1,0,0:0:0:0:
320,192,75034,1,0,0:0:0:0:
448,192,75034,1,0,0:0:0:0:
64,192,75253,1,0,0:0:0:0:
448,192,75253,1,0,0:0:0:0:
320,192,75253,1,0,0:0:0:0:
64,192,75473,1,0,0:0:0:0:
320,192,75473,1,0,0:0:0:0:
448,192,75473,1,0,0:0:0:0:
192,192,75693,1,0,0:0:0:0:
448,192,75693,1,0,0:0:0:0:
64,192,75840,1,0,0:0:0:0:
448,192,75913,1,0,0:0:0:0:
320,192,75913,1,0,0:0:0:0:
448,192,76133,128,0,76499:0:0:0:0:
192,192,76133,1,0,0:0:0:0:
320,192,76499,1,0,0:0:0:0:
64,192,76572,1,0,0:0:0:0:
320,192,76646,1,0,0:0:0:0:
192,192,76719,1,0,0:0:0:0:
448,192,76792,1,0,0:0:0:0:
64,192,76866,1,0,0:0:0:0:
320,192,77012,1,0,0:0:0:0:
192,192,77159,1,0,0:0:0:0:
448,192,77159,1,0,0:0:0:0:
64,192,77232,1,0,0:0:0:0:
320,192,77305,1,0,0:0:0:0:
192,192,77379,1,0,0:0:0:0:
448,192,77525,1,0,0:0:0:0:
320,192,77525,1,0,0:0:0:0:
192,192,77525,1,0,0:0:0:0:
64,192,77598,1,0,0:0:0:0:
64,192,77745,1,0,0:0:0:0:
192,192,77745,1,0,0:0:0:0:
320,192,77745,1,0,0:0:0:0:
448,192,77818,1,0,0:0:0:0:
192,192,77891,1,0,0:0:0:0:
320,192,77891,1,0,0:0:0:0:
64,192,77965,1,0,0:0:0:0:
64,192,78038,1,0,0:0:0:0:
192,192,78111,1,0,0:0:0:0:
448,192,78185,1,0,0:0:0:0:
320,192,78185,1,0,0:0:0:0:
192,192,78185,1,0,0:0:0:0:
64,192,78258,1,0,0:0:0:0:
64,192,78331,1,0,0:0:0:0:
192,192,78404,1,0,0:0:0:0:
320,192,78478,1,0,0:0:0:0:
448,192,78478,1,0,0:0:0:0:
192,192,78624,1,0,0:0:0:0:
448,192,78624,1,0,0:0:0:0:
320,192,78698,1,0,0:0:0:0:
64,192,78771,1,0,0:0:0:0:
192,192,78917,1,0,0:0:0:0:
320,192,78991,1,0,0:0:0:0:
64,192,79064,1,0,0:0:0:0:
448,192,79064,1,0,0:0:0:0:
192,192,79210,1,0,0:0:0:0:
320,192,79284,1,0,0:0:0:0:
64,192,79284,1,0,0:0:0:0:
448,192,79357,1,0,0:0:0:0:
192,192,79430,1,0,0:0:0:0:
320,192,79504,1,0,0:0:0:0:
64,192,79577,1,0,0:0:0:0:
448,192,79650,1,0,0:0:0:0:
192,192,79723,1,0,0:0:0:0:
320,192,79723,1,0,0:0:0:0:
64,192,79797,1,0,0:0:0:0:
448,192,79870,1,0,0:0:0:0:
192,192,79943,1,0,0:0:0:0:
320,192,80017,1,0,0:0:0:0:
64,192,80090,1,0,0:0:0:0:
448,192,80163,1,0,0:0:0:0:
192,192,80236,1,0,0:0:0:0:
448,192,80310,1,0,0:0:0:0:
320,192,80456,1,0,0:0:0:0:
64,192,80529,1,0,0:0:0:0:
320,192,80603,1,0,0:0:0:0:
192,192,80603,1,0,0:0:0:0:
448,192,80676,1,0,0:0:0:0:
320,192,80896,1,0,0:0:0:0:
64,192,81042,1,0,0:0:0:0:
448,192,81116,1,0,0:0:0:0:
192,192,81189,1,0,0:0:0:0:
320,192,81262,1,0,0:0:0:0:
64,192,81336,1,0,0:0:0:0:
448,192,81409,1,0,0:0:0:0:
320,192,81629,1,0,0:0:0:0:
192,192,81702,1,0,0:0:0:0:
448,192,81775,1,0,0:0:0:0:
320,192,81848,1,0,0:0:0:0:
64,192,81922,1,0,0:0:0:0:
448,192,81995,1,0,0:0:0:0:
192,192,82068,1,0,0:0:0:0:
320,192,82215,1,0,0:0:0:0:
64,192,82361,1,0,0:0:0:0:
448,192,82435,1,0,0:0:0:0:
192,192,82508,1,0,0:0:0:0:
320,192,82728,1,0,0:0:0:0:
448,192,82874,1,0,0:0:0:0:
64,192,82948,1,0,0:0:0:0:
320,192,82948,1,0,0:0:0:0:
192,192,83094,1,0,0:0:0:0:
448,192,83167,1,0,0:0:0:0:
64,192,83241,1,0,0:0:0:0:
320,192,83241,1,0,0:0:0:0:
192,192,83461,1,0,0:0:0:0:
64,192,83534,1,0,0:0:0:0:
448,192,83607,1,0,0:0:0:0:
192,192,83680,1,0,0:0:0:0:
320,192,83754,1,0,0:0:0:0:
64,192,83827,1,0,0:0:0:0:
448,192,83900,1,0,0:0:0:0:
448,192,83974,1,0,0:0:0:0:
448,192,84047,1,0,0:0:0:0:
64,192,84193,1,0,0:0:0:0:
320,192,84193,1,0,0:0:0:0:
192,192,84267,1,0,0:0:0:0:
448,192,84340,1,0,0:0:0:0:
64,192,84340,1,0,0:0:0:0:
320,192,84486,1,0,0:0:0:0:
192,192,84560,1,0,0:0:0:0:
448,192,84633,1,0,0:0:0:0:
64,192,84706,1,0,0:0:0:0:
320,192,84780,1,0,0:0:0:0:
192,192,84853,1,0,0:0:0:0:
448,192,84926,1,0,0:0:0:0:
64,192,84926,1,0,0:0:0:0:
192,192,85146,1,0,0:0:0:0:
192,192,85293,1,0,0:0:0:0:
320,192,85366,1,0,0:0:0:0:
192,192,85439,1,0,0:0:0:0:
448,192,85512,1,0,0:0:0:0:
64,192,85659,1,0,0:0:0:0:
320,192,85732,1,0,0:0:0:0:
192,192,85805,1,0,0:0:0:0:
448,192,85952,1,0,0:0:0:0:
192,192,86025,1,0,0:0:0:0:
192,192,86172,1,0,0:0:0:0:
192,192,86392,1,0,0:0:0:0:
320,192,86465,1,0,0:0:0:0:
64,192,86538,1,0,0:0:0:0:
448,192,86538,1,0,0:0:0:0:
192,192,86612,1,0,0:0:0:0:
192,192,86831,1,0,0:0:0:0:
64,192,86978,1,0,0:0:0:0:
320,192,86978,1,0,0:0:0:0:
64,192,87051,1,0,0:0:0:0:
448,192,87124,1,0,0:0:0:0:
192,192,87198,1,0,0:0:0:0:
320,192,87271,1,0,0:0:0:0:
64,192,87344,1,0,0:0:0:0:
448,192,87344,1,0,0:0:0:0:
192,192,87418,1,0,0:0:0:0:
320,192,87491,1,0,0:0:0:0:
192,192,87637,1,0,0:0:0:0:
448,192,87637,128,0,88883:0:0:0:0:
320,192,87784,1,0,0:0:0:0:
64,192,87931,1,0,0:0:0:0:
320,192,88004,1,0,0:0:0:0:
192,192,88150,1,0,0:0:0:0:
320,192,88224,1,0,0:0:0:0:
64,192,88370,1,0,0:0:0:0:
320,192,88590,1,0,0:0:0:0:
192,192,88590,1,0,0:0:0:0:
320,192,88737,1,0,0:0:0:0:
64,192,88883,1,0,0:0:0:0:
320,192,88956,1,0,0:0:0:0:
192,192,89103,1,0,0:0:0:0:
448,192,89176,1,0,0:0:0:0:
192,192,89396,1,0,0:0:0:0:
448,192,89469,1,0,0:0:0:0:
64,192,89616,1,0,0:0:0:0:
320,192,89616,1,0,0:0:0:0:
448,192,89689,1,0,0:0:0:0:
320,192,89836,1,0,0:0:0:0:
192,192,89909,1,0,0:0:0:0:
64,192,89982,1,0,0:0:0:0:
320,192,89982,1,0,0:0:0:0:
448,192,90202,1,0,0:0:0:0:
64,192,90202,1,0,0:0:0:0:
320,192,90349,1,0,0:0:0:0:
64,192,90349,1,0,0:0:0:0:
448,192,90422,1,0,0:0:0:0:
192,192,90495,1,0,0:0:0:0:
320,192,90642,1,0,0:0:0:0:
64,192,90715,1,0,0:0:0:0:
448,192,90788,1,0,0:0:0:0:
192,192,90935,1,0,0:0:0:0:
320,192,91008,1,0,0:0:0:0:
192,192,91008,1,0,0:0:0:0:
192,192,91155,1,0,0:0:0:0:
448,192,91155,1,0,0:0:0:0:
320,192,91228,1,0,0:0:0:0:
64,192,91301,1,0,0:0:0:0:
192,192,91375,1,0,0:0:0:0:
448,192,91375,1,0,0:0:0:0:
448,192,91448,1,0,0:0:0:0:
320,192,91521,1,0,0:0:0:0:
192,192,91594,1,0,0:0:0:0:
192,192,91741,1,0,0:0:0:0:
320,192,91888,1,0,0:0:0:0:
64,192,91961,1,0,0:0:0:0:
448,192,91961,1,0,0:0:0:0:
192,192,92034,1,0,0:0:0:0:
320,192,92181,1,0,0:0:0:0:
64,192,92181,1,0,0:0:0:0:
448,192,92327,1,0,0:0:0:0:
192,192,92400,1,0,0:0:0:0:
320,192,92547,1,0,0:0:0:0:
64,192,92620,1,0,0:0:0:0:
320,192,92767,1,0,0:0:0:0:
448,192,92767,1,0,0:0:0:0:
192,192,92913,1,0,0:0:0:0:
320,192,92987,1,0,0:0:0:0:
448,192,93060,1,0,0:0:0:0:
320,192,93133,1,0,0:0:0:0:
64,192,93207,1,0,0:0:0:0:
320,192,93353,1,0,0:0:0:0:
192,192,93426,1,0,0:0:0:0:
320,192,93646,1,0,0:0:0:0:
448,192,93646,1,0,0:0:0:0:
64,192,93719,1,0,0:0:0:0:
320,192,93866,1,0,0:0:0:0:
192,192,94013,1,0,0:0:0:0:
320,192,94086,1,0,0:0:0:0:
64,192,94232,1,0,0:0:0:0:
448,192,94379,1,0,0:0:0:0:
320,192,94379,1,0,0:0:0:0:
192,192,94379,1,0,0:0:0:0:
64,192,94526,1,0,0:0:0:0:
448,192,94599,1,0,0:0:0:0:
192,192,94745,1,0,0:0:0:0:
320,192,94819,1,0,0:0:0:0:
448,192,94892,128,0,95258:0:0:0:0:
64,192,95039,1,0,0:0:0:0:
64,192,95332,128,0,95771:0:0:0:0:
320,192,95405,1,0,0:0:0:0:
448,192,95551,1,0,0:0:0:0:
192,192,95698,1,0,0:0:0:0:
448,192,95845,128,0,96504:0:0:0:0:
320,192,95918,1,0,0:0:0:0:
320,192,96064,1,0,0:0:0:0:
64,192,96138,1,0,0:0:0:0:
192,192,96358,128,0,97090:0:0:0:0:
320,192,96431,128,0,97090:0:0:0:0:
448,192,96724,1,0,0:0:0:0:
320,192,97164,1,0,0:0:0:0:
64,192,97310,1,0,0:0:0:0:
448,192,97310,1,0,0:0:0:0:
320,192,97383,1,0,0:0:0:0:
192,192,97530,1,0,0:0:0:0:
448,192,97677,1,0,0:0:0:0:
64,192,97750,1,0,0:0:0:0:
320,192,97823,1,0,0:0:0:0:
448,192,97970,1,0,0:0:0:0:
192,192,97970,1,0,0:0:0:0:
320,192,98116,128,0,98629:0:0:0:0:
64,192,98116,128,0,98629:0:0:0:0:
192,192,98336,1,0,0:0:0:0:
448,192,98336,1,0,0:0:0:0:
192,192,98702,1,0,0:0:0:0:
448,192,98702,1,0,0:0:0:0:
320,192,98776,1,0,0:0:0:0:
64,192,98922,1,0,0:0:0:0:
448,192,98922,1,0,0:0:0:0:
192,192,98996,1,0,0:0:0:0:
320,192,99142,1,0,0:0:0:0:
320,192,99289,1,0,0:0:0:0:
448,192,99362,1,0,0:0:0:0:
64,192,99435,1,0,0:0:0:0:
192,192,99582,1,0,0:0:0:0:
320,192,99655,1,0,0:0:0:0:
448,192,99875,1,0,0:0:0:0:
64,192,99875,1,0,0:0:0:0:
320,192,99875,1,0,0:0:0:0:
320,192,100095,1,0,0:0:0:0:
192,192,100095,1,0,0:0:0:0:
64,192,100315,1,0,0:0:0:0:
448,192,100315,1,0,0:0:0:0:
192,192,100534,128,0,101780:0:0:0:0:
320,192,100608,128,0,101853:0:0:0:0:
64,192,101927,1,0,0:0:0:0:
448,192,101927,1,0,0:0:0:0:
320,192,102073,1,0,0:0:0:0:
192,192,102073,1,0,0:0:0:0:
448,192,102293,1,0,0:0:0:0:
64,192,102293,1,0,0:0:0:0:
320,192,102366,1,0,0:0:0:0:
192,192,102366,1,0,0:0:0:0:
64,192,102513,1,0,0:0:0:0:
448,192,102513,1,0,0:0:0:0:
320,192,102659,1,0,0:0:0:0:
192,192,102733,1,0,0:0:0:0:
448,192,102806,1,0,0:0:0:0:
64,192,102879,1,0,0:0:0:0:
320,192,102953,1,0,0:0:0:0:
192,192,102953,1,0,0:0:0:0:
448,192,103026,1,0,0:0:0:0:
64,192,103099,1,0,0:0:0:0:
320,192,103172,1,0,0:0:0:0:
192,192,103246,1,0,0:0:0:0:
448,192,103319,1,0,0:0:0:0:
64,192,103392,1,0,0:0:0:0:
320,192,103465,1,0,0:0:0:0:
64,192,103539,1,0,0:0:0:0:
448,192,103539,1,0,0:0:0:0:
64,192,103612,1,0,0:0:0:0:
448,192,103685,1,0,0:0:0:0:
64,192,103759,1,0,0:0:0:0:
448,192,103905,1,0,0:0:0:0:
192,192,104052,1,0,0:0:0:0:
320,192,104125,1,0,0:0:0:0:
64,192,104272,1,0,0:0:0:0:
448,192,104345,1,0,0:0:0:0:
64,192,104491,1,0,0:0:0:0:
320,192,104565,1,0,0:0:0:0:
192,192,104711,1,0,0:0:0:0:
448,192,104858,1,0,0:0:0:0:
64,192,104931,1,0,0:0:0:0:
320,192,105004,1,0,0:0:0:0:
192,192,105151,1,0,0:0:0:0:
448,192,105224,1,0,0:0:0:0:
64,192,105297,1,0,0:0:0:0:
320,192,105444,1,0,0:0:0:0:
192,192,105517,1,0,0:0:0:0:
448,192,105664,1,0,0:0:0:0:
64,192,105737,1,0,0:0:0:0:
320,192,105810,1,0,0:0:0:0:
192,192,105957,1,0,0:0:0:0:
448,192,106030,1,0,0:0:0:0:
64,192,106103,1,0,0:0:0:0:
320,192,106177,1,0,0:0:0:0:
192,192,106250,1,0,0:0:0:0:
448,192,106323,1,0,0:0:0:0:
64,192,106470,1,0,0:0:0:0:
320,192,106543,1,0,0:0:0:0:
192,192,106616,1,0,0:0:0:0:
448,192,106690,1,0,0:0:0:0:
64,192,106763,1,0,0:0:0:0:
320,192,106836,1,0,0:0:0:0:
192,192,106910,1,0,0:0:0:0:
448,192,106983,1,0,0:0:0:0:
64,192,107056,1,0,0:0:0:0:
320,192,107129,1,0,0:0:0:0:
192,192,107203,1,0,0:0:0:0:
448,192,107349,1,0,0:0:0:0:
64,192,107422,1,0,0:0:0:0:
320,192,107496,1,0,0:0:0:0:
448,192,107569,1,0,0:0:0:0:
192,192,107569,1,0,0:0:0:0:
64,192,107642,1,0,0:0:0:0:
448,192,107789,1,0,0:0:0:0:
192,192,107789,1,0,0:0:0:0:
320,192,108009,1,0,0:0:0:0:
64,192,108155,1,0,0:0:0:0:
192,192,108229,1,0,0:0:0:0:
448,192,108302,1,0,0:0:0:0:
320,192,108302,1,0,0:0:0:0:
64,192,108448,1,0,0:0:0:0:
320,192,108522,1,0,0:0:0:0:
448,192,108522,1,0,0:0:0:0:
64,192,108741,1,0,0:0:0:0:
448,192,108741,1,0,0:0:0:0:
320,192,108741,1,0,0:0:0:0:
192,192,108961,1,0,0:0:0:0:
448,192,108961,1,0,0:0:0:0:
64,192,109181,1,0,0:0:0:0:
320,192,109181,1,0,0:0:0:0:
192,192,109401,1,0,0:0:0:0:
448,192,109401,1,0,0:0:0:0:
64,192,109621,1,0,0:0:0:0:
320,192,109621,1,0,0:0:0:0:
192,192,109841,1,0,0:0:0:0:
448,192,109841,1,0,0:0:0:0:
64,192,110060,1,0,0:0:0:0:
320,192,110060,1,0,0:0:0:0:
448,192,110280,1,0,0:0:0:0:
192,192,110354,1,0,0:0:0:0:
320,192,110500,1,0,0:0:0:0:
64,192,110573,1,0,0:0:0:0:
448,192,110647,1,0,0:0:0:0:
64,192,110793,1,0,0:0:0:0:
320,192,110867,1,0,0:0:0:0:
448,192,110940,1,0,0:0:0:0:
192,192,111013,1,0,0:0:0:0:
320,192,111086,1,0,0:0:0:0:
448,192,111086,1,0,0:0:0:0:
320,192,111233,1,0,0:0:0:0:
64,192,111306,1,0,0:0:0:0:
448,192,111453,1,0,0:0:0:0:
192,192,111526,1,0,0:0:0:0:
320,192,111673,1,0,0:0:0:0:
64,192,111746,1,0,0:0:0:0:
448,192,111892,1,0,0:0:0:0:
192,192,111966,1,0,0:0:0:0:
320,192,112039,1,0,0:0:0:0:
64,192,112186,1,0,0:0:0:0:
448,192,112259,1,0,0:0:0:0:
192,192,112332,1,0,0:0:0:0:
320,192,112479,1,0,0:0:0:0:
448,192,112479,1,0,0:0:0:0:
64,192,112552,1,0,0:0:0:0:
192,192,112625,1,0,0:0:0:0:
320,192,112698,1,0,0:0:0:0:
448,192,112698,1,0,0:0:0:0:
320,192,112845,1,0,0:0:0:0:
64,192,112918,1,0,0:0:0:0:
448,192,112992,1,0,0:0:0:0:
320,192,113065,1,0,0:0:0:0:
192,192,113138,1,0,0:0:0:0:
64,192,113138,1,0,0:0:0:0:
320,192,113285,1,0,0:0:0:0:
448,192,113358,1,0,0:0:0:0:
64,192,113431,1,0,0:0:0:0:
320,192,113505,1,0,0:0:0:0:
192,192,113651,1,0,0:0:0:0:
64,192,113724,1,0,0:0:0:0:
448,192,113724,1,0,0:0:0:0:
320,192,113871,1,0,0:0:0:0:
448,192,114017,1,0,0:0:0:0:
64,192,114164,1,0,0:0:0:0:
320,192,114237,1,0,0:0:0:0:
192,192,114311,1,0,0:0:0:0:
320,192,114384,1,0,0:0:0:0:
448,192,114457,1,0,0:0:0:0:
192,192,114530,1,0,0:0:0:0:
64,192,114677,1,0,0:0:0:0:
320,192,114677,1,0,0:0:0:0:
448,192,114677,1,0,0:0:0:0:
64,192,114824,1,0,0:0:0:0:
320,192,114824,1,0,0:0:0:0:
448,192,114824,1,0,0:0:0:0:
192,192,115117,1,0,0:0:0:0:
320,192,115117,1,0,0:0:0:0:
448,192,115190,1,0,0:0:0:0:
64,192,115263,1,0,0:0:0:0:
192,192,115483,1,0,0:0:0:0:
320,192,115483,1,0,0:0:0:0:
448,192,115630,1,0,0:0:0:0:
64,192,115703,1,0,0:0:0:0:
192,192,115849,1,0,0:0:0:0:
320,192,115849,1,0,0:0:0:0:
448,192,115996,1,0,0:0:0:0:
192,192,116216,1,0,0:0:0:0:
320,192,116216,1,0,0:0:0:0:
64,192,116289,1,0,0:0:0:0:
448,192,116362,1,0,0:0:0:0:
64,192,116436,1,0,0:0:0:0:
448,192,116436,1,0,0:0:0:0:
64,192,116656,1,0,0:0:0:0:
448,192,116656,1,0,0:0:0:0:
320,192,116802,1,0,0:0:0:0:
192,192,116949,1,0,0:0:0:0:
320,192,116949,1,0,0:0:0:0:
64,192,117022,1,0,0:0:0:0:
448,192,117022,1,0,0:0:0:0:
448,192,117168,1,0,0:0:0:0:
192,192,117242,1,0,0:0:0:0:
320,192,117242,1,0,0:0:0:0:
64,192,117388,1,0,0:0:0:0:
448,192,117388,1,0,0:0:0:0:
192,192,117681,1,0,0:0:0:0:
320,192,117681,1,0,0:0:0:0:
448,192,117755,1,0,0:0:0:0:
64,192,117828,1,0,0:0:0:0:
320,192,117828,1,0,0:0:0:0:
448,192,117975,1,0,0:0:0:0:
320,192,118048,1,0,0:0:0:0:
64,192,118194,1,0,0:0:0:0:
448,192,118268,1,0,0:0:0:0:
192,192,118341,1,0,0:0:0:0:
320,192,118487,1,0,0:0:0:0:
448,192,118487,1,0,0:0:0:0:
192,192,118561,1,0,0:0:0:0:
64,192,118634,1,0,0:0:0:0:
448,192,118707,128,0,119294:0:0:0:0:
320,192,118854,1,0,0:0:0:0:
192,192,118854,1,0,0:0:0:0:
320,192,119074,1,0,0:0:0:0:
64,192,119147,1,0,0:0:0:0:
192,192,119294,1,0,0:0:0:0:
64,192,119513,1,0,0:0:0:0:
320,192,119587,1,0,0:0:0:0:
192,192,119660,1,0,0:0:0:0:
448,192,119733,1,0,0:0:0:0:
64,192,119806,1,0,0:0:0:0:
320,192,119806,1,0,0:0:0:0:
192,192,119953,1,0,0:0:0:0:
448,192,120026,1,0,0:0:0:0:
320,192,120100,1,0,0:0:0:0:
64,192,120173,1,0,0:0:0:0:
448,192,120246,1,0,0:0:0:0:
192,192,120319,1,0,0:0:0:0:
64,192,120539,1,0,0:0:0:0:
320,192,120686,1,0,0:0:0:0:
192,192,120759,1,0,0:0:0:0:
448,192,120832,128,0,121492:0:0:0:0:
320,192,120906,1,0,0:0:0:0:
64,192,120906,128,0,121419:0:0:0:0:
192,192,121345,1,0,0:0:0:0:
320,192,121492,1,0,0:0:0:0:
64,192,121638,1,0,0:0:0:0:
448,192,121785,1,0,0:0:0:0:
192,192,121932,1,0,0:0:0:0:
320,192,122078,1,0,0:0:0:0:
64,192,122225,1,0,0:0:0:0:
448,192,122371,1,0,0:0:0:0:
192,192,122664,1,0,0:0:0:0:
320,192,122664,1,0,0:0:0:0:
64,192,122884,1,0,0:0:0:0:
192,192,123177,1,0,0:0:0:0:
64,192,123251,128,0,124276:0:0:0:0:
448,192,123397,128,0,124276:0:0:0:0:
192,192,123544,1,0,0:0:0:0:
320,192,123690,1,0,0:0:0:0:
192,192,123763,1,0,0:0:0:0:
320,192,123910,1,0,0:0:0:0:
192,192,124057,1,0,0:0:0:0:
192,192,124203,1,0,0:0:0:0:
64,192,124350,1,0,0:0:0:0:
320,192,124423,1,0,0:0:0:0:
64,192,124570,1,0,0:0:0:0:
320,192,124716,1,0,0:0:0:0:
448,192,124789,1,0,0:0:0:0:
192,192,124863,1,0,0:0:0:0:
448,192,125009,1,0,0:0:0:0:
64,192,125082,1,0,0:0:0:0:
448,192,125082,1,0,0:0:0:0:
320,192,125229,1,0,0:0:0:0:
448,192,125302,1,0,0:0:0:0:
192,192,125376,1,0,0:0:0:0:
320,192,125449,1,0,0:0:0:0:
64,192,125595,1,0,0:0:0:0:
320,192,125669,1,0,0:0:0:0:
64,192,125669,1,0,0:0:0:0:
192,192,125889,1,0,0:0:0:0:
448,192,125889,1,0,0:0:0:0:
64,192,125962,1,0,0:0:0:0:
320,192,126108,1,0,0:0:0:0:
192,192,126108,1,0,0:0:0:0:
64,192,126328,1,0,0:0:0:0:
448,192,126401,1,0,0:0:0:0:
192,192,126401,1,0,0:0:0:0:
320,192,126621,1,0,0:0:0:0:
64,192,126695,1,0,0:0:0:0:
192,192,126914,1,0,0:0:0:0:
448,192,126914,1,0,0:0:0:0:
64,192,127134,1,0,0:0:0:0:
320,192,127134,1,0,0:0:0:0:
448,192,127427,1,0,0:0:0:0:
192,192,127427,1,0,0:0:0:0:
320,192,127647,1,0,0:0:0:0:
64,192,127720,1,0,0:0:0:0:
448,192,127867,1,0,0:0:0:0:
192,192,128014,1,0,0:0:0:0:
320,192,128087,1,0,0:0:0:0:
64,192,128233,1,0,0:0:0:0:
320,192,128380,1,0,0:0:0:0:
448,192,128453,1,0,0:0:0:0:
64,192,128453,1,0,0:0:0:0:
192,192,128673,1,0,0:0:0:0:
320,192,128673,1,0,0:0:0:0:
448,192,128820,1,0,0:0:0:0:
64,192,128820,1,0,0:0:0:0:
320,192,129113,1,0,0:0:0:0:
192,192,129113,1,0,0:0:0:0:
64,192,129333,1,0,0:0:0:0:
448,192,129333,1,0,0:0:0:0:
320,192,129552,1,0,0:0:0:0:
192,192,129626,1,0,0:0:0:0:
64,192,129699,1,0,0:0:0:0:
448,192,129772,1,0,0:0:0:0:
320,192,129846,1,0,0:0:0:0:
192,192,129919,1,0,0:0:0:0:
448,192,130139,1,0,0:0:0:0:
64,192,130212,1,0,0:0:0:0:
320,192,130432,1,0,0:0:0:0:
192,192,130652,1,0,0:0:0:0:
448,192,130798,1,0,0:0:0:0:
320,192,130871,1,0,0:0:0:0:
64,192,131091,1,0,0:0:0:0:
192,192,131238,1,0,0:0:0:0:
320,192,131384,1,0,0:0:0:0:
448,192,131458,1,0,0:0:0:0:
320,192,131604,1,0,0:0:0:0:
192,192,131677,1,0,0:0:0:0:
64,192,131824,1,0,0:0:0:0:
192,192,132044,1,0,0:0:0:0:
320,192,132117,1,0,0:0:0:0:
448,192,132264,1,0,0:0:0:0:
320,192,132410,1,0,0:0:0:0:
192,192,132484,1,0,0:0:0:0:
64,192,132557,1,0,0:0:0:0:
320,192,132703,1,0,0:0:0:0:
448,192,132777,1,0,0:0:0:0:
64,192,132850,1,0,0:0:0:0:
192,192,132996,1,0,0:0:0:0:
320,192,133070,1,0,0:0:0:0:
448,192,133216,1,0,0:0:0:0:
64,192,133290,1,0,0:0:0:0:
192,192,133290,1,0,0:0:0:0:
320,192,133290,1,0,0:0:0:0:
320,192,133436,1,0,0:0:0:0:
192,192,133436,1,0,0:0:0:0:
448,192,133509,1,0,0:0:0:0:
448,192,133656,1,0,0:0:0:0:
64,192,133656,1,0,0:0:0:0:
320,192,133876,1,0,0:0:0:0:
192,192,133876,1,0,0:0:0:0:
64,192,134169,1,0,0:0:0:0:
448,192,134169,1,0,0:0:0:0:
320,192,134389,1,0,0:0:0:0:
192,192,134535,1,0,0:0:0:0:
448,192,134682,1,0,0:0:0:0:
64,192,134828,1,0,0:0:0:0:
320,192,134902,1,0,0:0:0:0:
448,192,134975,1,0,0:0:0:0:
192,192,135048,1,0,0:0:0:0:
320,192,135195,1,0,0:0:0:0:
448,192,135268,1,0,0:0:0:0:
64,192,135341,1,0,0:0:0:0:
320,192,135415,1,0,0:0:0:0:
192,192,135634,1,0,0:0:0:0:
448,192,135781,1,0,0:0:0:0:
64,192,135854,1,0,0:0:0:0:
320,192,136001,1,0,0:0:0:0:
320,192,136294,1,0,0:0:0:0:
64,192,136294,1,0,0:0:0:0:
192,192,136367,1,0,0:0:0:0:
448,192,136441,1,0,0:0:0:0:
64,192,136441,1,0,0:0:0:0:
192,192,136514,1,0,0:0:0:0:
448,192,136660,1,0,0:0:0:0:
320,192,136734,1,0,0:0:0:0:
64,192,136807,1,0,0:0:0:0:
192,192,136880,1,0,0:0:0:0:
320,192,137027,1,0,0:0:0:0:
448,192,137173,1,0,0:0:0:0:
448,192,137320,1,0,0:0:0:0:
64,192,137466,1,0,0:0:0:0:
320,192,137466,1,0,0:0:0:0:
192,192,137613,1,0,0:0:0:0:
320,192,137613,1,0,0:0:0:0:
320,192,137833,1,0,0:0:0:0:
64,192,137906,1,0,0:0:0:0:
448,192,137979,1,0,0:0:0:0:
192,192,137979,1,0,0:0:0:0:
320,192,138053,1,0,0:0:0:0:
320,192,138199,1,0,0:0:0:0:
320,192,138346,1,0,0:0:0:0:
192,192,138419,1,0,0:0:0:0:
448,192,138566,1,0,0:0:0:0:
64,192,138566,1,0,0:0:0:0:
320,192,138639,1,0,0:0:0:0:
192,192,138712,1,0,0:0:0:0:
320,192,138859,1,0,0:0:0:0:
64,192,138932,1,0,0:0:0:0:
448,192,139005,1,0,0:0:0:0:
192,192,139005,1,0,0:0:0:0:
320,192,139079,1,0,0:0:0:0:
64,192,139152,1,0,0:0:0:0:
192,192,139225,1,0,0:0:0:0:
448,192,139225,1,0,0:0:0:0:
320,192,139298,1,0,0:0:0:0:
64,192,139372,1,0,0:0:0:0:
320,192,139445,1,0,0:0:0:0:
192,192,139665,1,0,0:0:0:0:
64,192,139665,1,0,0:0:0:0:
448,192,139738,1,0,0:0:0:0:
320,192,139811,1,0,0:0:0:0:
64,192,140104,128,0,141350:0:0:0:0:
448,192,140324,1,0,0:0:0:0:
192,192,140324,1,0,0:0:0:0:
320,192,140544,1,0,0:0:0:0:
320,192,140764,1,0,0:0:0:0:
192,192,140764,1,0,0:0:0:0:
448,192,140911,1,0,0:0:0:0:
192,192,141057,1,0,0:0:0:0:
320,192,141057,1,0,0:0:0:0:
320,192,141204,1,0,0:0:0:0:
448,192,141350,1,0,0:0:0:0:
64,192,141350,1,0,0:0:0:0:
192,192,141570,1,0,0:0:0:0:
320,192,141570,1,0,0:0:0:0:
320,192,141717,1,0,0:0:0:0:
448,192,141863,1,0,0:0:0:0:
64,192,142010,1,0,0:0:0:0:
192,192,142303,1,0,0:0:0:0:
320,192,142596,1,0,0:0:0:0:
448,192,142669,128,0,143402:0:0:0:0:
320,192,143182,1,0,0:0:0:0:
192,192,143329,1,0,0:0:0:0:
64,192,143475,1,0,0:0:0:0:
320,192,143622,1,0,0:0:0:0:
192,192,143768,1,0,0:0:0:0:
64,192,143988,1,0,0:0:0:0:
192,192,144135,1,0,0:0:0:0:
448,192,144281,128,0,144721:0:0:0:0:
64,192,144281,1,0,0:0:0:0:
192,192,144355,1,0,0:0:0:0:
320,192,144648,1,0,0:0:0:0:
448,192,144794,1,0,0:0:0:0:
192,192,144868,1,0,0:0:0:0:
320,192,145014,1,0,0:0:0:0:
320,192,145087,1,0,0:0:0:0:
64,192,145161,128,0,145747:0:0:0:0:
448,192,145307,1,0,0:0:0:0:
192,192,145454,1,0,0:0:0:0:
320,192,145600,1,0,0:0:0:0:
192,192,145674,1,0,0:0:0:0:
448,192,145820,1,0,0:0:0:0:
320,192,145967,1,0,0:0:0:0:
192,192,146040,1,0,0:0:0:0:
448,192,146113,1,0,0:0:0:0:
320,192,146187,1,0,0:0:0:0:
64,192,146333,128,0,146699:0:0:0:0:
320,192,146333,1,0,0:0:0:0:
192,192,146699,1,0,0:0:0:0:
320,192,146699,1,0,0:0:0:0:
448,192,146773,128,0,147212:0:0:0:0:
192,192,146993,1,0,0:0:0:0:
320,192,147212,1,0,0:0:0:0:
64,192,147286,1,0,0:0:0:0:
192,192,147359,128,0,147799:0:0:0:0:
448,192,147872,1,0,0:0:0:0:
320,192,147945,1,0,0:0:0:0:
64,192,148092,128,0,148605:0:0:0:0:
448,192,148165,128,0,148751:0:0:0:0:
192,192,148678,1,0,0:0:0:0:
320,192,148751,1,0,0:0:0:0:
448,192,148898,1,0,0:0:0:0:
64,192,148971,1,0,0:0:0:0:
320,192,149118,1,0,0:0:0:0:
192,192,149191,1,0,0:0:0:0:
320,192,149337,1,0,0:0:0:0:
64,192,149484,1,0,0:0:0:0:
448,192,149484,1,0,0:0:0:0:
320,192,149631,1,0,0:0:0:0:
448,192,149777,1,0,0:0:0:0:
64,192,149850,1,0,0:0:0:0:
192,192,149924,1,0,0:0:0:0:
448,192,149997,1,0,0:0:0:0:
320,192,150070,1,0,0:0:0:0:
64,192,150144,1,0,0:0:0:0:
192,192,150217,1,0,0:0:0:0:
448,192,150363,1,0,0:0:0:0:
64,192,150437,1,0,0:0:0:0:
448,192,150510,1,0,0:0:0:0:
192,192,150510,1,0,0:0:0:0:
320,192,150583,1,0,0:0:0:0:
448,192,150730,1,0,0:0:0:0:
64,192,150803,1,0,0:0:0:0:
192,192,150876,1,0,0:0:0:0:
320,192,150876,1,0,0:0:0:0:
448,192,150950,1,0,0:0:0:0:
448,192,151023,1,0,0:0:0:0:
448,192,151169,1,0,0:0:0:0:
320,192,151243,1,0,0:0:0:0:
64,192,151316,1,0,0:0:0:0:
192,192,151389,1,0,0:0:0:0:
320,192,151389,1,0,0:0:0:0:
448,192,151536,1,0,0:0:0:0:
64,192,151609,1,0,0:0:0:0:
192,192,151682,1,0,0:0:0:0:
320,192,151756,1,0,0:0:0:0:
320,192,151829,1,0,0:0:0:0:
320,192,151975,1,0,0:0:0:0:
192,192,152049,1,0,0:0:0:0:
448,192,152122,1,0,0:0:0:0:
320,192,152195,1,0,0:0:0:0:
64,192,152342,1,0,0:0:0:0:
192,192,152415,1,0,0:0:0:0:
448,192,152562,1,0,0:0:0:0:
320,192,152708,1,0,0:0:0:0:
192,192,152708,1,0,0:0:0:0:
448,192,152928,1,0,0:0:0:0:
64,192,153001,1,0,0:0:0:0:
320,192,153075,1,0,0:0:0:0:
192,192,153148,128,0,153588:0:0:0:0:
448,192,153368,1,0,0:0:0:0:
320,192,153514,1,0,0:0:0:0:
448,192,153514,128,0,154027:0:0:0:0:
64,192,153807,128,0,154247:0:0:0:0:
448,192,154247,1,0,0:0:0:0:
192,192,154320,1,0,0:0:0:0:
320,192,154467,1,0,0:0:0:0:
64,192,154613,1,0,0:0:0:0:
448,192,154760,1,0,0:0:0:0:
192,192,154833,1,0,0:0:0:0:
320,192,154980,1,0,0:0:0:0:
64,192,155126,1,0,0:0:0:0:
320,192,155200,1,0,0:0:0:0:
448,192,155273,1,0,0:0:0:0:
192,192,155420,1,0,0:0:0:0:
448,192,155420,1,0,0:0:0:0:
320,192,155566,1,0,0:0:0:0:
64,192,155639,1,0,0:0:0:0:
320,192,155713,1,0,0:0:0:0:
192,192,155786,1,0,0:0:0:0:
320,192,155859,1,0,0:0:0:0:
448,192,156006,1,0,0:0:0:0:
448,192,156226,128,0,156812:0:0:0:0:
64,192,156372,128,0,156885:0:0:0:0:
320,192,156445,128,0,156885:0:0:0:0:
448,192,156958,1,0,0:0:0:0:
192,192,156958,1,0,0:0:0:0:
320,192,157178,1,0,0:0:0:0:
64,192,157325,1,0,0:0:0:0:
320,192,157398,1,0,0:0:0:0:
192,192,157545,1,0,0:0:0:0:
64,192,157545,1,0,0:0:0:0:
448,192,157764,128,0,158644:0:0:0:0:
192,192,158497,1,0,0:0:0:0:
320,192,158790,1,0,0:0:0:0:
64,192,158937,1,0,0:0:0:0:
448,192,159083,1,0,0:0:0:0:
192,192,159230,1,0,0:0:0:0:
320,192,159377,1,0,0:0:0:0:
64,192,159450,1,0,0:0:0:0:
320,192,159596,1,0,0:0:0:0:
192,192,159890,1,0,0:0:0:0:
448,192,160109,1,0,0:0:0:0:
64,192,160183,1,0,0:0:0:0:
320,192,160256,1,0,0:0:0:0:
192,192,160402,1,0,0:0:0:0:
448,192,160622,1,0,0:0:0:0:
192,192,160622,1,0,0:0:0:0:
64,192,160842,1,0,0:0:0:0:
448,192,160915,1,0,0:0:0:0:
448,192,161135,1,0,0:0:0:0:
320,192,161282,1,0,0:0:0:0:
448,192,161355,1,0,0:0:0:0:
64,192,161428,1,0,0:0:0:0:
192,192,161575,1,0,0:0:0:0:
320,192,161575,1,0,0:0:0:0:
448,192,161795,1,0,0:0:0:0:
64,192,161795,1,0,0:0:0:0:
320,192,161941,1,0,0:0:0:0:
192,192,162088,1,0,0:0:0:0:
448,192,162161,1,0,0:0:0:0:
320,192,162234,1,0,0:0:0:0:
64,192,162308,1,0,0:0:0:0:
192,192,162454,1,0,0:0:0:0:
320,192,162528,1,0,0:0:0:0:
320,192,162674,1,0,0:0:0:0:
64,192,162747,128,0,163187:0:0:0:0:
320,192,162821,1,0,0:0:0:0:
192,192,163114,1,0,0:0:0:0:
448,192,163114,1,0,0:0:0:0:
320,192,163260,1,0,0:0:0:0:
64,192,163334,1,0,0:0:0:0:
192,192,163480,1,0,0:0:0:0:
448,192,163480,1,0,0:0:0:0:
320,192,163553,1,0,0:0:0:0:
64,192,163700,1,0,0:0:0:0:
320,192,163773,1,0,0:0:0:0:
448,192,163773,1,0,0:0:0:0:
320,192,163920,1,0,0:0:0:0:
192,192,163993,1,0,0:0:0:0:
448,192,164140,1,0,0:0:0:0:
192,192,164213,1,0,0:0:0:0:
320,192,164213,1,0,0:0:0:0:
64,192,164286,1,0,0:0:0:0:
448,192,164359,1,0,0:0:0:0:
448,192,164506,1,0,0:0:0:0:
320,192,164506,1,0,0:0:0:0:
192,192,164506,1,0,0:0:0:0:
64,192,164579,1,0,0:0:0:0:
448,192,164726,1,0,0:0:0:0:
64,192,164799,1,0,0:0:0:0:
320,192,164946,1,0,0:0:0:0:
192,192,165092,1,0,0:0:0:0:
448,192,165239,1,0,0:0:0:0:
64,192,165312,1,0,0:0:0:0:
448,192,165605,1,0,0:0:0:0:
320,192,165605,1,0,0:0:0:0:
64,192,165605,1,0,0:0:0:0:
448,192,165898,1,0,0:0:0:0:
192,192,165898,1,0,0:0:0:0:
64,192,166118,1,0,0:0:0:0:
448,192,166191,1,0,0:0:0:0:
320,192,166338,1,0,0:0:0:0:
192,192,166411,1,0,0:0:0:0:
448,192,166631,1,0,0:0:0:0:
64,192,166704,1,0,0:0:0:0:
320,192,166778,1,0,0:0:0:0:
320,192,166924,1,0,0:0:0:0:
64,192,167144,1,0,0:0:0:0:
448,192,167144,1,0,0:0:0:0:
192,192,167217,1,0,0:0:0:0:
320,192,167291,1,0,0:0:0:0:
64,192,167437,1,0,0:0:0:0:
448,192,167437,1,0,0:0:0:0:
320,192,167510,1,0,0:0:0:0:
448,192,167657,1,0,0:0:0:0:
64,192,167730,1,0,0:0:0:0:
320,192,167877,1,0,0:0:0:0:
192,192,167950,1,0,0:0:0:0:
448,192,168170,1,0,0:0:0:0:
320,192,168243,1,0,0:0:0:0:
64,192,168243,1,0,0:0:0:0:
192,192,168390,1,0,0:0:0:0:
320,192,168536,1,0,0:0:0:0:
64,192,168536,1,0,0:0:0:0:
448,192,168610,1,0,0:0:0:0:
192,192,168683,1,0,0:0:0:0:
448,192,168829,1,0,0:0:0:0:
320,192,168903,1,0,0:0:0:0:
192,192,168903,1,0,0:0:0:0:
64,192,168976,1,0,0:0:0:0:
192,192,169196,1,0,0:0:0:0:
320,192,169196,1,0,0:0:0:0:
448,192,169269,1,0,0:0:0:0:
64,192,169269,1,0,0:0:0:0:
448,192,169489,1,0,0:0:0:0:
64,192,169489,1,0,0:0:0:0:
320,192,169562,1,0,0:0:0:0:
192,192,169635,1,0,0:0:0:0:
320,192,169855,1,0,0:0:0:0:
64,192,169855,1,0,0:0:0:0:
448,192,169929,1,0,0:0:0:0:
448,192,170075,1,0,0:0:0:0:
192,192,170148,1,0,0:0:0:0:
320,192,170148,1,0,0:0:0:0:
64,192,170295,1,0,0:0:0:0:
320,192,170368,1,0,0:0:0:0:
448,192,170442,1,0,0:0:0:0:
64,192,170588,1,0,0:0:0:0:
192,192,170661,1,0,0:0:0:0:
320,192,170735,1,0,0:0:0:0:
448,192,170808,1,0,0:0:0:0:
64,192,170954,1,0,0:0:0:0:
320,192,171028,1,0,0:0:0:0:
448,192,171248,1,0,0:0:0:0:
192,192,171248,1,0,0:0:0:0:
448,192,171467,1,0,0:0:0:0:
64,192,171614,1,0,0:0:0:0:
320,192,171687,1,0,0:0:0:0:
320,192,171834,1,0,0:0:0:0:
192,192,171907,1,0,0:0:0:0:
448,192,171980,1,0,0:0:0:0:
448,192,172127,1,0,0:0:0:0:
64,192,172200,1,0,0:0:0:0:
448,192,172347,1,0,0:0:0:0:
448,192,172420,1,0,0:0:0:0:
448,192,172567,1,0,0:0:0:0:
448,192,172640,1,0,0:0:0:0:
192,192,172640,1,0,0:0:0:0:
320,192,172713,1,0,0:0:0:0:
64,192,172933,1,0,0:0:0:0:
448,192,173006,1,0,0:0:0:0:
192,192,173153,1,0,0:0:0:0:
320,192,173299,1,0,0:0:0:0:
64,192,173373,1,0,0:0:0:0:
448,192,173519,1,0,0:0:0:0:
320,192,173592,1,0,0:0:0:0:
192,192,173592,1,0,0:0:0:0:
448,192,173666,1,0,0:0:0:0:
192,192,173886,1,0,0:0:0:0:
320,192,173959,1,0,0:0:0:0:
64,192,174105,1,0,0:0:0:0:
448,192,174252,1,0,0:0:0:0:
192,192,174399,1,0,0:0:0:0:
320,192,174472,1,0,0:0:0:0:
64,192,174618,1,0,0:0:0:0:
448,192,174692,1,0,0:0:0:0:
320,192,174692,1,0,0:0:0:0:
448,192,174838,1,0,0:0:0:0:
320,192,175058,1,0,0:0:0:0:
64,192,175205,1,0,0:0:0:0:
448,192,175351,1,0,0:0:0:0:
192,192,175498,1,0,0:0:0:0:
320,192,175571,1,0,0:0:0:0:
64,192,175718,1,0,0:0:0:0:
448,192,175864,1,0,0:0:0:0:
192,192,176011,1,0,0:0:0:0:
320,192,176084,1,0,0:0:0:0:
448,192,176084,1,0,0:0:0:0:
64,192,176230,1,0,0:0:0:0:
448,192,176304,1,0,0:0:0:0:
320,192,176377,1,0,0:0:0:0:
192,192,176450,1,0,0:0:0:0:
320,192,176524,1,0,0:0:0:0:
448,192,176524,1,0,0:0:0:0:
64,192,176670,1,0,0:0:0:0:
448,192,176743,128,0,177476:0:0:0:0:
192,192,176817,128,0,177256:0:0:0:0:
64,192,177330,1,0,0:0:0:0:
320,192,177623,1,0,0:0:0:0:
64,192,177623,1,0,0:0:0:0:
192,192,177769,1,0,0:0:0:0:
320,192,177843,1,0,0:0:0:0:
64,192,177989,1,0,0:0:0:0:
448,192,178062,1,0,0:0:0:0:
320,192,178062,1,0,0:0:0:0:
192,192,178209,1,0,0:0:0:0:
448,192,178282,1,0,0:0:0:0:
320,192,178356,1,0,0:0:0:0:
64,192,178502,1,0,0:0:0:0:
192,192,178649,1,0,0:0:0:0:
448,192,178649,1,0,0:0:0:0:
320,192,178722,1,0,0:0:0:0:
64,192,178868,1,0,0:0:0:0:
192,192,178942,1,0,0:0:0:0:
320,192,179015,1,0,0:0:0:0:
448,192,179162,1,0,0:0:0:0:
320,192,179235,1,0,0:0:0:0:
192,192,179235,1,0,0:0:0:0:
64,192,179381,1,0,0:0:0:0:
192,192,179601,1,0,0:0:0:0:
320,192,179675,1,0,0:0:0:0:
448,192,179748,1,0,0:0:0:0:
320,192,179894,1,0,0:0:0:0:
192,192,179894,1,0,0:0:0:0:
64,192,179968,1,0,0:0:0:0:
320,192,180114,1,0,0:0:0:0:
64,192,180261,1,0,0:0:0:0:
448,192,180261,1,0,0:0:0:0:
192,192,180334,1,0,0:0:0:0:
448,192,180481,1,0,0:0:0:0:
320,192,180554,1,0,0:0:0:0:
192,192,180627,1,0,0:0:0:0:
64,192,180700,1,0,0:0:0:0:
64,192,180847,1,0,0:0:0:0:
192,192,180920,1,0,0:0:0:0:
320,192,180994,1,0,0:0:0:0:
448,192,181067,1,0,0:0:0:0:
320,192,181287,1,0,0:0:0:0:
192,192,181287,1,0,0:0:0:0:
64,192,181360,1,0,0:0:0:0:
64,192,181507,1,0,0:0:0:0:
192,192,181580,1,0,0:0:0:0:
320,192,181653,1,0,0:0:0:0:
448,192,181726,1,0,0:0:0:0:
448,192,181873,1,0,0:0:0:0:
192,192,181873,1,0,0:0:0:0:
320,192,181946,1,0,0:0:0:0:
64,192,182093,1,0,0:0:0:0:
192,192,182166,1,0,0:0:0:0:
320,192,182239,1,0,0:0:0:0:
448,192,182386,1,0,0:0:0:0:
192,192,182459,1,0,0:0:0:0:
320,192,182532,1,0,0:0:0:0:
64,192,182606,1,0,0:0:0:0:
64,192,182826,1,0,0:0:0:0:
192,192,182899,1,0,0:0:0:0:
320,192,182972,1,0,0:0:0:0:
448,192,183045,1,0,0:0:0:0:
192,192,183192,1,0,0:0:0:0:
320,192,183192,1,0,0:0:0:0:
64,192,183338,1,0,0:0:0:0:
64,192,183485,1,0,0:0:0:0:
192,192,183558,1,0,0:0:0:0:
320,192,183632,1,0,0:0:0:0:
448,192,183705,1,0,0:0:0:0:
192,192,183925,1,0,0:0:0:0:
320,192,183925,1,0,0:0:0:0:
64,192,183998,1,0,0:0:0:0:
64,192,184218,1,0,0:0:0:0:
320,192,184218,1,0,0:0:0:0:
192,192,184291,1,0,0:0:0:0:
448,192,184364,1,0,0:0:0:0:
320,192,184584,1,0,0:0:0:0:
64,192,184657,1,0,0:0:0:0:
192,192,184657,1,0,0:0:0:0:
448,192,184804,1,0,0:0:0:0:
320,192,184877,1,0,0:0:0:0:
64,192,184951,1,0,0:0:0:0:
192,192,185024,1,0,0:0:0:0:
448,192,185097,1,0,0:0:0:0:
320,192,185170,1,0,0:0:0:0:
64,192,185317,1,0,0:0:0:0:
192,192,185390,1,0,0:0:0:0:
448,192,185390,1,0,0:0:0:0:
320,192,185464,1,0,0:0:0:0:
64,192,185610,1,0,0:0:0:0:
192,192,185683,1,0,0:0:0:0:
448,192,185757,1,0,0:0:0:0:
320,192,185830,1,0,0:0:0:0:
64,192,185903,1,0,0:0:0:0:
192,192,185976,1,0,0:0:0:0:
448,192,186050,1,0,0:0:0:0:
320,192,186123,1,0,0:0:0:0:
64,192,186270,1,0,0:0:0:0:
192,192,186343,1,0,0:0:0:0:
448,192,186343,1,0,0:0:0:0:
320,192,186416,1,0,0:0:0:0:
64,192,186489,1,0,0:0:0:0:
192,192,186563,1,0,0:0:0:0:
448,192,186636,1,0,0:0:0:0:
320,192,186709,1,0,0:0:0:0:
320,192,186856,1,0,0:0:0:0:
448,192,187002,1,0,0:0:0:0:
64,192,187076,1,0,0:0:0:0:
192,192,187149,1,0,0:0:0:0:
320,192,187295,1,0,0:0:0:0:
448,192,187369,1,0,0:0:0:0:
64,192,187369,1,0,0:0:0:0:
192,192,187515,1,0,0:0:0:0:
320,192,187589,1,0,0:0:0:0:
448,192,187662,1,0,0:0:0:0:
64,192,187662,1,0,0:0:0:0:
192,192,187808,1,0,0:0:0:0:
320,192,187882,1,0,0:0:0:0:
448,192,187955,1,0,0:0:0:0:
64,192,188028,1,0,0:0:0:0:
448,192,188175,1,0,0:0:0:0:
192,192,188248,1,0,0:0:0:0:
320,192,188248,1,0,0:0:0:0:
64,192,188395,1,0,0:0:0:0:
192,192,188541,1,0,0:0:0:0:
320,192,188541,1,0,0:0:0:0:
448,192,188761,1,0,0:0:0:0:
192,192,188761,1,0,0:0:0:0:
320,192,188834,1,0,0:0:0:0:
64,192,188908,1,0,0:0:0:0:
320,192,189054,1,0,0:0:0:0:
192,192,189201,1,0,0:0:0:0:
448,192,189274,1,0,0:0:0:0:
64,192,189421,1,0,0:0:0:0:
320,192,189494,1,0,0:0:0:0:
192,192,189640,1,0,0:0:0:0:
448,192,189787,1,0,0:0:0:0:
64,192,189860,1,0,0:0:0:0:
320,192,190007,1,0,0:0:0:0:
320,192,190153,1,0,0:0:0:0:
320,192,190227,1,0,0:0:0:0:
192,192,190300,1,0,0:0:0:0:
448,192,190373,1,0,0:0:0:0:
64,192,190520,1,0,0:0:0:0:
192,192,190666,1,0,0:0:0:0:
320,192,190666,1,0,0:0:0:0:
448,192,190740,1,0,0:0:0:0:
64,192,190886,1,0,0:0:0:0:
320,192,190886,1,0,0:0:0:0:
192,192,190886,1,0,0:0:0:0:
448,192,191033,1,0,0:0:0:0:
320,192,191179,1,0,0:0:0:0:
64,192,191179,1,0,0:0:0:0:
192,192,191326,1,0,0:0:0:0:
448,192,191546,1,0,0:0:0:0:
320,192,191619,1,0,0:0:0:0:
448,192,191692,1,0,0:0:0:0:
64,192,191765,1,0,0:0:0:0:
192,192,191839,1,0,0:0:0:0:
320,192,191912,1,0,0:0:0:0:
64,192,192132,1,0,0:0:0:0:
448,192,192205,1,0,0:0:0:0:
320,192,192352,1,0,0:0:0:0:
64,192,192571,1,0,0:0:0:0:
192,192,192645,1,0,0:0:0:0:
320,192,192718,1,0,0:0:0:0:
448,192,192865,1,0,0:0:0:0:
192,192,192938,1,0,0:0:0:0:
320,192,193011,1,0,0:0:0:0:
64,192,193084,1,0,0:0:0:0:
64,192,193231,1,0,0:0:0:0:
320,192,193304,1,0,0:0:0:0:
192,192,193378,1,0,0:0:0:0:
448,192,193451,1,0,0:0:0:0:
448,192,193671,1,0,0:0:0:0:
448,192,193817,1,0,0:0:0:0:
64,192,193890,1,0,0:0:0:0:
320,192,193964,1,0,0:0:0:0:
192,192,193964,1,0,0:0:0:0:
448,192,194110,1,0,0:0:0:0:
64,192,194184,1,0,0:0:0:0:
192,192,194184,1,0,0:0:0:0:
320,192,194257,1,0,0:0:0:0:
448,192,194403,1,0,0:0:0:0:
448,192,194550,1,0,0:0:0:0:
64,192,194623,1,0,0:0:0:0:
320,192,194697,1,0,0:0:0:0:
192,192,194697,1,0,0:0:0:0:
448,192,194843,1,0,0:0:0:0:
448,192,194990,1,0,0:0:0:0:
320,192,195136,1,0,0:0:0:0:
448,192,195136,1,0,0:0:0:0:
64,192,195209,1,0,0:0:0:0:
192,192,195283,1,0,0:0:0:0:
448,192,195356,1,0,0:0:0:0:
448,192,195503,1,0,0:0:0:0:
448,192,195576,1,0,0:0:0:0:
64,192,195722,1,0,0:0:0:0:
192,192,195796,1,0,0:0:0:0:
320,192,195796,1,0,0:0:0:0:
320,192,195942,1,0,0:0:0:0:
448,192,196089,1,0,0:0:0:0:
448,192,196235,1,0,0:0:0:0:
64,192,196235,1,0,0:0:0:0:
64,192,196382,1,0,0:0:0:0:
192,192,196382,1,0,0:0:0:0:
320,192,196455,1,0,0:0:0:0:
448,192,196602,1,0,0:0:0:0:
64,192,196675,1,0,0:0:0:0:
448,192,196748,1,0,0:0:0:0:
320,192,196895,1,0,0:0:0:0:
192,192,197041,1,0,0:0:0:0:
448,192,197188,1,0,0:0:0:0:
64,192,197261,1,0,0:0:0:0:
320,192,197408,1,0,0:0:0:0:
192,192,197554,1,0,0:0:0:0:
448,192,197628,1,0,0:0:0:0:
64,192,197774,1,0,0:0:0:0:
320,192,197847,1,0,0:0:0:0:
192,192,197994,1,0,0:0:0:0:
320,192,198067,1,0,0:0:0:0:
320,192,198214,1,0,0:0:0:0:
192,192,198214,1,0,0:0:0:0:
320,192,198360,1,0,0:0:0:0:
64,192,198434,1,0,0:0:0:0:
448,192,198507,1,0,0:0:0:0:
320,192,198654,1,0,0:0:0:0:
192,192,198727,1,0,0:0:0:0:
320,192,198800,1,0,0:0:0:0:
64,192,198873,1,0,0:0:0:0:
448,192,198873,1,0,0:0:0:0:
320,192,199020,1,0,0:0:0:0:
192,192,199093,1,0,0:0:0:0:
448,192,199240,1,0,0:0:0:0:
64,192,199240,1,0,0:0:0:0:
320,192,199386,1,0,0:0:0:0:
192,192,199386,1,0,0:0:0:0:
448,192,199460,1,0,0:0:0:0:
320,192,199606,1,0,0:0:0:0:
192,192,199679,1,0,0:0:0:0:
448,192,199826,1,0,0:0:0:0:
64,192,199826,1,0,0:0:0:0:
320,192,199899,1,0,0:0:0:0:
192,192,199899,1,0,0:0:0:0:
320,192,200119,1,0,0:0:0:0:
192,192,200119,1,0,0:0:0:0:
192,192,200339,1,0,0:0:0:0:
320,192,200339,1,0,0:0:0:0:
64,192,200559,1,0,0:0:0:0:
448,192,200559,1,0,0:0:0:0:
320,192,200705,1,0,0:0:0:0:
192,192,200705,1,0,0:0:0:0:
448,192,200852,1,0,0:0:0:0:
64,192,200925,1,0,0:0:0:0:
320,192,201072,1,0,0:0:0:0:
192,192,201145,1,0,0:0:0:0:
448,192,201292,1,0,0:0:0:0:
64,192,201438,1,0,0:0:0:0:
320,192,201511,1,0,0:0:0:0:
192,192,201658,1,0,0:0:0:0:
448,192,201731,1,0,0:0:0:0:
64,192,201878,1,0,0:0:0:0:
320,192,201951,1,0,0:0:0:0:
448,192,201951,1,0,0:0:0:0:
192,192,202098,1,0,0:0:0:0:
64,192,202244,1,0,0:0:0:0:
320,192,202317,1,0,0:0:0:0:
64,192,202464,1,0,0:0:0:0:
192,192,202464,1,0,0:0:0:0:
448,192,202611,1,0,0:0:0:0:
320,192,202611,1,0,0:0:0:0:
192,192,202757,1,0,0:0:0:0:
64,192,202757,1,0,0:0:0:0:
448,192,202904,1,0,0:0:0:0:
320,192,202904,1,0,0:0:0:0:
192,192,202977,1,0,0:0:0:0:
64,192,202977,1,0,0:0:0:0:
448,192,203124,1,0,0:0:0:0:
64,192,203197,1,0,0:0:0:0:
448,192,203343,1,0,0:0:0:0:
320,192,203490,1,0,0:0:0:0:
192,192,203490,1,0,0:0:0:0:
64,192,203710,1,0,0:0:0:0:
448,192,203856,1,0,0:0:0:0:
320,192,203930,1,0,0:0:0:0:
64,192,204076,1,0,0:0:0:0:
192,192,204149,1,0,0:0:0:0:
320,192,204223,1,0,0:0:0:0:
448,192,204296,1,0,0:0:0:0:
64,192,204369,1,0,0:0:0:0:
192,192,204443,1,0,0:0:0:0:
320,192,204516,1,0,0:0:0:0:
448,192,204589,1,0,0:0:0:0:
320,192,204662,1,0,0:0:0:0:
192,192,204736,1,0,0:0:0:0:
64,192,204809,1,0,0:0:0:0:
192,192,204955,1,0,0:0:0:0:
320,192,204955,1,0,0:0:0:0:
448,192,205029,1,0,0:0:0:0:
192,192,205175,1,0,0:0:0:0:
320,192,205175,1,0,0:0:0:0:
64,192,205249,1,0,0:0:0:0:
320,192,205395,1,0,0:0:0:0:
64,192,205468,1,0,0:0:0:0:
448,192,205468,1,0,0:0:0:0:
192,192,205542,1,0,0:0:0:0:
64,192,205688,1,0,0:0:0:0:
192,192,205762,1,0,0:0:0:0:
320,192,205835,1,0,0:0:0:0:
448,192,205835,1,0,0:0:0:0:
64,192,205981,1,0,0:0:0:0:
192,192,206055,1,0,0:0:0:0:
320,192,206128,1,0,0:0:0:0:
448,192,206201,1,0,0:0:0:0:
448,192,206274,1,0,0:0:0:0:
320,192,206421,1,0,0:0:0:0:
192,192,206421,1,0,0:0:0:0:
64,192,206494,1,0,0:0:0:0:
448,192,206641,1,0,0:0:0:0:
320,192,206714,1,0,0:0:0:0:
192,192,206714,1,0,0:0:0:0:
64,192,206787,1,0,0:0:0:0:
448,192,206861,1,0,0:0:0:0:
320,192,206934,1,0,0:0:0:0:
192,192,207007,1,0,0:0:0:0:
64,192,207081,1,0,0:0:0:0:
448,192,207154,1,0,0:0:0:0:
320,192,207227,1,0,0:0:0:0:
192,192,207300,1,0,0:0:0:0:
64,192,207374,1,0,0:0:0:0:
448,192,207447,1,0,0:0:0:0:
320,192,207447,1,0,0:0:0:0:
64,192,207593,1,0,0:0:0:0:
192,192,207667,1,0,0:0:0:0:
320,192,207740,1,0,0:0:0:0:
448,192,207813,1,0,0:0:0:0:
64,192,207887,1,0,0:0:0:0:
192,192,208033,1,0,0:0:0:0:
320,192,208033,1,0,0:0:0:0:
448,192,208106,1,0,0:0:0:0:
64,192,208180,1,0,0:0:0:0:
192,192,208253,1,0,0:0:0:0:
320,192,208326,1,0,0:0:0:0:
448,192,208400,1,0,0:0:0:0:
64,192,208473,1,0,0:0:0:0:
192,192,208546,1,0,0:0:0:0:
448,192,208619,1,0,0:0:0:0:
320,192,208693,1,0,0:0:0:0:
192,192,208766,1,0,0:0:0:0:
64,192,208839,1,0,0:0:0:0:
448,192,208912,1,0,0:0:0:0:
320,192,208986,1,0,0:0:0:0:
192,192,209059,1,0,0:0:0:0:
64,192,209132,1,0,0:0:0:0:
448,192,209206,1,0,0:0:0:0:
320,192,209279,1,0,0:0:0:0:
192,192,209352,1,0,0:0:0:0:
64,192,209425,1,0,0:0:0:0:
448,192,209425,1,0,0:0:0:0:
320,192,209499,1,0,0:0:0:0:
192,192,209572,1,0,0:0:0:0:
64,192,209645,1,0,0:0:0:0:
448,192,209719,1,0,0:0:0:0:
320,192,209719,1,0,0:0:0:0:
64,192,209865,1,0,0:0:0:0:
192,192,209938,1,0,0:0:0:0:
448,192,209938,1,0,0:0:0:0:
320,192,210012,1,0,0:0:0:0:
64,192,210158,1,0,0:0:0:0:
448,192,210231,1,0,0:0:0:0:
320,192,210305,1,0,0:0:0:0:
64,192,210451,1,0,0:0:0:0:
192,192,210525,1,0,0:0:0:0:
448,192,210598,1,0,0:0:0:0:
448,192,210744,1,0,0:0:0:0:
64,192,210818,1,0,0:0:0:0:
320,192,210818,1,0,0:0:0:0:
192,192,210964,1,0,0:0:0:0:
320,192,211038,1,0,0:0:0:0:
448,192,211184,1,0,0:0:0:0:
64,192,211331,1,0,0:0:0:0:
448,192,211331,1,0,0:0:0:0:
192,192,211477,1,0,0:0:0:0:
320,192,211477,1,0,0:0:0:0:
448,192,211697,1,0,0:0:0:0:
64,192,211697,1,0,0:0:0:0:
192,192,211770,1,0,0:0:0:0:
320,192,211770,1,0,0:0:0:0:
448,192,211990,1,0,0:0:0:0:
64,192,211990,1,0,0:0:0:0:
320,192,212210,1,0,0:0:0:0:
192,192,212283,1,0,0:0:0:0:
448,192,212430,1,0,0:0:0:0:
64,192,212503,1,0,0:0:0:0:
448,192,212576,1,0,0:0:0:0:
320,192,212650,1,0,0:0:0:0:
192,192,212796,1,0,0:0:0:0:
448,192,212943,1,0,0:0:0:0:
448,192,213089,1,0,0:0:0:0:
64,192,213382,1,0,0:0:0:0:
320,192,213456,1,0,0:0:0:0:
192,192,213602,1,0,0:0:0:0:
448,192,213676,1,0,0:0:0:0:
64,192,213822,1,0,0:0:0:0:
448,192,213822,1,0,0:0:0:0:
320,192,213969,1,0,0:0:0:0:
320,192,214188,1,0,0:0:0:0:
320,192,214335,1,0,0:0:0:0:
192,192,214408,1,0,0:0:0:0:
448,192,214482,1,0,0:0:0:0:
64,192,214628,1,0,0:0:0:0:
320,192,214775,1,0,0:0:0:0:
192,192,214848,1,0,0:0:0:0:
448,192,214995,1,0,0:0:0:0:
448,192,215214,1,0,0:0:0:0:
320,192,215434,1,0,0:0:0:0:
64,192,215654,1,0,0:0:0:0:
448,192,215727,1,0,0:0:0:0:
192,192,215874,1,0,0:0:0:0:
320,192,216094,1,0,0:0:0:0:
64,192,216167,1,0,0:0:0:0:
448,192,216387,1,0,0:0:0:0:
64,192,216460,1,0,0:0:0:0:
320,192,216607,1,0,0:0:0:0:
192,192,216753,1,0,0:0:0:0:
448,192,216900,1,0,0:0:0:0:
64,192,216973,1,0,0:0:0:0:
320,192,217120,1,0,0:0:0:0:
448,192,217266,1,0,0:0:0:0:
320,192,217339,1,0,0:0:0:0:
192,192,217413,1,0,0:0:0:0:
448,192,217486,1,0,0:0:0:0:
448,192,217633,1,0,0:0:0:0:
192,192,217706,1,0,0:0:0:0:
192,192,217999,1,0,0:0:0:0:
320,192,218145,1,0,0:0:0:0:
64,192,218292,1,0,0:0:0:0:
448,192,218365,1,0,0:0:0:0:
192,192,218512,1,0,0:0:0:0:
320,192,218658,1,0,0:0:0:0:
64,192,218805,1,0,0:0:0:0:
448,192,218952,1,0,0:0:0:0:
192,192,219098,1,0,0:0:0:0:
320,192,219245,1,0,0:0:0:0:
64,192,219318,1,0,0:0:0:0:
320,192,219391,1,0,0:0:0:0:
448,192,219464,1,0,0:0:0:0:
192,192,219464,1,0,0:0:0:0:
64,192,219538,1,0,0:0:0:0:
320,192,219684,1,0,0:0:0:0:
192,192,219831,1,0,0:0:0:0:
320,192,219904,1,0,0:0:0:0:
192,192,219904,1,0,0:0:0:0:
448,192,219977,1,0,0:0:0:0:
448,192,220051,1,0,0:0:0:0:
64,192,220124,1,0,0:0:0:0:
320,192,220197,1,0,0:0:0:0:
192,192,220344,1,0,0:0:0:0:
448,192,220417,1,0,0:0:0:0:
64,192,220564,1,0,0:0:0:0:
320,192,220710,1,0,0:0:0:0:
320,192,221003,1,0,0:0:0:0:
192,192,221223,1,0,0:0:0:0:
448,192,221370,1,0,0:0:0:0:
64,192,221443,1,0,0:0:0:0:
320,192,221590,1,0,0:0:0:0:
192,192,221663,1,0,0:0:0:0:
64,192,221956,1,0,0:0:0:0:
192,192,222102,1,0,0:0:0:0:
448,192,222249,128,0,222689:0:0:0:0:
320,192,222322,1,0,0:0:0:0:
64,192,222396,1,0,0:0:0:0:
64,192,222762,1,0,0:0:0:0:
320,192,222835,1,0,0:0:0:0:
192,192,222982,1,0,0:0:0:0:
448,192,223055,1,0,0:0:0:0:
64,192,223202,1,0,0:0:0:0:
320,192,223348,1,0,0:0:0:0:
192,192,223422,1,0,0:0:0:0:
320,192,223568,1,0,0:0:0:0:
64,192,223641,1,0,0:0:0:0:
448,192,223715,1,0,0:0:0:0:
192,192,223934,1,0,0:0:0:0:
64,192,224228,128,0,224741:0:0:0:0:
448,192,224301,128,0,224741:0:0:0:0:
320,192,224814,1,0,0:0:0:0:
192,192,224814,1,0,0:0:0:0:
192,192,224887,1,0,0:0:0:0:
192,192,224960,1,0,0:0:0:0:
320,192,225107,1,0,0:0:0:0:
64,192,225253,1,0,0:0:0:0:
448,192,225253,1,0,0:0:0:0:
320,192,225473,1,0,0:0:0:0:
64,192,225693,1,0,0:0:0:0:
448,192,225840,1,0,0:0:0:0:
192,192,225986,1,0,0:0:0:0:
320,192,226060,1,0,0:0:0:0:
64,192,226206,1,0,0:0:0:0:
192,192,226353,1,0,0:0:0:0:
64,192,226572,1,0,0:0:0:0:
192,192,226572,1,0,0:0:0:0:
64,192,226792,1,0,0:0:0:0:
192,192,226866,1,0,0:0:0:0:
448,192,226866,128,0,227379:0:0:0:0:
64,192,227085,1,0,0:0:0:0:
192,192,227159,1,0,0:0:0:0:
320,192,227525,1,0,0:0:0:0:
64,192,227672,1,0,0:0:0:0:
320,192,227745,1,0,0:0:0:0:
192,192,227891,1,0,0:0:0:0:
448,192,227965,1,0,0:0:0:0:
64,192,228111,1,0,0:0:0:0:
320,192,228185,1,0,0:0:0:0:
192,192,228331,1,0,0:0:0:0:
448,192,228478,1,0,0:0:0:0:
64,192,228624,1,0,0:0:0:0:
320,192,228698,1,0,0:0:0:0:
192,192,228844,1,0,0:0:0:0:
192,192,229064,128,0,229430:0:0:0:0:
448,192,229137,1,0,0:0:0:0:
320,192,229137,1,0,0:0:0:0:
448,192,229504,1,0,0:0:0:0:
64,192,229650,1,0,0:0:0:0:
320,192,229797,1,0,0:0:0:0:
192,192,229870,1,0,0:0:0:0:
448,192,230090,1,0,0:0:0:0:
64,192,230236,1,0,0:0:0:0:
192,192,230310,128,0,230896:0:0:0:0:
320,192,230456,128,0,230896:0:0:0:0:
448,192,231042,1,0,0:0:0:0:
64,192,231116,1,0,0:0:0:0:
320,192,231262,1,0,0:0:0:0:
64,192,231482,1,0,0:0:0:0:
448,192,231629,1,0,0:0:0:0:
192,192,231702,1,0,0:0:0:0:
320,192,231848,1,0,0:0:0:0:
64,192,231922,1,0,0:0:0:0:
192,192,232215,1,0,0:0:0:0:
448,192,232508,128,0,232948:0:0:0:0:
64,192,232581,1,0,0:0:0:0:
192,192,232655,1,0,0:0:0:0:
64,192,233021,1,0,0:0:0:0:
320,192,233094,1,0,0:0:0:0:
64,192,233241,128,0,233607:0:0:0:0:
448,192,233314,1,0,0:0:0:0:
320,192,233461,1,0,0:0:0:0:
192,192,233680,1,0,0:0:0:0:
448,192,233827,1,0,0:0:0:0:
64,192,233900,1,0,0:0:0:0:
320,192,234193,1,0,0:0:0:0:
64,192,234413,1,0,0:0:0:0:
448,192,234560,1,0,0:0:0:0:
192,192,234633,1,0,0:0:0:0:
320,192,234780,1,0,0:0:0:0:
448,192,234999,1,0,0:0:0:0:
64,192,235146,1,0,0:0:0:0:
192,192,235219,1,0,0:0:0:0:
448,192,235366,128,0,235805:0:0:0:0:
64,192,235366,1,0,0:0:0:0:
64,192,235586,1,0,0:0:0:0:
320,192,235879,1,0,0:0:0:0:
448,192,236025,1,0,0:0:0:0:
64,192,236099,1,0,0:0:0:0:
320,192,236245,1,0,0:0:0:0:
192,192,236318,1,0,0:0:0:0:
448,192,236538,1,0,0:0:0:0:
64,192,236612,1,0,0:0:0:0:
320,192,236758,1,0,0:0:0:0:
192,192,236905,1,0,0:0:0:0:
320,192,236905,1,0,0:0:0:0:
64,192,237124,1,0,0:0:0:0:
64,192,237271,1,0,0:0:0:0:
320,192,237344,1,0,0:0:0:0:
192,192,237344,1,0,0:0:0:0:
448,192,237344,1,0,0:0:0:0:
448,192,237711,1,0,0:0:0:0:
64,192,237711,1,0,0:0:0:0:
320,192,237857,1,0,0:0:0:0:
192,192,238004,1,0,0:0:0:0:
448,192,238004,1,0,0:0:0:0:
64,192,238150,1,0,0:0:0:0:
448,192,238224,1,0,0:0:0:0:
448,192,238443,128,0,238883:0:0:0:0:
64,192,238443,128,0,238883:0:0:0:0:
320,192,238443,1,0,0:0:0:0:
192,192,238663,1,0,0:0:0:0:
320,192,238956,1,0,0:0:0:0:
192,192,239176,1,0,0:0:0:0:
448,192,239250,1,0,0:0:0:0:
64,192,239396,1,0,0:0:0:0:
320,192,239469,1,0,0:0:0:0:
192,192,239543,1,0,0:0:0:0:
64,192,239836,1,0,0:0:0:0:
448,192,239909,1,0,0:0:0:0:
320,192,240275,128,0,240788:0:0:0:0:
192,192,240275,128,0,240788:0:0:0:0:
448,192,240349,1,0,0:0:0:0:
64,192,240349,1,0,0:0:0:0:
448,192,240862,1,0,0:0:0:0:
64,192,241081,1,0,0:0:0:0:
320,192,241155,1,0,0:0:0:0:
192,192,241301,1,0,0:0:0:0:
448,192,241375,128,0,241741:0:0:0:0:
64,192,241448,1,0,0:0:0:0:
64,192,241741,128,0,242107:0:0:0:0:
320,192,241814,1,0,0:0:0:0:
192,192,242107,1,0,0:0:0:0:
448,192,242400,128,0,242913:0:0:0:0:
192,192,242474,1,0,0:0:0:0:
64,192,242840,1,0,0:0:0:0:
192,192,243133,1,0,0:0:0:0:
320,192,243426,128,0,243866:0:0:0:0:
64,192,243500,1,0,0:0:0:0:
448,192,243793,128,0,244452:0:0:0:0:
192,192,243793,1,0,0:0:0:0:
320,192,244086,1,0,0:0:0:0:
320,192,244379,1,0,0:0:0:0:
64,192,244452,128,0,245039:0:0:0:0:
320,192,244672,1,0,0:0:0:0:
448,192,244892,1,0,0:0:0:0:
320,192,245112,1,0,0:0:0:0:
192,192,245258,128,0,245991:0:0:0:0:
448,192,245405,1,0,0:0:0:0:
320,192,245405,1,0,0:0:0:0:
64,192,245478,1,0,0:0:0:0:
320,192,246358,128,0,247017:0:0:0:0:
192,192,246431,1,0,0:0:0:0:
64,192,246431,1,0,0:0:0:0:
192,192,246724,1,0,0:0:0:0:
64,192,246724,1,0,0:0:0:0:
448,192,247090,1,0,0:0:0:0:
64,192,247310,1,0,0:0:0:0:
320,192,247383,1,0,0:0:0:0:
320,192,247603,1,0,0:0:0:0:
448,192,247603,1,0,0:0:0:0:
192,192,247603,1,0,0:0:0:0:
64,192,247677,1,0,0:0:0:0:
448,192,247896,1,0,0:0:0:0:
64,192,247970,1,0,0:0:0:0:
320,192,248189,1,0,0:0:0:0:
192,192,248189,1,0,0:0:0:0:
448,192,248409,1,0,0:0:0:0:
64,192,248483,1,0,0:0:0:0:
320,192,248629,1,0,0:0:0:0:
192,192,248702,1,0,0:0:0:0:
64,192,248776,1,0,0:0:0:0:
448,192,248922,1,0,0:0:0:0:
192,192,248996,1,0,0:0:0:0:
448,192,249289,1,0,0:0:0:0:
320,192,249289,1,0,0:0:0:0:
64,192,249435,1,0,0:0:0:0:
448,192,249655,128,0,250315:0:0:0:0:
320,192,249655,128,0,250315:0:0:0:0:
64,192,249655,128,0,250315:0:0:0:0:
192,192,249655,1,0,0:0:0:0:
448,192,250461,1,0,0:0:0:0:
192,192,250461,1,0,0:0:0:0:
64,192,250681,128,0,251560:0:0:0:0:
320,192,250681,128,0,251560:0:0:0:0:
448,192,250754,128,0,251560:0:0:0:0:
192,192,251707,1,0,0:0:0:0:
448,192,251707,1,0,0:0:0:0:
320,192,251927,1,0,0:0:0:0:
64,192,252000,1,0,0:0:0:0:
448,192,252146,1,0,0:0:0:0:
192,192,252220,1,0,0:0:0:0:
320,192,252366,1,0,0:0:0:0:
64,192,252513,1,0,0:0:0:0:
448,192,252586,1,0,0:0:0:0:
192,192,252733,1,0,0:0:0:0:
320,192,252806,1,0,0:0:0:0:
64,192,253026,1,0,0:0:0:0:
320,192,253026,1,0,0:0:0:0:
448,192,253099,1,0,0:0:0:0:
448,192,253319,1,0,0:0:0:0:
192,192,253392,1,0,0:0:0:0:
64,192,253392,1,0,0:0:0:0:
320,192,253392,1,0,0:0:0:0:
64,192,253685,1,0,0:0:0:0:
448,192,253685,128,0,254272:0:0:0:0:
192,192,253905,1,0,0:0:0:0:
64,192,253905,1,0,0:0:0:0:
320,192,253905,1,0,0:0:0:0:
320,192,254272,1,0,0:0:0:0:
64,192,254491,1,0,0:0:0:0:
192,192,254784,1,0,0:0:0:0:
448,192,255078,128,0,255957:0:0:0:0:
320,192,255371,128,0,255957:0:0:0:0:
64,192,255444,1,0,0:0:0:0:
192,192,255444,1,0,0:0:0:0:
192,192,255737,1,0,0:0:0:0:
64,192,255737,1,0,0:0:0:0:
64,192,256177,1,0,0:0:0:0:
192,192,256397,1,0,0:0:0:0:
448,192,256690,128,0,257276:0:0:0:0:
320,192,256836,128,0,257203:0:0:0:0:
64,192,257203,128,0,257935:0:0:0:0:
192,192,257349,128,0,257935:0:0:0:0:
320,192,257496,1,0,0:0:0:0:
448,192,257569,1,0,0:0:0:0:
448,192,257789,1,0,0:0:0:0:
320,192,257789,1,0,0:0:0:0:
448,192,258082,1,0,0:0:0:0:
64,192,258375,1,0,0:0:0:0:
320,192,258375,1,0,0:0:0:0:
192,192,258595,1,0,0:0:0:0:
448,192,258741,1,0,0:0:0:0:
64,192,258888,1,0,0:0:0:0:
320,192,258961,1,0,0:0:0:0:
192,192,259254,1,0,0:0:0:0:
448,192,259474,1,0,0:0:0:0:
64,192,259621,1,0,0:0:0:0:
320,192,259694,1,0,0:0:0:0:
192,192,259914,1,0,0:0:0:0:
64,192,260134,1,0,0:0:0:0:
448,192,260134,1,0,0:0:0:0:
320,192,260134,1,0,0:0:0:0:
192,192,260134,1,0,0:0:0:0:
320,192,260573,1,0,0:0:0:0:
192,192,260647,1,0,0:0:0:0:
448,192,261013,128,0,261966:0:0:0:0:
64,192,261013,128,0,262039:0:0:0:0:
320,192,261013,1,0,0:0:0:0:
192,192,261233,1,0,0:0:0:0:
320,192,261306,1,0,0:0:0:0:
192,192,261526,1,0,0:0:0:0:
320,192,261892,1,0,0:0:0:0:
320,192,262186,1,0,0:0:0:0:
192,192,262186,1,0,0:0:0:0:
448,192,262405,1,0,0:0:0:0:
64,192,262552,1,0,0:0:0:0:
320,192,262625,1,0,0:0:0:0:
192,192,262772,1,0,0:0:0:0:
448,192,262918,1,0,0:0:0:0:
64,192,263065,1,0,0:0:0:0:
320,192,263138,1,0,0:0:0:0:
192,192,263285,1,0,0:0:0:0:
448,192,263431,1,0,0:0:0:0:
320,192,263651,1,0,0:0:0:0:
448,192,263871,1,0,0:0:0:0:
64,192,263944,1,0,0:0:0:0:
320,192,263944,1,0,0:0:0:0:
192,192,264164,1,0,0:0:0:0:
448,192,264311,1,0,0:0:0:0:
320,192,264457,1,0,0:0:0:0:
448,192,264604,1,0,0:0:0:0:
64,192,264677,1,0,0:0:0:0:
192,192,264750,1,0,0:0:0:0:
320,192,264897,1,0,0:0:0:0:
448,192,264970,1,0,0:0:0:0:
64,192,265043,1,0,0:0:0:0:
192,192,265190,1,0,0:0:0:0:
320,192,265263,1,0,0:0:0:0:
448,192,265336,1,0,0:0:0:0:
64,192,265410,1,0,0:0:0:0:
192,192,265483,1,0,0:0:0:0:
320,192,265703,1,0,0:0:0:0:
64,192,265849,1,0,0:0:0:0:
448,192,265923,1,0,0:0:0:0:
192,192,266069,1,0,0:0:0:0:
448,192,266289,128,0,266802:0:0:0:0:
320,192,266362,1,0,0:0:0:0:
64,192,266875,1,0,0:0:0:0:
320,192,267168,1,0,0:0:0:0:
64,192,267535,1,0,0:0:0:0:
448,192,267901,128,0,268268:0:0:0:0:
64,192,268268,128,0,268927:0:0:0:0:
320,192,268341,1,0,0:0:0:0:
192,192,268341,1,0,0:0:0:0:
448,192,268854,128,0,269220:0:0:0:0:
320,192,269294,128,0,269733:0:0:0:0:
192,192,269733,1,0,0:0:0:0:
448,192,269953,1,0,0:0:0:0:
64,192,270173,1,0,0:0:0:0:
320,192,270319,1,0,0:0:0:0:
192,192,270539,1,0,0:0:0:0:
448,192,270686,1,0,0:0:0:0:
64,192,270832,1,0,0:0:0:0:
320,192,270906,1,0,0:0:0:0:
192,192,271052,1,0,0:0:0:0:
448,192,271199,1,0,0:0:0:0:
64,192,271345,1,0,0:0:0:0:
320,192,271565,1,0,0:0:0:0:
192,192,271638,1,0,0:0:0:0:
448,192,271785,1,0,0:0:0:0:
64,192,271932,1,0,0:0:0:0:
320,192,272078,1,0,0:0:0:0:
448,192,272225,1,0,0:0:0:0:
192,192,272371,1,0,0:0:0:0:
320,192,272444,1,0,0:0:0:0:
192,192,272591,1,0,0:0:0:0:
448,192,272664,1,0,0:0:0:0:
320,192,272884,1,0,0:0:0:0:
64,192,273031,1,0,0:0:0:0:
448,192,273104,1,0,0:0:0:0:
192,192,273251,1,0,0:0:0:0:
320,192,273397,1,0,0:0:0:0:
64,192,273544,1,0,0:0:0:0:
448,192,273617,1,0,0:0:0:0:
192,192,273763,1,0,0:0:0:0:
320,192,273837,1,0,0:0:0:0:
64,192,273983,1,0,0:0:0:0:
320,192,273983,1,0,0:0:0:0:
448,192,274130,1,0,0:0:0:0:
192,192,274130,1,0,0:0:0:0:
192,192,274276,1,0,0:0:0:0:
320,192,274350,1,0,0:0:0:0:
64,192,274496,1,0,0:0:0:0:
448,192,274643,1,0,0:0:0:0:
192,192,274789,1,0,0:0:0:0:
448,192,274936,1,0,0:0:0:0:
64,192,275009,1,0,0:0:0:0:
320,192,275009,1,0,0:0:0:0:
448,192,275156,1,0,0:0:0:0:
192,192,275156,1,0,0:0:0:0:
64,192,275302,1,0,0:0:0:0:
320,192,275449,1,0,0:0:0:0:
192,192,275595,1,0,0:0:0:0:
448,192,275815,1,0,0:0:0:0:
64,192,275889,1,0,0:0:0:0:
320,192,276035,1,0,0:0:0:0:
192,192,276182,1,0,0:0:0:0:
320,192,276255,1,0,0:0:0:0:
64,192,276401,1,0,0:0:0:0:
448,192,276548,1,0,0:0:0:0:
448,192,276621,1,0,0:0:0:0:
192,192,276695,1,0,0:0:0:0:
320,192,276768,1,0,0:0:0:0:
64,192,276768,1,0,0:0:0:0:
192,192,276914,1,0,0:0:0:0:
448,192,276914,1,0,0:0:0:0:
64,192,277134,1,0,0:0:0:0:
192,192,277208,1,0,0:0:0:0:
320,192,277281,1,0,0:0:0:0:
448,192,277427,1,0,0:0:0:0:
192,192,277501,1,0,0:0:0:0:
64,192,277574,1,0,0:0:0:0:
320,192,277720,1,0,0:0:0:0:
448,192,277720,1,0,0:0:0:0:
64,192,277940,1,0,0:0:0:0:
448,192,278087,1,0,0:0:0:0:
320,192,278307,1,0,0:0:0:0:
448,192,278380,1,0,0:0:0:0:
64,192,278527,1,0,0:0:0:0:
192,192,278600,1,0,0:0:0:0:
448,192,278673,1,0,0:0:0:0:
320,192,278893,1,0,0:0:0:0:
64,192,279039,1,0,0:0:0:0:
320,192,279186,1,0,0:0:0:0:
192,192,279333,1,0,0:0:0:0:
448,192,279406,1,0,0:0:0:0:
64,192,279552,1,0,0:0:0:0:
448,192,279552,1,0,0:0:0:0:
320,192,279699,1,0,0:0:0:0:
192,192,279846,1,0,0:0:0:0:
320,192,279919,1,0,0:0:0:0:
64,192,280065,1,0,0:0:0:0:
448,192,280139,1,0,0:0:0:0:
192,192,280285,1,0,0:0:0:0:
320,192,280358,1,0,0:0:0:0:
64,192,280505,1,0,0:0:0:0:
448,192,280652,1,0,0:0:0:0:
192,192,280798,1,0,0:0:0:0:
320,192,280871,1,0,0:0:0:0:
448,192,281091,1,0,0:0:0:0:
64,192,281165,1,0,0:0:0:0:
448,192,281238,1,0,0:0:0:0:
192,192,281238,1,0,0:0:0:0:
64,192,281458,1,0,0:0:0:0:
320,192,281531,1,0,0:0:0:0:
192,192,281677,1,0,0:0:0:0:
448,192,281824,1,0,0:0:0:0:
64,192,281897,1,0,0:0:0:0:
192,192,281971,1,0,0:0:0:0:
320,192,281971,1,0,0:0:0:0:
64,192,282264,1,0,0:0:0:0:
448,192,282264,1,0,0:0:0:0:
320,192,282337,1,0,0:0:0:0:
192,192,282337,1,0,0:0:0:0:
448,192,282630,1,0,0:0:0:0:
64,192,282630,1,0,0:0:0:0:
320,192,282703,1,0,0:0:0:0:
192,192,282703,1,0,0:0:0:0:
448,192,282923,1,0,0:0:0:0:
64,192,282996,1,0,0:0:0:0:
320,192,282996,1,0,0:0:0:0:
192,192,283070,1,0,0:0:0:0:
64,192,283290,1,0,0:0:0:0:
320,192,283509,1,0,0:0:0:0:
448,192,283583,1,0,0:0:0:0:
192,192,283656,1,0,0:0:0:0:
448,192,283876,1,0,0:0:0:0:
64,192,283949,1,0,0:0:0:0:
320,192,284169,1,0,0:0:0:0:
448,192,284462,1,0,0:0:0:0:
64,192,284755,128,0,285415:0:0:0:0:
192,192,284828,1,0,0:0:0:0:
320,192,285561,1,0,0:0:0:0:
192,192,285854,128,0,286514:0:0:0:0:
448,192,285928,1,0,0:0:0:0:
64,192,286001,1,0,0:0:0:0:
320,192,286001,1,0,0:0:0:0:
320,192,286587,1,0,0:0:0:0:
448,192,286880,1,0,0:0:0:0:
320,192,287173,1,0,0:0:0:0:
448,192,287540,128,0,288053:0:0:0:0:
64,192,288053,128,0,288492:0:0:0:0:
192,192,288639,1,0,0:0:0:0:
320,192,288932,128,0,289372:0:0:0:0:
192,192,289079,1,0,0:0:0:0:
448,192,289372,128,0,289811:0:0:0:0:
192,192,289811,128,0,290398:0:0:0:0:
320,192,289958,1,0,0:0:0:0:
320,192,290471,128,0,290911:0:0:0:0:
448,192,290984,128,0,291643:0:0:0:0:
64,192,290984,1,0,0:0:0:0:
64,192,291717,128,0,292376:0:0:0:0:
192,192,291790,1,0,0:0:0:0:
192,192,292449,128,0,292816:0:0:0:0:
320,192,292449,1,0,0:0:0:0:
448,192,292889,1,0,0:0:0:0:
64,192,293182,1,0,0:0:0:0:
320,192,293329,1,0,0:0:0:0:
192,192,293475,1,0,0:0:0:0:
448,192,293622,1,0,0:0:0:0:
64,192,293768,1,0,0:0:0:0:
320,192,293915,1,0,0:0:0:0:
192,192,294135,1,0,0:0:0:0:
320,192,294135,1,0,0:0:0:0:
448,192,294208,1,0,0:0:0:0:
64,192,294208,1,0,0:0:0:0:
448,192,294574,1,0,0:0:0:0:
64,192,294574,1,0,0:0:0:0:
320,192,294868,1,0,0:0:0:0:
192,192,294941,1,0,0:0:0:0:
448,192,295087,1,0,0:0:0:0:
64,192,295234,1,0,0:0:0:0:
320,192,295380,1,0,0:0:0:0:
192,192,295600,1,0,0:0:0:0:
448,192,295674,1,0,0:0:0:0:
64,192,295820,1,0,0:0:0:0:
320,192,295967,1,0,0:0:0:0:
192,192,296113,1,0,0:0:0:0:
448,192,296260,1,0,0:0:0:0:
64,192,296406,1,0,0:0:0:0:
320,192,296626,1,0,0:0:0:0:
64,192,296846,1,0,0:0:0:0:
448,192,296993,1,0,0:0:0:0:
192,192,296993,1,0,0:0:0:0:
64,192,297286,1,0,0:0:0:0:
320,192,297286,1,0,0:0:0:0:
448,192,297799,128,0,298312:0:0:0:0:
320,192,297799,1,0,0:0:0:0:
192,192,297872,128,0,298312:0:0:0:0:
64,192,298385,128,0,298825:0:0:0:0:
320,192,298385,128,0,298825:0:0:0:0:
192,192,298898,1,0,0:0:0:0:
448,192,298898,1,0,0:0:0:0:
64,192,299118,1,0,0:0:0:0:
448,192,299118,1,0,0:0:0:0:
192,192,299337,128,0,303294:0:0:0:0:
320,192,299337,128,0,303294:0:0:0:0:
64,192,299337,1,0,0:0:0:0:
448,192,299337,1,0,0:0:0:0:
448,192,299777,1,0,0:0:0:0:
64,192,299777,1,0,0:0:0:0:
448,192,300290,1,0,0:0:0:0:
64,192,300290,1,0,0:0:0:0:
64,192,300803,1,0,0:0:0:0:
448,192,300803,1,0,0:0:0:0:
64,192,301243,1,0,0:0:0:0:
448,192,301316,1,0,0:0:0:0:
64,192,301756,1,0,0:0:0:0:
448,192,301756,1,0,0:0:0:0:
64,192,302195,1,0,0:0:0:0:
448,192,302269,1,0,0:0:0:0:
64,192,302782,1,0,0:0:0:0:
448,192,302782,1,0,0:0:0:0:
64,192,303075,1,0,0:0:0:0:
448,192,303075,1,0,0:0:0:0:
192,192,303514,1,0,0:0:0:0:
320,192,303514,1,0,0:0:0:0:
448,192,303807,1,0,0:0:0:0:
64,192,303881,1,0,0:0:0:0:
320,192,304027,1,0,0:0:0:0:
192,192,304247,1,0,0:0:0:0:
448,192,304394,1,0,0:0:0:0:
64,192,304613,1,0,0:0:0:0:
320,192,304760,1,0,0:0:0:0:
192,192,304980,1,0,0:0:0:0:
448,192,305126,1,0,0:0:0:0:
64,192,305346,1,0,0:0:0:0:
192,192,305566,1,0,0:0:0:0:
320,192,305859,1,0,0:0:0:0:
448,192,306079,1,0,0:0:0:0:
64,192,306372,1,0,0:0:0:0:
320,192,306445,1,0,0:0:0:0:
192,192,306665,1,0,0:0:0:0:
448,192,306885,1,0,0:0:0:0:
320,192,307105,1,0,0:0:0:0:
64,192,307251,1,0,0:0:0:0:
192,192,307471,1,0,0:0:0:0:
