osu file format v14

[General]
AudioFilename: audio.mp3
AudioLeadIn: 0
PreviewTime: 82068
Countdown: 1
SampleSet: None
StackLeniency: 0.7
Mode: 0
LetterboxInBreaks: 0
WidescreenStoryboard: 1

[Editor]
Bookmarks: 101
DistanceSpacing: 0.8
BeatDivisor: 2
GridSize: 4
TimelineZoom: 1.2

[Metadata]
Title:B4U
TitleUnicode:B4U
Artist:NAOKI
ArtistUnicode:NAOKI
Creator:Rem is my waifu
Version:Easy
Source:Dance Dance Revolution
Tags:DDR
BeatmapID:1389242
BeatmapSetID:651794

[Difficulty]
HPDrainRate:3
CircleSize:2.5
OverallDifficulty:3
ApproachRate:4
SliderMultiplier:0.999999999999999
SliderTickRate:1

[Events]
//Background and Video events
0,0,"b4u.jpg",0,0
//Break Periods
//Storyboard Layer 0 (Background)
//Storyboard Layer 1 (Fail)
//Storyboard Layer 2 (Pass)
//Storyboard Layer 3 (Foreground)
//Storyboard Sound Samples

[TimingPoints]
101,387.096774193548,4,3,0,60,1,0
24875,-100,4,3,0,60,0,1
37165,-100,4,3,0,60,0,0
62036,-100,4,3,0,60,0,1
72875,-100,4,3,0,60,0,0

[Colours]
Combo1 : 49,70,217
Combo2 : 190,50,180
Combo3 : 213,13,18

[HitObjects]
72,52,101,6,0,L|224:52,1,150,8|0,0:0|0:0,0:0:0:0:
444,52,1649,2,0,L|288:52,1,150,8|0,0:0|0:0,0:0:0:0:
296,252,3197,5,8,0:0:0:0:
136,252,3971,1,8,0:0:0:0:
136,92,4746,1,8,0:0:0:0:
296,92,5520,1,12,0:0:0:0:
292,252,6294,6,0,B|40:252|40:252|40:32|40:32|476:32|476:32|476:336|476:336|72:336|72:336,1,1600,0|4,0:0|0:0,0:0:0:0:
113,177,13262,6,0,L|112:69,1,99.9999999999999
192,75,14036,1,8,0:0:0:0:
272,75,14423,1,8,0:0:0:0:
352,75,14810,1,8,0:0:0:0:
432,75,15197,1,8,0:0:0:0:
432,155,15584,6,0,L|312:155,1,99.9999999999999
252,155,16359,2,0,L|140:155,1,99.9999999999999
72,159,17133,2,0,B|72:339|72:339|300:339,1,400,0|4,0:0|0:0,0:0:0:0:
452,335,19455,6,0,L|452:223,1,99.9999999999999
372,235,20229,1,8,0:0:0:0:
292,235,20616,1,8,0:0:0:0:
212,235,21003,1,8,0:0:0:0:
132,235,21390,1,8,0:0:0:0:
132,315,21777,6,0,L|252:315,1,99.9999999999999
312,315,22552,2,0,L|424:315,1,99.9999999999999
256,192,23326,12,12,24875,0:0:0:0:
48,48,26423,5,8,0:0:0:0:
128,48,26810,1,8,0:0:0:0:
128,128,27197,1,8,0:0:0:0:
128,208,27584,2,2,L|128:312,1,99.9999999999999,8|12,0:0|0:0,0:0:0:0:
208,308,28359,5,0,0:0:0:0:
288,308,28746,1,0,0:0:0:0:
368,308,29133,1,0,0:0:0:0:
448,308,29520,5,8,0:0:0:0:
448,228,29907,1,8,0:0:0:0:
368,228,30294,1,8,0:0:0:0:
288,228,30681,2,2,L|184:228,1,99.9999999999999,8|12,0:0|0:0,0:0:0:0:
108,228,31455,5,0,0:0:0:0:
108,148,31842,1,0,0:0:0:0:
108,68,32230,1,0,0:0:0:0:
188,68,32617,5,8,0:0:0:0:
188,148,33004,1,8,0:0:0:0:
268,148,33391,1,8,0:0:0:0:
348,148,33778,2,2,L|452:148,1,99.9999999999999,8|8,0:0|0:0,0:0:0:0:
448,68,34552,5,0,0:0:0:0:
368,68,34939,1,0,0:0:0:0:
288,68,35326,1,0,0:0:0:0:
208,68,35713,6,2,B|208:188|208:188|356:188|356:188|356:320,1,400,0|12,0:0|0:0,0:0:0:0:
36,324,38810,5,8,0:0:0:0:
356,324,40359,1,8,0:0:0:0:
360,164,41133,1,8,0:0:0:0:
200,164,41907,1,8,0:0:0:0:
200,244,42294,1,8,0:0:0:0:
280,244,42681,6,0,B|468:244|468:244|468:32|468:32|372:32|372:32|372:160|372:160|280:160|280:160|280:36|280:36|16:36|16:36|16:348|16:348|448:348|448:348,1,1800,12|12,0:0|0:0,0:0:0:0:
480,348,50036,5,0,0:0:0:0:
480,268,50423,1,0,0:0:0:0:
400,268,50810,1,0,0:0:0:0:
320,268,51197,2,2,L|320:132,1,99.9999999999999,8|8,0:0|0:0,0:0:0:0:
320,84,51971,5,0,0:0:0:0:
400,84,52359,1,0,0:0:0:0:
400,164,52746,1,0,0:0:0:0:
400,244,53133,2,0,B|400:344|400:344|272:344,1,200,8|12,0:0|0:0,0:0:0:0:
220,344,54294,6,10,L|92:344,1,99.9999999999999,8|8,0:0|0:0,0:0:0:0:
40,344,55068,1,8,0:0:0:0:
40,264,55455,1,8,0:0:0:0:
40,184,55842,6,2,L|40:80,1,99.9999999999999,12|0,0:0|0:0,0:0:0:0:
120,84,56617,1,0,0:0:0:0:
200,84,57004,1,0,0:0:0:0:
200,164,57391,2,2,L|200:284,1,99.9999999999999,12|0,0:0|0:0,0:0:0:0:
280,264,58165,5,0,0:0:0:0:
360,264,58552,1,0,0:0:0:0:
360,184,58939,2,0,L|228:184,2,99.9999999999999,8|12|8,0:0|0:0|0:0,0:0:0:0:
256,192,60488,12,12,62036,0:0:0:0:
48,336,63584,5,8,0:0:0:0:
128,336,63971,1,8,0:0:0:0:
128,256,64358,1,8,0:0:0:0:
128,176,64745,2,2,L|128:72,1,99.9999999999999,8|12,0:0|0:0,0:0:0:0:
208,76,65520,5,0,0:0:0:0:
288,76,65907,1,0,0:0:0:0:
368,76,66294,1,0,0:0:0:0:
448,76,66681,5,8,0:0:0:0:
448,156,67068,1,8,0:0:0:0:
368,156,67455,1,8,0:0:0:0:
288,156,67842,2,2,L|184:156,1,99.9999999999999,8|12,0:0|0:0,0:0:0:0:
108,156,68616,5,0,0:0:0:0:
108,236,69003,1,0,0:0:0:0:
108,316,69391,1,0,0:0:0:0:
188,316,69778,5,8,0:0:0:0:
188,236,70165,1,8,0:0:0:0:
268,236,70552,1,8,0:0:0:0:
348,236,70939,2,2,L|452:236,1,99.9999999999999,8|12,0:0|0:0,0:0:0:0:
448,316,71713,5,0,0:0:0:0:
368,316,72100,1,0,0:0:0:0:
288,316,72487,1,0,0:0:0:0:
208,316,72875,6,2,B|208:196|208:196|356:196|356:196|356:64,1,400,10|14,0:0|0:0,0:0:0:0:
276,64,74810,1,0,0:0:0:0:
196,64,75197,1,8,0:0:0:0:
116,64,75584,2,8,L|116:200,1,99.9999999999999,8|12,0:0|0:0,0:0:0:0:
196,164,76359,5,0,0:0:0:0:
196,244,76746,1,8,0:0:0:0:
196,324,77133,2,8,L|332:324,1,99.9999999999999,8|12,0:0|0:0,0:0:0:0:
256,192,77713,12,14,80617,0:0:0:0:
464,48,82165,5,8,0:0:0:0:
384,48,82552,1,8,0:0:0:0:
384,128,82939,1,8,0:0:0:0:
384,208,83326,2,2,L|384:312,1,99.9999999999999,8|12,0:0|0:0,0:0:0:0:
304,308,84101,5,0,0:0:0:0:
224,308,84488,1,0,0:0:0:0:
144,308,84875,1,0,0:0:0:0:
64,308,85262,5,8,0:0:0:0:
64,228,85649,1,8,0:0:0:0:
144,228,86036,1,8,0:0:0:0:
224,228,86423,2,2,L|328:228,1,99.9999999999999,8|12,0:0|0:0,0:0:0:0:
404,228,87197,5,0,0:0:0:0:
404,148,87584,1,0,0:0:0:0:
404,68,87972,1,0,0:0:0:0:
324,68,88359,5,8,0:0:0:0:
324,148,88746,1,8,0:0:0:0:
244,148,89133,1,8,0:0:0:0:
164,148,89520,2,2,L|60:148,1,99.9999999999999,8|12,0:0|0:0,0:0:0:0:
64,68,90294,5,0,0:0:0:0:
144,68,90681,1,0,0:0:0:0:
224,68,91068,1,0,0:0:0:0:
304,68,91455,6,12,L|420:68,2,99.9999999999999
304,148,92617,2,12,L|304:280,1,99.9999999999999,8|12,0:0|0:0,0:0:0:0:
256,192,94552,12,0,96100,0:0:0:0:
