osu file format v14

[General]
AudioFilename: audio.mp3
AudioLeadIn: 0
PreviewTime: 110893
Countdown: 0
SampleSet: Normal
StackLeniency: 0.7
Mode: 1
LetterboxInBreaks: 0
WidescreenStoryboard: 1

[Editor]
Bookmarks: 13734,40854,64154,73475,82795,91533,107843
DistanceSpacing: 1.3
BeatDivisor: 4
GridSize: 32
TimelineZoom: 1.299999

[Metadata]
Title:Nevereverland (Cut Ver.)
TitleUnicode:Nevereverland (Cut Ver.)
Artist:NANO
ArtistUnicode:ナノ
Creator:Erowdi
Version:Ron's Kantan
Source:アークIX
Tags:E_S_I_A [-E_S_I_A-] ESIA [-ESIA-] raynald ron [r] faputa naoki itou n neko short version ver english japanese j-rock jrock j rock arknine arkix ark ix nine opening op ending ed theme insert song anime ova
BeatmapID:4103724
BeatmapSetID:1921824

[Difficulty]
HPDrainRate:8
CircleSize:2
OverallDifficulty:3
ApproachRate:0
SliderMultiplier:1.4
SliderTickRate:1

[Events]
//Background and Video events
0,0,"bg (2)ear.jpg",0,60
//Break Periods
//Storyboard Layer 0 (Background)
//Storyboard Layer 1 (Fail)
//Storyboard Layer 2 (Pass)
//Storyboard Layer 3 (Foreground)
//Storyboard Layer 4 (Overlay)
//Storyboard Sound Samples

[TimingPoints]
925,400,4,1,0,25,1,0
925,-88.2352941176471,4,1,0,25,0,0
20134,-88.2352941176471,4,1,0,30,0,0
26525,-88.2352941176471,4,1,0,35,0,0
40845,291.26213592233,4,1,0,60,1,0
40845,-121.176470588235,4,1,0,60,0,0
50165,-121.176470588235,4,1,0,82,0,1
62980,-121.176470588235,4,1,0,80,0,1
63272,-121.176470588235,4,1,0,78,0,1
63417,-121.176470588235,4,1,0,76,0,1
63563,-121.176470588235,4,1,0,74,0,1
64145,-121.176470588235,4,1,0,55,0,0
82786,-121.176470588235,4,1,0,75,0,0
84825,291.26213592233,4,1,0,75,1,0
84825,-120.481927710843,4,1,0,75,0,0
89193,291.26213592233,4,1,0,75,1,0
89193,-120.481927710843,4,1,0,75,0,0
91524,291.26213592233,4,1,0,36,1,8
91524,-121.176470588235,4,1,0,36,0,8
100844,-121.176470588235,4,1,0,43,0,8
107835,291.26213592233,4,1,0,95,1,0
107835,-121.176470588235,3,1,0,95,0,8
111330,291.26213592233,4,1,0,90,1,1
111330,-121.176470588235,4,1,0,90,0,1
133465,-121.176470588235,4,1,0,88,0,0
134630,-121.176470588235,4,1,0,85,0,0

[HitObjects]
256,192,925,5,0,0:0:0:0:
256,192,2125,1,0,0:0:0:0:
256,192,3325,1,0,0:0:0:0:
256,192,3725,1,0,0:0:0:0:
256,192,4125,1,8,0:0:0:0:
256,192,5325,1,8,0:0:0:0:
256,192,6525,1,8,0:0:0:0:
256,192,6925,1,0,0:0:0:0:
256,192,7325,1,8,0:0:0:0:
256,192,8525,1,8,0:0:0:0:
256,192,9725,1,8,0:0:0:0:
256,192,10125,1,8,0:0:0:0:
256,192,10525,1,0,0:0:0:0:
256,192,11725,1,0,0:0:0:0:
256,192,12925,1,0,0:0:0:0:
256,192,13325,1,8,0:0:0:0:
256,192,13725,1,0,0:0:0:0:
256,192,14925,1,8,0:0:0:0:
256,192,16525,1,8,0:0:0:0:
256,192,16925,1,0,0:0:0:0:
256,192,17525,1,8,0:0:0:0:
256,192,18125,1,0,0:0:0:0:
256,192,18925,1,8,0:0:0:0:
256,192,19325,1,8,0:0:0:0:
256,192,19725,1,0,0:0:0:0:
256,192,20125,1,8,0:0:0:0:
256,192,21325,1,0,0:0:0:0:
256,192,22925,1,0,0:0:0:0:
256,192,23325,1,8,0:0:0:0:
256,192,23925,1,0,0:0:0:0:
256,192,24525,1,8,0:0:0:0:
256,192,25725,1,8,0:0:0:0:
256,192,26125,1,8,0:0:0:0:
256,192,26525,1,0,0:0:0:0:
256,192,27125,1,0,0:0:0:0:
256,192,27725,1,8,0:0:0:0:
256,192,28925,1,8,0:0:0:0:
256,192,29325,1,0,0:0:0:0:
256,192,29725,1,8,0:0:0:0:
256,192,30325,1,8,0:0:0:0:
256,192,30925,1,0,0:0:0:0:
256,192,32125,1,0,0:0:0:0:
256,192,32525,1,8,0:0:0:0:
256,192,32925,1,0,0:0:0:0:
256,192,34125,1,8,0:0:0:0:
256,192,35725,1,0,0:0:0:0:
256,192,36125,1,8,0:0:0:0:
256,192,37325,1,8,0:0:0:0:
256,192,38525,1,8,0:0:0:0:
256,192,38925,1,8,0:0:0:0:
256,192,39325,1,0,0:0:0:0:
256,192,40845,1,4,0:0:0:0:
256,192,41427,1,0,0:0:0:0:
256,192,41864,1,8,0:0:0:0:
256,192,42155,1,8,0:0:0:0:
256,192,42883,1,8,0:0:0:0:
256,192,43466,1,8,0:0:0:0:
256,192,43903,1,0,0:0:0:0:
256,192,44194,1,0,0:0:0:0:
256,192,45505,1,8,0:0:0:0:
256,192,45942,1,8,0:0:0:0:
256,192,46378,1,8,0:0:0:0:
256,192,46815,1,8,0:0:0:0:
256,192,47252,1,0,0:0:0:0:
256,192,47544,1,0,0:0:0:0:
256,192,47835,1,8,0:0:0:0:
256,192,49000,1,8,0:0:0:0:
256,192,49291,1,8,0:0:0:0:
256,192,49582,1,0,0:0:0:0:
256,192,50165,1,4,0:0:0:0:
256,192,51330,1,8,0:0:0:0:
256,192,51912,1,8,0:0:0:0:
256,192,52204,1,0,0:0:0:0:
256,192,52495,1,8,0:0:0:0:
256,192,52786,1,8,0:0:0:0:
256,192,53078,1,0,0:0:0:0:
256,192,53660,1,0,0:0:0:0:
256,192,53951,1,0,0:0:0:0:
256,192,54243,1,8,0:0:0:0:
256,192,54825,1,4,0:0:0:0:
256,192,55990,1,8,0:0:0:0:
256,192,56573,1,0,0:0:0:0:
256,192,56864,1,8,0:0:0:0:
256,192,57155,1,0,0:0:0:0:
256,192,57446,1,0,0:0:0:0:
256,192,57738,1,8,0:0:0:0:
256,192,58320,1,8,0:0:0:0:
256,192,58611,1,0,0:0:0:0:
256,192,58903,1,8,0:0:0:0:
256,192,59485,1,4,0:0:0:0:
256,192,60359,1,0,0:0:0:0:
256,192,60942,1,0,0:0:0:0:
256,192,61233,1,8,0:0:0:0:
256,192,61524,1,8,0:0:0:0:
256,192,61815,1,4,0:0:0:0:
256,192,62689,1,0,0:0:0:0:
256,192,63272,1,0,0:0:0:0:
256,192,63563,1,8,0:0:0:0:
256,192,63854,1,8,0:0:0:0:
256,192,64145,1,4,0:0:0:0:
256,192,64728,1,0,0:0:0:0:
256,192,65165,1,8,0:0:0:0:
256,192,65602,1,8,0:0:0:0:
256,192,66476,1,0,0:0:0:0:
256,192,66912,1,8,0:0:0:0:
256,192,67204,1,8,0:0:0:0:
256,192,67495,1,0,0:0:0:0:
256,192,68223,1,0,0:0:0:0:
256,192,68514,1,8,0:0:0:0:
256,192,68806,1,0,0:0:0:0:
256,192,69388,1,0,0:0:0:0:
256,192,69825,1,8,0:0:0:0:
256,192,70262,1,8,0:0:0:0:
256,192,71136,1,0,0:0:0:0:
256,192,71718,1,8,0:0:0:0:
256,192,72301,1,0,0:0:0:0:
256,192,72592,1,8,0:0:0:0:
256,192,72883,1,8,0:0:0:0:
256,192,73175,1,8,0:0:0:0:
256,192,73466,1,4,0:0:0:0:
256,192,74048,1,8,0:0:0:0:
256,192,74485,1,0,0:0:0:0:
256,192,74777,1,0,0:0:0:0:
256,192,75068,1,8,0:0:0:0:
256,192,75796,1,0,0:0:0:0:
256,192,76378,1,8,0:0:0:0:
256,192,76961,1,0,0:0:0:0:
256,192,77544,1,0,0:0:0:0:
256,192,77835,1,8,0:0:0:0:
256,192,78126,1,0,0:0:0:0:
256,192,79145,1,0,0:0:0:0:
256,192,79582,1,8,0:0:0:0:
256,192,80165,1,8,0:0:0:0:
256,192,80456,1,4,0:0:0:0:
256,192,81039,1,8,0:0:0:0:
256,192,81621,1,0,0:0:0:0:
256,192,81912,1,8,0:0:0:0:
256,192,82204,1,8,0:0:0:0:
256,192,82495,1,8,0:0:0:0:
256,192,82786,1,4,0:0:0:0:
256,192,83660,1,0,0:0:0:0:
256,192,84534,1,8,0:0:0:0:
256,192,84825,1,4,0:0:0:0:
256,192,85698,1,0,0:0:0:0:
256,192,86572,1,8,0:0:0:0:
256,192,86863,1,8,0:0:0:0:
256,192,87155,1,4,0:0:0:0:
256,192,88028,1,0,0:0:0:0:
256,192,88902,1,4,0:0:0:0:
256,192,89193,1,4,0:0:0:0:
256,192,90066,1,0,0:0:0:0:
256,192,90940,1,8,0:0:0:0:
256,192,91231,1,8,0:0:0:0:
256,192,92689,1,8,0:0:0:0:
256,192,93854,1,0,0:0:0:0:
256,192,95019,1,8,0:0:0:0:
256,192,96184,1,0,0:0:0:0:
256,192,98514,1,8,0:0:0:0:
256,192,100844,1,0,0:0:0:0:
256,192,101426,1,8,0:0:0:0:
256,192,102591,1,8,0:0:0:0:
256,192,103174,1,0,0:0:0:0:
256,192,103757,1,8,0:0:0:0:
256,192,104922,1,8,0:0:0:0:
256,192,105504,1,0,0:0:0:0:
256,192,106669,1,8,0:0:0:0:
256,192,107835,1,4,0:0:0:0:
256,192,108708,1,4,0:0:0:0:
256,192,109582,1,12,0:0:0:0:
256,192,111330,1,4,0:0:0:0:
256,192,112203,1,8,0:0:0:0:
256,192,112495,1,0,0:0:0:0:
256,192,112786,1,8,0:0:0:0:
256,192,113368,1,8,0:0:0:0:
256,192,113660,1,8,0:0:0:0:
256,192,113951,1,0,0:0:0:0:
256,192,114533,1,0,0:0:0:0:
256,192,114825,1,8,0:0:0:0:
256,192,115116,1,0,0:0:0:0:
256,192,115698,1,0,0:0:0:0:
256,192,115990,1,8,0:0:0:0:
256,192,116863,1,8,0:0:0:0:
256,192,117737,1,8,0:0:0:0:
256,192,118029,1,8,0:0:0:0:
256,192,118320,1,0,0:0:0:0:
256,192,118902,1,0,0:0:0:0:
256,192,119339,1,8,0:0:0:0:
256,192,119630,1,8,0:0:0:0:
256,192,120650,1,4,0:0:0:0:
256,192,121524,1,8,0:0:0:0:
256,192,121815,1,0,0:0:0:0:
256,192,122106,1,8,0:0:0:0:
256,192,122689,1,8,0:0:0:0:
256,192,122980,1,4,0:0:0:0:
256,192,123854,1,8,0:0:0:0:
256,192,124873,1,0,0:0:0:0:
256,192,125310,1,8,0:0:0:0:
256,192,125601,1,8,0:0:0:0:
256,192,126184,1,8,0:0:0:0:
256,192,126475,1,8,0:0:0:0:
256,192,127058,1,0,0:0:0:0:
256,192,127349,1,8,0:0:0:0:
256,192,127640,1,0,0:0:0:0:
256,192,128223,1,0,0:0:0:0:
256,192,128660,1,8,0:0:0:0:
256,192,128951,1,8,0:0:0:0:
256,192,129679,1,8,0:0:0:0:
256,192,129970,1,0,0:0:0:0:
256,192,130262,1,8,0:0:0:0:
256,192,131135,1,0,0:0:0:0:
256,192,131427,1,0,0:0:0:0:
256,192,131718,1,8,0:0:0:0:
256,192,132009,1,8,0:0:0:0:
256,192,132300,1,0,0:0:0:0:
256,192,132883,1,0,0:0:0:0:
256,192,133465,1,12,0:0:0:0:
256,192,134630,1,4,0:0:0:0:
