osu file format v14

[General]
AudioFilename: eve.mp3
AudioLeadIn: 0
PreviewTime: 1265
Countdown: 0
SampleSet: Soft
StackLeniency: 0.4
Mode: 0
LetterboxInBreaks: 0
WidescreenStoryboard: 0

[Editor]
Bookmarks: 10057,21836,45394,66025,68769,76976,95456
DistanceSpacing: 1
BeatDivisor: 4
GridSize: 16
TimelineZoom: 2

[Metadata]
Title:sail to a new world (game ver.)
TitleUnicode:sail to a new world (game ver.)
Artist:NANA
ArtistUnicode:NANA
Creator:Uta
Version:Insane
Source:イブニクル
Tags:Evenicle eroge アリスソフト AliceSoft waifuiscute fluffy hair error- asuka_- funnya lasse kuro fuyusaki ramius dreissen riche eden gurigura kathryn lapucelle
BeatmapID:1713085
BeatmapSetID:816928

[Difficulty]
HPDrainRate:6
CircleSize:4.2
OverallDifficulty:8
ApproachRate:9
SliderMultiplier:1.7
SliderTickRate:1

[Events]
//Background and Video events
0,0,"kath.jpg",0,0
//Break Periods
//Storyboard Layer 0 (Background)
//Storyboard Layer 1 (Fail)
//Storyboard Layer 2 (Pass)
//Storyboard Layer 3 (Foreground)
//Storyboard Sound Samples

[TimingPoints]
1450,368.098159509202,4,2,1,40,1,0
1450,-142.857142857143,4,2,1,40,0,0
2922,-111.111111111111,4,2,1,40,0,0
4020,-111.111111111111,4,2,1,25,0,0
4394,-125,4,2,1,40,0,0
4946,-100,4,2,1,25,0,0
5867,-100,4,2,1,50,0,0
6235,-100,4,2,1,25,0,0
6603,-100,4,2,1,50,0,0
6971,-100,4,2,1,25,0,0
7339,-111.111111111111,4,2,1,50,0,0
7431,-111.111111111111,4,2,1,25,0,0
8811,-100,4,2,2,60,0,0
9916,-100,4,2,2,60,0,0
10284,-100,4,2,1,60,0,0
10468,-100,4,2,1,50,0,0
20223,-100,4,2,1,55,0,0
22431,-125,4,2,1,55,0,0
26296,-142.857142857143,4,2,1,55,0,0
27032,-125,4,2,1,55,0,0
30897,-125,4,2,1,55,0,0
32002,-125,4,2,1,60,0,0
32186,-111.111111111111,4,2,1,60,0,0
32278,-142.857142857143,4,2,1,60,0,0
32370,-142.857142857143,4,2,1,60,0,0
32462,-100,4,2,1,60,0,0
33474,-142.857142857143,4,2,1,60,0,0
33842,-100,4,2,1,60,0,0
35959,-100,4,2,1,70,0,0
36051,-100,4,2,1,60,0,0
36143,-100,4,2,1,20,0,0
36235,-100,4,2,1,60,0,0
44885,-100,4,2,3,60,0,0
45529,-100,4,2,3,20,0,0
45621,-100,4,2,1,60,0,0
46357,-111.111111111111,4,2,1,60,0,0
54456,-111.111111111111,4,2,1,60,0,0
57400,-90.9090909090909,4,2,1,60,0,0
62922,-111.111111111111,4,2,1,60,0,0
63290,-90.9090909090909,4,2,1,60,0,0
63566,-90.9090909090909,4,2,1,30,0,0
64026,-90.9090909090909,4,2,1,40,0,0
64578,-90.9090909090908,4,2,1,60,0,0
64762,-90.9090909090908,4,2,1,40,0,0
65315,-90.9090909090908,4,2,1,50,0,0
66235,-90.9090909090908,4,2,1,60,0,0
67523,-90.9090909090908,4,2,2,60,0,0
68996,-83.3333333333333,4,2,1,70,0,1
76357,-76.9230769230769,4,2,1,70,0,1
78198,-76.9230769230769,4,2,1,70,0,0
78382,-83.3333333333333,4,2,1,70,0,0
80223,-83.3333333333333,4,2,2,70,0,0
80775,-83.3333333333333,4,2,1,70,0,1
89241,-100,4,2,3,70,0,0
89793,-83.3333333333333,4,2,1,80,0,1
92002,-100,4,2,1,80,0,1
92738,-83.3333333333333,4,2,1,80,0,1
95683,-100,4,2,1,80,0,0
104517,-100,4,2,1,60,0,0
113351,-100,4,2,1,5,0,0

[Colours]
Combo1 : 255,128,192
Combo2 : 13,134,255
Combo3 : 21,255,80
Combo4 : 128,128,192

[HitObjects]
159,208,1450,6,0,P|230:115|182:245,1,416.499987289429,4|4,0:0|0:0,0:0:0:0:
188,251,2922,2,0,B|234:235|282:230|328:233|380:244|380:244|416:202|428:154|395:142|359:146|351:172|345:197|357:218|411:248|496:235,1,458.999985992432,4|0,0:0|0:0,0:0:0:0:
373,363,4394,6,0,P|259:334|152:359,1,204,4|0,0:0|0:0,0:0:0:0:
176,350,5499,1,0,0:0:0:0:
14,182,5867,2,0,L|4:351,1,170,4|0,0:0|0:0,0:0:0:0:
175,257,6603,2,0,L|166:88,1,170,4|0,0:0|0:0,0:0:0:0:
437,199,7339,6,0,P|309:162|469:171,1,535.499983657837,4|0,0:0|0:0,0:0:0:0:
481,149,8811,5,0,0:0:0:0:
394,112,8996,1,0,0:0:0:0:
375,287,9180,1,8,0:1:0:0:
286,202,9364,6,0,L|288:141,1,42.5,0|8,0:0|0:1,0:0:0:0:
213,285,9548,2,0,L|214:327,2,42.5,0|8|0,0:0|0:1|0:0,0:0:0:0:
40,221,9916,5,8,0:1:0:0:
33,192,10008,1,0,0:0:0:0:
29,162,10100,1,8,0:1:0:0:
29,132,10192,1,8,0:1:0:0:
34,102,10284,6,0,P|84:84|131:86,1,85,12|0,0:1|0:0,0:0:0:0:
235,146,10652,1,8,0:0:0:0:
235,146,10836,2,0,L|228:35,1,85
139,185,11204,1,0,0:0:0:0:
337,162,11388,2,0,P|347:121|342:79,1,85,8|0,0:0|0:0,0:0:0:0:
245,257,11756,5,0,0:0:0:0:
245,257,11940,2,0,L|354:252,1,85,0|8,0:0|0:0,0:0:0:0:
404,347,12308,1,0,0:0:0:0:
224,354,12492,2,0,P|180:327|152:287,1,85,0|0,0:0|0:0,0:0:0:0:
158,124,12861,2,0,L|163:217,1,85,8|0,0:0|0:0,0:0:0:0:
439,66,13229,6,0,B|379:88|343:61|336:56|299:33|245:58,1,170,0|8,0:0|0:0,0:0:0:0:
44,145,13781,2,0,B|97:183|140:166|148:163|190:149|237:189,1,170,0|0,0:0|0:0,0:0:0:0:
162,62,14333,1,8,0:0:0:0:
168,251,14517,6,0,L|173:342,1,85,0|0,0:0|0:0,0:0:0:0:
296,208,14885,2,0,P|299:149|280:103,1,85,0|8,0:0|0:0,0:0:0:0:
208,331,15253,2,0,P|314:321|418:315,1,170,0|8,0:0|0:0,0:0:0:0:
481,341,15805,1,8,0:0:0:0:
506,240,15989,1,4,0:0:0:0:
505,224,16081,1,0,0:0:0:0:
504,208,16173,6,0,L|500:118,1,85,4|0,0:0|0:0,0:0:0:0:
368,237,16542,2,0,L|364:321,1,85,8|0,0:0|0:0,0:0:0:0:
413,133,16910,1,0,0:0:0:0:
280,229,17094,2,0,P|228:231|190:214,1,85,0|8,0:0|0:0,0:0:0:0:
95,124,17462,2,0,P|134:110|176:114,1,85
85,258,17830,1,0,0:0:0:0:
160,349,18014,6,0,P|210:345|244:328,1,85,8|0,0:0|0:0,0:0:0:0:
270,211,18382,1,0,0:0:0:0:
333,336,18566,2,0,L|417:328,1,85,0|8,0:0|0:0,0:0:0:0:
505,323,18842,1,8,0:0:0:0:
505,323,18934,1,4,0:0:0:0:
425,153,19302,5,0,0:0:0:0:
472,86,19486,1,0,0:0:0:0:
425,20,19670,1,8,0:0:0:0:
348,46,19854,1,0,0:0:0:0:
348,127,20038,1,0,0:0:0:0:
301,193,20223,2,0,L|298:235,2,42.5,8|8|4,0:0|0:0|0:0,0:0:0:0:
256,192,20499,12,4,22063,0:0:0:0:
170,270,22431,6,0,P|203:280|245:274,1,68,2|0,0:0|0:0,0:0:0:0:
319,250,22799,1,0,0:0:0:0:
319,250,22983,1,2,0:0:0:0:
376,320,23167,1,0,0:0:0:0:
397,210,23351,2,0,L|414:72,1,136,2|0,0:0|0:0,0:0:0:0:
413,75,23903,1,2,0:0:0:0:
505,241,24272,2,0,L|508:334,2,68,0|0|2,0:0|0:0|0:0,0:0:0:0:
313,87,25008,6,0,P|233:60|175:78,1,136,0|2,0:0|0:0,0:0:0:0:
173,93,25744,1,0,0:0:0:0:
230,164,25928,1,2,0:0:0:0:
206,254,26112,1,0,0:0:0:0:
130,314,26296,6,0,B|74:269|81:217|94:200|94:200|121:216|144:218,1,178.499994552612,2|2,0:0|0:0,0:0:0:0:
226,242,27032,2,0,L|206:382,1,136,2|0,0:0|0:0,0:0:0:0:
206,376,27584,1,2,0:0:0:0:
434,228,27953,5,0,0:0:0:0:
434,228,28321,2,0,P|384:203|299:218,1,136,2|0,0:0|0:0,0:0:0:0:
38,188,28873,2,0,P|103:200|165:173,1,136,2|2,0:0|0:0,0:0:0:0:
165,173,29425,1,2,0:0:0:0:
280,47,29793,1,0,0:0:0:0:
280,47,29977,1,2,0:0:0:0:
456,359,30713,1,2,0:0:0:0:
456,359,30805,1,2,0:0:0:0:
456,359,30897,6,0,L|462:217,1,136
361,168,31449,2,0,P|349:114|336:83,2,68
258,312,32002,1,8,0:0:0:0:
258,312,32094,1,8,0:0:0:0:
258,312,32186,6,0,P|235:246|254:162,1,152.999995330811,4|8,0:1|0:1,0:0:0:0:
361,262,32738,1,8,0:1:0:0:
171,359,32922,1,0,0:1:0:0:
120,264,33106,1,0,0:0:0:0:
119,244,33198,1,0,0:0:0:0:
118,224,33290,1,0,0:0:0:0:
117,204,33382,1,0,0:0:0:0:
116,184,33474,2,0,P|108:144|79:168,1,89.2499972763062,8|0,0:0|0:0,0:0:0:0:
200,211,33842,6,0,P|208:153|196:113,1,85,4|0,0:0|0:0,0:0:0:0:
373,25,34210,2,0,P|359:126|379:196,1,170,10|0,0:0|0:0,0:0:0:0:
464,137,34762,1,2,0:0:0:0:
312,257,34946,1,8,0:0:0:0:
451,295,35130,1,2,0:0:0:0:
451,295,35223,1,8,0:0:0:0:
451,295,35315,6,0,P|334:303|291:341,1,170,0|8,0:0|0:0,0:0:0:0:
194,323,35867,2,0,L|136:326,1,42.5,2|0,0:0|0:0,0:0:0:0:
143,315,36051,2,0,L|85:318,1,42.5
85,310,36235,1,2,0:0:0:0:
233,230,36419,2,0,P|244:178|225:126,1,85,8|2,0:0|0:0,0:0:0:0:
0,178,36787,6,0,B|38:185|70:164|70:164|122:200|191:182,1,170,0|8,0:0|0:0,0:0:0:0:
161,187,37339,1,0,0:0:0:0:
45,278,37523,1,2,0:0:0:0:
45,278,37707,1,2,0:0:0:0:
0,136,37891,1,8,0:0:0:0:
98,29,38075,6,0,B|157:9|208:36|208:36|261:107|350:78,1,255,2|8,0:0|0:0,0:0:0:0:
428,241,38811,2,0,P|405:165|446:75,1,170,2|10,0:0|0:0,0:0:0:0:
449,264,39364,1,10,0:0:0:0:
365,341,39548,1,2,0:0:0:0:
365,341,39640,1,2,0:0:0:0:
365,341,39732,6,0,P|279:333|245:334,1,85,4|0,0:0|0:0,0:0:0:0:
77,292,40100,2,0,P|158:317|231:251,1,170,10|0,0:0|0:0,0:0:0:0:
450,208,40652,2,0,P|369:233|296:167,1,170,2|0,0:0|0:0,0:0:0:0:
341,49,41204,6,0,B|361:66|385:68|385:68|368:104|392:166,1,127.5,2|0,0:0|0:0,0:0:0:0:
459,108,41572,1,10,0:0:0:0:
259,67,41756,2,0,P|174:46|83:58,1,170,2|0,0:0|0:0,0:0:0:0:
0,98,42308,1,8,0:0:0:0:
83,274,42492,1,2,0:0:0:0:
83,274,42584,1,2,0:0:0:0:
83,274,42676,6,0,P|117:214|105:146,2,127.5,2|2|2,0:0|0:0|0:0,0:0:0:0:
26,198,43413,1,2,0:0:0:0:
181,289,43597,1,2,0:0:0:0:
55,371,43781,1,8,0:0:0:0:
205,273,43965,6,0,P|277:332|381:308,1,170,6|0,0:0|0:0,0:0:0:0:
440,295,44517,1,10,0:0:0:0:
440,295,44701,1,0,0:0:0:0:
307,197,44885,2,0,L|302:266,1,42.5
414,159,45069,2,0,L|419:228,1,42.5
243,128,45253,2,0,B|239:44|239:44|218:71|187:70,1,127.5
185,81,45621,6,0,P|283:115|363:66,1,170,4|2,0:1|0:0,0:0:0:0:
414,159,46173,1,2,0:0:0:0:
414,159,46357,2,0,P|439:117|443:66,1,76.4999976654053,8|0,0:0|0:0,0:0:0:0:
316,164,46726,2,0,P|325:200|346:232,1,76.4999976654053,2|2,0:0|0:0,0:0:0:0:
246,364,47094,6,0,P|315:324|396:346,1,152.999995330811,2|0,0:0|0:0,0:0:0:0:
384,338,47646,1,2,0:0:0:0:
237,264,47830,2,0,P|194:267|105:291,2,114.749996498108,10|2|2,0:0|0:0|0:0,0:0:0:0:
174,93,48566,6,0,P|166:169|162:246,1,152.999995330811,2|0,0:0|0:0,0:0:0:0:
35,330,49302,2,0,P|30:254|22:178,1,152.999995330811,8|2,0:0|0:0,0:0:0:0:
13,71,49854,2,0,P|51:61|99:66,1,76.4999976654053,2|0,0:0|0:0,0:0:0:0:
174,93,50223,2,0,P|210:102|248:100,1,76.4999976654053,2|0,0:0|0:0,0:0:0:0:
331,26,50591,1,2,0:0:0:0:
331,26,50775,2,0,P|281:89|289:188,1,152.999995330811,8|2,0:0|0:0,0:0:0:0:
379,163,51511,6,0,P|420:98|374:156,1,229.499992996216,2|0,0:0|0:0,0:0:0:0:
333,242,52247,2,0,P|353:300|337:361,2,114.749996498108,10|2|2,0:0|0:0|0:0,0:0:0:0:
112,309,52983,2,0,B|151:291|190:307|190:307|223:322|275:300,1,152.999995330811,0|2,0:0|0:0,0:0:0:0:
37,250,53719,2,0,P|17:308|33:369,2,114.749996498108,10|2|2,0:0|0:0|0:0,0:0:0:0:
126,209,54456,6,0,L|119:38,1,152.999995330811,2|8,0:0|0:0,0:0:0:0:
127,230,55192,1,2,0:0:0:0:
37,133,55376,1,2,0:0:0:0:
210,126,55560,1,8,0:0:0:0:
193,303,55744,6,0,P|124:325|40:281,1,152.999995330811,2|0,0:0|0:0,0:0:0:0:
127,230,56296,1,10,0:0:0:0:
193,303,56480,1,0,0:0:0:0:
288,251,56664,2,0,L|286:195,1,38.2499988327027,2|0,0:0|0:0,0:0:0:0:
380,298,56848,2,0,L|378:336,1,38.2499988327027,2|0,0:0|0:0,0:0:0:0:
384,200,57032,2,0,L|388:74,1,114.749996498108,8|0,0:1|0:0,0:0:0:0:
330,31,57400,6,0,P|261:13|189:32,1,140.25000428009,6|0,0:0|0:0,0:0:0:0:
135,81,57769,2,0,L|141:190,1,93.5000028533936,8|0,0:0|0:0,0:0:0:0:
40,34,58137,2,0,L|24:174,2,140.25000428009,2|2|0,0:0|0:0|0:0,0:0:0:0:
183,254,58873,6,0,P|128:262|84:249,1,93.5000028533936,2|0,0:0|0:0,0:0:0:0:
242,116,59241,1,8,0:0:0:0:
312,255,59425,1,2,0:0:0:0:
314,282,59517,1,2,0:0:0:0:
316,309,59609,2,0,P|330:207|339:139,1,140.25000428009,2|0,0:0|0:0,0:0:0:0:
408,230,59977,2,0,P|460:236|505:219,1,93.5000028533936,10|0,0:0|0:0,0:0:0:0:
231,344,60345,6,0,B|126:313|126:313|88:342|45:327,1,187.000005706787,2|8,0:0|0:0,0:0:0:0:
219,237,60897,1,2,0:0:0:0:
77,149,61081,2,0,L|70:242,1,93.5000028533936,2|2,0:0|0:0,0:0:0:0:
220,105,61449,1,8,0:0:0:0:
352,245,61634,6,0,P|259:198|186:234,1,187.000005706787,12|0,0:0|0:0,0:0:0:0:
265,293,62186,1,8,0:0:0:0:
226,91,62370,1,0,0:0:0:0:
370,252,62554,1,8,0:0:0:0:
426,115,62738,1,0,0:0:0:0:
335,32,62922,2,0,L|270:26,1,38.2499988327027,8|8,0:0|0:0,0:0:0:0:
432,9,63106,2,0,L|496:3,1,38.2499988327027,8|8,0:0|0:0,0:0:0:0:
362,193,63290,6,0,P|328:126|364:41,2,140.25000428009,4|0|0,0:0|0:0|0:0,0:0:0:0:
480,220,64026,2,0,L|474:362,1,140.25000428009
431,149,64578,1,4,0:0:0:0:
337,326,64762,2,0,P|232:342|166:289,1,187.000005706787,4|0,0:0|0:0,0:0:0:0:
261,155,65315,1,0,0:0:0:0:
263,182,65407,1,0,0:0:0:0:
265,209,65499,2,0,P|294:146|275:62,2,140.25000428009,0|0|0,0:0|0:0|0:0,0:0:0:0:
32,155,66235,6,0,P|108:106|197:126,1,187.000005706787,4|0,0:0|0:0,0:0:0:0:
290,312,66787,1,4,0:0:0:0:
179,376,66971,2,0,B|147:353|139:324|139:324|124:184,1,187.000005706787,4|0,0:0|0:0,0:0:0:0:
52,358,67523,1,8,0:1:0:0:
236,215,67891,1,8,0:1:0:0:
79,124,68259,2,0,L|16:119,1,46.7500014266968,8|0,0:1|0:0,0:0:0:0:
131,207,68443,2,0,P|168:161|175:114,1,93.5000028533936,0|0,0:0|0:0,0:0:0:0:
161,18,68811,1,8,0:1:0:0:
201,25,68903,1,8,0:1:0:0:
235,29,68996,6,0,B|266:47|266:47|244:82|171:109|95:28,1,203.999993774414,12|0,0:0|0:0,0:0:0:0:
291,247,69548,2,0,P|299:197|277:142,1,101.999996887207,10|0,0:0|0:0,0:0:0:0:
193,354,69916,1,0,0:0:0:0:
111,172,70100,2,0,P|104:109|130:54,1,101.999996887207,2|8,0:0|0:0,0:0:0:0:
210,266,70468,6,0,L|92:262,1,101.999996887207,2|0,0:0|0:0,0:0:0:0:
270,345,70836,2,0,L|372:342,1,101.999996887207,2|8,0:0|0:0,0:0:0:0:
477,181,71204,2,0,B|464:318|464:318|451:275|411:263,1,203.999993774414,2|0,0:0|0:0,0:0:0:0:
367,179,71664,1,0,0:0:0:0:
367,179,71756,1,10,0:0:0:0:
195,263,71940,1,0,0:0:0:0:
220,260,72032,1,0,0:0:0:0:
245,257,72124,6,0,P|269:186|224:97,2,152.999995330811,2|2|0,0:0|0:0|0:0,0:0:0:0:
74,195,72861,2,0,P|48:265|72:336,2,152.999995330811,2|2|0,0:0|0:0|0:0,0:0:0:0:
347,262,73597,2,0,B|288:290|243:269|243:269|201:249|143:267,1,203.999993774414,2|8,0:0|0:0,0:0:0:0:
273,43,74149,1,0,0:0:0:0:
282,66,74241,1,0,0:0:0:0:
291,89,74333,2,0,L|284:213,1,101.999996887207,2|2,0:0|0:0,0:0:0:0:
194,362,74701,1,8,0:0:0:0:
398,357,74885,6,0,B|445:298|445:298|438:160,1,203.999993774414,2|2,0:0|0:0,0:0:0:0:
347,262,75437,1,8,0:0:0:0:
483,373,75621,1,0,0:0:0:0:
296,363,75805,1,2,0:0:0:0:
405,76,75989,2,0,P|432:120|435:185,1,101.999996887207,2|8,0:0|0:0,0:0:0:0:
256,225,76357,6,0,B|238:185|254:150|254:150|282:122|358:144,1,165.749992412568,4|0,0:0|0:0,0:0:0:0:
331,285,76726,2,0,P|269:315|170:271,1,165.749992412568,4|0,0:0|0:0,0:0:0:0:
96,114,77094,2,0,B|103:87|103:87|168:118|164:212,1,165.749992412568,4|0,0:0|0:0,0:0:0:0:
102,256,77462,1,2,0:0:0:0:
240,98,77646,1,8,0:0:0:0:
240,98,77738,1,8,0:0:0:0:
240,98,77830,1,8,0:0:0:0:
240,98,77922,1,8,0:0:0:0:
240,98,78014,1,0,0:0:0:0:
49,190,78198,5,8,0:0:0:0:
268,226,78382,1,8,0:0:0:0:
84,310,78566,1,8,0:0:0:0:
378,367,78934,5,8,0:0:0:0:
280,33,79302,1,12,0:0:0:0:
220,363,79670,1,12,0:0:0:0:
482,61,80038,2,0,P|502:114|490:166,2,101.999996887207,12|0|0,0:0|0:0|0:0,0:0:0:0:
394,242,80591,1,8,0:1:0:0:
393,218,80683,1,8,0:1:0:0:
392,195,80775,6,0,P|310:141|205:168,1,203.999993774414,12|0,0:1|0:0,0:0:0:0:
282,350,81327,2,0,P|295:292|280:228,1,101.999996887207,10|0,0:0|0:0,0:0:0:0:
115,145,81695,1,0,0:0:0:0:
142,335,81879,2,0,L|147:220,1,101.999996887207,2|8,0:0|0:0,0:0:0:0:
149,40,82247,6,0,P|99:36|46:45,1,101.999996887207,2|0,0:0|0:0,0:0:0:0:
206,115,82615,2,0,P|256:125|307:121,1,101.999996887207,0|10,0:0|0:0,0:0:0:0:
420,19,82983,2,0,L|410:234,1,203.999993774414,2|2,0:0|0:0,0:0:0:0:
445,342,83535,2,0,P|446:291|428:243,1,101.999996887207,8|0,0:0|0:0,0:0:0:0:
299,264,83811,1,0,0:0:0:0:
282,247,83903,6,0,P|207:221|125:233,2,152.999995330811,2|2|0,0:0|0:0|0:0,0:0:0:0:
177,348,84640,2,0,P|101:339|29:364,2,152.999995330811,2|2|0,0:0|0:0|0:0,0:0:0:0:
233,155,85376,2,0,B|240:118|225:71|225:71|193:125|139:174,1,203.999993774414,2|8,0:0|0:0,0:0:0:0:
77,244,85928,1,0,0:0:0:0:
77,244,86020,1,0,0:0:0:0:
77,244,86112,1,2,0:0:0:0:
132,53,86296,1,8,0:0:0:0:
208,359,86664,1,8,0:0:0:0:
210,336,86756,1,8,0:0:0:0:
212,313,86848,6,0,P|294:247|419:287,1,203.999993774414,12|0,0:1|0:0,0:0:0:0:
321,353,87400,1,0,0:0:0:0:
468,334,87584,2,0,P|490:281|462:182,2,152.999995330811,8|0|0,0:0|0:0|0:0,0:0:0:0:
386,259,88321,6,0,L|378:44,1,203.999993774414,8|0,0:0|0:0,0:0:0:0:
495,110,88873,1,0,0:0:0:0:
288,204,89057,1,8,0:0:0:0:
183,151,89241,2,0,L|187:91,1,42.5
116,240,89425,2,0,L|119:290,1,42.5
76,139,89609,2,0,L|14:132,1,42.5
223,242,89793,6,0,B|359:228|359:228|346:259|352:300,1,203.999993774414,4|10,0:0|0:0,0:0:0:0:
394,97,90345,2,0,P|451:155|427:281,1,203.999993774414,2|0,0:0|0:0,0:0:0:0:
271,364,90897,1,10,0:0:0:0:
194,88,91265,5,8,0:0:0:0:
208,190,91449,1,0,0:0:0:0:
267,29,91634,1,8,0:0:0:0:
80,91,91818,1,0,0:0:0:0:
55,263,92002,6,0,L|50:308,1,42.5,8|8,0:0|0:0,0:0:0:0:
96,114,92186,1,0,0:0:0:0:
167,330,92370,1,8,0:0:0:0:
348,298,92554,1,8,0:0:0:0:
370,293,92646,1,8,0:0:0:0:
392,289,92738,6,0,P|308:226|206:266,1,203.999993774414,12|10,0:1|0:0,0:0:0:0:
291,354,93290,1,0,0:0:0:0:
470,229,93474,2,0,L|477:112,1,101.999996887207,2|2,0:0|0:0,0:0:0:0:
439,21,93842,1,8,0:0:0:0:
230,95,94026,6,0,P|306:133|392:114,1,152.999995330811,6|0,0:0|0:0,0:0:0:0:
395,117,94394,1,8,0:0:0:0:
283,237,94578,1,10,0:0:0:0:
423,326,94762,1,2,0:0:0:0:
428,329,94946,5,8,0:0:0:0:
438,232,95130,1,10,0:0:0:0:
268,339,95315,1,8,0:0:0:0:
217,346,95407,1,8,0:0:0:0:
166,346,95499,1,8,0:0:0:0:
116,335,95591,1,8,0:0:0:0:
68,317,95683,6,0,L|72:215,1,85,12|0,0:1|0:0,0:0:0:0:
192,118,96051,1,8,0:0:0:0:
192,118,96235,2,0,L|195:202,1,85,0|0,0:0|0:0,0:0:0:0:
91,149,96603,1,0,0:0:0:0:
288,85,96787,2,0,P|298:44|293:2,1,85,8|0,0:0|0:0,0:0:0:0:
301,188,97155,5,0,0:0:0:0:
301,188,97339,2,0,L|410:183,1,85,0|8,0:0|0:0,0:0:0:0:
443,97,97707,1,0,0:0:0:0:
420,296,97891,2,0,P|376:294|322:306,1,85,0|0,0:0|0:0,0:0:0:0:
212,351,98260,2,0,L|207:266,1,85,8|0,0:0|0:0,0:0:0:0:
86,101,98627,6,0,L|76:286,1,170,0|8,0:0|0:0,0:0:0:0:
185,178,99180,1,0,0:0:0:0:
185,178,99364,1,0,0:0:0:0:
270,239,99548,1,0,0:0:0:0:
286,252,99640,2,0,P|362:265|413:237,1,127.5,2|0,0:0|0:0,0:0:0:0:
403,48,100100,6,0,B|381:79|342:80|342:80|357:130|340:187,1,170,0|8,0:0|0:0,0:0:0:0:
109,48,100652,2,0,B|131:79|169:80|169:80|155:130|172:187,1,170,8|0,0:0|0:0,0:0:0:0:
256,317,101204,1,8,0:0:0:0:
155,356,101388,1,0,0:0:0:0:
133,353,101480,1,0,0:0:0:0:
112,348,101572,6,0,P|74:294|68:239,1,85,4|0,0:0|0:0,0:0:0:0:
144,201,101940,1,8,0:0:0:0:
256,317,102124,2,0,P|270:269|265:228,1,85,0|0,0:0|0:0,0:0:0:0:
247,132,102492,1,0,0:0:0:0:
247,132,102676,2,0,L|391:141,1,127.5,8|8,0:0|0:0,0:0:0:0:
457,142,103045,6,0,P|516:208|505:299,1,170,0|8,0:0|0:0,0:0:0:0:
445,363,103597,1,0,0:0:0:0:
361,318,103781,1,0,0:0:0:0:
342,306,103873,2,0,L|294:313,1,42.5,8|0,0:0|0:0,0:0:0:0:
101,255,104149,6,0,L|30:251,1,42.5,8|8,0:0|0:0,0:0:0:0:
172,340,104333,2,0,P|181:313|186:288,1,42.5,8|8,0:0|0:0,0:0:0:0:
232,125,104517,5,12,0:0:0:0:
244,222,104701,1,12,0:0:0:0:
316,59,105069,5,12,0:0:0:0:
329,262,105253,1,12,0:0:0:0:
421,27,105621,5,12,0:0:0:0:
423,282,105805,1,12,0:0:0:0:
492,97,106173,5,4,0:1:0:0:
251,361,106542,1,4,0:1:0:0:
8,99,106910,1,4,0:1:0:0:
256,192,107830,5,4,0:0:0:0:
256,192,107922,12,0,113351,0:0:0:0:
