osu file format v14

[General]
AudioFilename: audio.mp3
AudioLeadIn: 0
PreviewTime: 59813
Countdown: 0
SampleSet: Soft
StackLeniency: 0.7
Mode: 0
LetterboxInBreaks: 0
WidescreenStoryboard: 1

[Editor]
Bookmarks: 269,12450,22450,24086,29904,35722,47359,53177,58995,63359,69177,74995,77904,82086,83722,86631,98086
DistanceSpacing: 0.3
BeatDivisor: 4
GridSize: 32
TimelineZoom: 1.6

[Metadata]
Title:Mirai no Kaze ga Fuku
TitleUnicode:未来の風が吹く
Artist:NANA
ArtistUnicode:NANA
Creator:tomatas95
Version:Love Magic that connects our Hearts as one~
Source:ALIA's CARNIVAL!
Tags:eroge nanawind visual novel vn Future wind blows NORAS 八 Hachi 和解事件 Cap galgame op opening japanese video game female vocals vocalist jpop j-pop pop
BeatmapID:3622848
BeatmapSetID:1769792

[Difficulty]
HPDrainRate:6
CircleSize:4
OverallDifficulty:8.5
ApproachRate:9.2
SliderMultiplier:1.8
SliderTickRate:1

[Events]
//Background and Video events
0,0,"MizugiSaikouuu.jpg",0,0
Video,0,"IloveNanaWindEroge.mp4"
//Break Periods
//Storyboard Layer 0 (Background)
//Storyboard Layer 1 (Fail)
//Storyboard Layer 2 (Pass)
//Storyboard Layer 3 (Foreground)
//Storyboard Layer 4 (Overlay)
//Storyboard Sound Samples

[TimingPoints]
269,363.636363636364,4,2,1,35,1,0
269,-142.857142857143,4,2,1,35,0,0
814,-142.857142857143,4,2,1,55,0,0
996,-142.857142857143,4,2,1,50,0,0
2087,-142.857142857143,4,2,1,40,0,0
2269,-142.857142857143,4,2,1,45,0,0
2450,-142.857142857143,4,2,1,50,0,0
2632,-142.857142857143,4,2,1,55,0,0
2814,-142.857142857143,4,2,1,60,0,0
2996,-142.857142857143,4,2,1,50,0,0
4996,-142.857142857143,4,2,1,40,0,0
5178,-142.857142857143,4,2,1,45,0,0
5359,-142.857142857143,4,2,1,50,0,0
5541,-142.857142857143,4,2,1,55,0,0
5723,-142.857142857143,4,2,1,60,0,0
5905,-142.857142857143,4,2,1,50,0,0
6087,-142.857142857143,4,2,1,40,0,0
6632,-142.857142857143,4,2,1,55,0,0
6814,-142.857142857143,4,2,1,50,0,0
7905,-142.857142857143,4,2,1,40,0,0
8087,-142.857142857143,4,2,1,45,0,0
8268,-142.857142857143,4,2,1,50,0,0
8450,-142.857142857143,4,2,1,55,0,0
8632,-142.857142857143,4,2,1,60,0,0
8814,-142.857142857143,4,2,1,50,0,0
9178,-142.857142857143,4,2,2,50,0,0
9359,-166.666666666667,4,2,1,60,0,0
9541,-166.666666666667,4,2,2,40,0,0
10087,-166.666666666667,4,2,1,50,0,0
10269,-166.666666666667,4,2,1,55,0,0
10814,-250,4,2,1,60,0,0
10996,-250,4,2,1,40,0,0
11178,-125,4,2,3,55,0,0
11541,-125,4,2,3,60,0,0
11723,-125,4,2,3,65,0,0
12087,-125,4,2,4,50,0,0
12178,-125,4,2,4,60,0,0
12269,-100,4,2,4,65,0,0
12359,-100,4,2,4,70,0,0
12450,363.636363636364,4,2,2,75,1,0
12450,-58.8235294117647,4,2,2,75,0,0
12722,-58.8235294117647,4,2,2,5,0,0
12813,-83.3333333333333,4,2,1,70,0,0
12904,-83.3333333333333,4,2,3,70,0,0
13177,-83.3333333333333,4,2,1,70,0,0
13268,-83.3333333333333,4,2,3,70,0,0
13541,-83.3333333333333,4,2,1,70,0,0
13631,-83.3333333333333,4,2,3,70,0,0
13904,-76.9230769230769,4,2,1,70,0,0
14086,-76.9230769230769,4,2,3,70,0,0
14268,-83.3333333333333,4,2,1,70,0,0
14450,-83.3333333333333,4,2,3,70,0,0
14632,-83.3333333333333,4,2,1,70,0,0
14722,-83.3333333333333,4,2,3,70,0,0
14995,-83.3333333333333,4,2,1,70,0,0
15177,-83.3333333333333,4,2,3,70,0,0
15359,-100,4,2,1,70,0,0
15450,-100,4,2,3,70,0,0
15722,-100,4,2,1,70,0,0
16086,-76.9230769230769,4,2,1,70,0,0
16268,-76.9230769230769,4,2,3,70,0,0
16450,-83.3333333333333,4,2,1,70,0,0
16631,-83.3333333333333,4,2,3,70,0,0
16813,-83.3333333333333,4,2,1,70,0,0
16904,-83.3333333333333,4,2,3,70,0,0
17177,-83.3333333333333,4,2,1,70,0,0
17268,-83.3333333333333,4,2,3,70,0,0
17541,-83.3333333333333,4,2,1,70,0,0
17722,-83.3333333333333,4,2,3,70,0,0
17904,-83.3333333333333,4,2,1,70,0,0
18086,-83.3333333333333,4,2,3,70,0,0
18177,-83.3333333333333,4,2,1,70,0,0
18268,-83.3333333333333,4,2,1,70,0,0
18359,-83.3333333333333,4,2,3,70,0,0
18631,-83.3333333333333,4,2,1,70,0,0
18722,-83.3333333333333,4,2,3,70,0,0
18994,-83.3333333333333,4,2,1,70,0,0
19086,-83.3333333333333,4,2,3,70,0,0
19359,-76.9230769230769,4,2,1,70,0,0
19540,-76.9230769230769,4,2,3,70,0,0
19722,-76.9230769230769,4,2,1,70,0,0
19813,-76.9230769230769,4,2,3,70,0,0
20086,-83.3333333333333,4,2,1,70,0,0
20268,-83.3333333333333,4,2,3,70,0,0
20359,-83.3333333333333,4,2,1,70,0,0
20631,-83.3333333333333,4,2,3,70,0,0
20813,-83.3333333333333,4,2,1,70,0,0
20995,-83.3333333333333,4,2,3,70,0,0
21177,-66.6666666666667,4,2,3,80,0,0
21450,-66.6666666666667,4,2,3,5,0,0
21540,-83.3333333333333,4,2,1,70,0,0
21722,-83.3333333333333,4,2,3,70,0,0
21904,-83.3333333333333,4,2,1,70,0,0
22086,-83.3333333333333,4,2,1,75,0,0
22450,-52.6315789473684,4,2,2,80,0,0
22813,-52.6315789473684,4,2,1,70,0,0
22995,-83.3333333333333,4,2,1,70,0,0
23177,-83.3333333333333,4,2,3,80,0,0
23268,-83.3333333333333,4,2,1,70,0,0
23540,-83.3333333333333,4,2,1,75,0,0
23722,-83.3333333333333,4,2,1,80,0,0
23904,-83.3333333333333,4,2,1,75,0,0
24086,-111.111111111111,4,2,1,75,0,0
24268,-111.111111111111,4,2,1,60,0,0
24631,-125,4,2,1,60,0,0
25813,-125,4,2,1,5,0,0
25904,-125,4,2,1,60,0,0
25995,-125,4,2,5,60,0,0
26268,-125,4,2,1,60,0,0
26450,-125,4,2,5,60,0,0
26632,-125,4,2,1,60,0,0
26813,-125,4,2,2,60,0,0
26995,-125,4,2,1,60,0,0
28813,-125,4,2,1,65,0,0
28904,-125,4,2,5,60,0,0
29177,-125,4,2,1,60,0,0
29722,-125,4,2,5,60,0,0
29903,-125,4,2,1,60,0,0
32631,-125,4,2,2,60,0,0
32722,-125,4,2,1,60,0,0
32813,-125,4,2,1,60,0,0
35540,-125,4,2,4,60,0,0
35722,-100,4,2,4,60,0,0
36086,-111.111111111111,4,2,1,65,0,0
37176,-111.111111111111,4,2,1,65,0,0
37450,-66.6666666666667,4,2,3,5,0,0
37540,-111.111111111111,4,2,1,65,0,0
38086,-111.111111111111,4,2,4,60,0,0
38813,-111.111111111111,4,2,1,65,0,0
40995,-111.111111111111,4,2,4,60,0,0
41176,-111.111111111111,4,2,4,65,0,0
41359,-111.111111111111,4,2,4,60,0,0
41722,-111.111111111111,4,2,1,65,0,0
43904,-111.111111111111,4,2,4,60,0,0
44631,-111.111111111111,4,2,1,65,0,0
46086,-83.3333333333333,4,2,1,70,0,0
46359,-58.8235294117647,4,2,2,5,0,0
46450,-90.9090909090909,4,2,2,70,0,0
46540,-58.8235294117647,4,2,2,5,0,0
46631,-100,4,2,1,65,0,0
46722,-58.8235294117647,4,2,2,5,0,0
46813,-111.111111111111,4,2,2,60,0,0
46904,-58.8235294117647,4,2,2,5,0,0
46995,-125,4,2,3,55,0,0
47086,-58.8235294117647,4,2,2,5,0,0
47177,-142.857142857143,4,2,3,50,0,0
47268,-58.8235294117647,4,2,2,5,0,0
47359,-71.4285714285714,4,2,2,80,0,0
47722,-111.111111111111,4,2,1,65,0,0
48086,-86.9565217391304,4,2,1,70,0,0
48359,-58.8235294117647,4,2,2,5,0,0
48450,-111.111111111111,4,2,1,65,0,0
48813,-111.111111111111,4,2,1,75,0,0
48995,-111.111111111111,4,2,1,65,0,0
49722,-125,4,2,1,65,0,0
50268,-86.9565217391304,4,2,1,75,0,0
50631,-111.111111111111,4,2,1,65,0,0
50995,-100,4,2,1,70,0,0
51359,-125,4,2,1,65,0,0
51722,-111.111111111111,4,2,1,75,0,0
51904,-111.111111111111,4,2,1,65,0,0
53177,-86.9565217391304,4,2,2,75,0,0
53540,-100,4,2,1,70,0,0
53722,-100,4,2,3,70,0,0
53904,-100,4,2,1,70,0,0
54086,-100,4,2,3,70,0,0
54268,-100,4,2,1,70,0,0
54359,-100,4,2,3,70,0,0
54631,-100,4,2,1,70,0,0
55086,-100,4,2,3,70,0,0
55358,-100,4,2,1,70,0,0
55540,-100,4,2,3,70,0,0
55722,-100,4,2,1,70,0,0
55904,-100,4,2,3,70,0,0
56086,-100,4,2,1,70,0,0
56268,-100,4,2,3,70,0,0
56450,-100,4,2,1,70,0,0
57540,-100,4,2,1,70,0,0
57813,-100,4,2,4,70,0,0
57904,-83.3333333333333,4,2,4,70,0,0
58177,-83.3333333333333,4,2,4,75,0,0
58268,-71.4285714285714,4,2,4,75,0,0
58540,-71.4285714285714,4,2,4,80,0,0
58813,-71.4285714285714,4,2,2,85,0,0
58995,-71.4285714285714,4,2,3,50,0,0
59177,-71.4285714285714,4,2,3,55,0,0
59359,-71.4285714285714,4,2,3,60,0,0
59540,-71.4285714285714,4,2,3,65,0,0
59722,-71.4285714285714,4,2,3,70,0,0
59904,-71.4285714285714,4,2,3,75,0,0
60086,-71.4285714285714,4,2,3,80,0,0
60268,-71.4285714285714,4,2,3,85,0,0
60450,-50,4,2,2,90,0,1
60722,-50,4,2,2,5,0,1
60813,-71.4285714285714,4,2,1,85,0,1
60995,-71.4285714285714,4,2,2,85,0,1
61177,-71.4285714285714,4,2,1,85,0,1
61268,-71.4285714285714,4,2,1,5,0,1
61359,-71.4285714285714,4,2,1,85,0,1
61450,-71.4285714285714,4,2,1,5,0,1
61541,-71.4285714285714,4,2,1,85,0,1
61631,-71.4285714285714,4,2,1,5,0,1
61722,-71.4285714285714,4,2,2,85,0,1
61904,-55.5555555555556,4,2,3,90,0,1
62177,-55.5555555555556,4,2,3,5,0,1
62268,-71.4285714285714,4,2,2,85,0,1
62632,-71.4285714285714,4,2,1,85,0,1
62722,-71.4285714285714,4,2,1,5,0,1
62813,-71.4285714285714,4,2,1,85,0,1
62904,-71.4285714285714,4,2,1,5,0,1
62995,-71.4285714285714,4,2,1,85,0,1
63086,-71.4285714285714,4,2,1,5,0,1
63177,-71.4285714285714,4,2,2,85,0,1
63359,-55.5555555555556,4,2,2,90,0,1
63631,-55.5555555555556,4,2,2,5,0,1
63723,-71.4285714285714,4,2,1,85,0,1
63904,-71.4285714285714,4,2,2,85,0,1
64086,-71.4285714285714,4,2,1,85,0,1
64177,-71.4285714285714,4,2,1,5,0,1
64268,-71.4285714285714,4,2,1,85,0,1
64359,-71.4285714285714,4,2,1,5,0,1
64450,-250,4,2,1,90,0,1
64722,-250,4,2,1,5,0,1
64813,-62.5,4,2,3,90,0,1
65086,-71.4285714285714,4,2,1,5,0,1
65177,-71.4285714285714,4,2,1,85,0,1
65631,-71.4285714285714,4,2,1,5,0,1
65722,-71.4285714285714,4,2,1,85,0,1
65813,-71.4285714285714,4,2,1,5,0,1
65904,-71.4285714285714,4,2,1,85,0,1
65995,-71.4285714285714,4,2,1,5,0,1
66086,-71.4285714285714,4,2,2,85,0,1
66177,-71.4285714285714,4,2,2,5,0,1
66268,-55.5555555555556,4,2,2,90,0,1
66540,-55.5555555555556,4,2,2,5,0,1
66632,-71.4285714285714,4,2,1,85,0,1
67086,-71.4285714285714,4,2,1,5,0,1
67177,-71.4285714285714,4,2,1,85,0,1
67268,-71.4285714285714,4,2,1,5,0,1
67359,-71.4285714285714,4,2,1,85,0,1
67450,-71.4285714285714,4,2,1,5,0,1
67540,-71.4285714285714,4,2,2,85,0,1
67722,-55.5555555555556,4,2,3,90,0,1
67995,-55.5555555555556,4,2,3,5,0,1
68086,-71.4285714285714,4,2,1,85,0,1
68268,-71.4285714285714,4,2,2,85,0,1
68450,-71.4285714285714,4,2,1,85,0,1
68540,-71.4285714285714,4,2,1,5,0,1
68631,-71.4285714285714,4,2,1,85,0,1
68722,-71.4285714285714,4,2,1,5,0,1
68813,-250,4,2,1,90,0,1
69086,-71.4285714285714,4,2,1,5,0,1
69177,-47.6190476190476,4,2,3,90,0,1
69450,-71.4285714285714,4,2,1,5,0,1
69540,-71.4285714285714,4,2,1,85,0,1
69631,-71.4285714285714,4,2,1,5,0,1
69722,-71.4285714285714,4,2,1,90,0,1
69995,-71.4285714285714,4,2,1,5,0,1
70086,-250,4,2,1,85,0,1
70359,-71.4285714285714,4,2,1,5,0,1
70450,-47.6190476190476,4,2,2,90,0,1
70813,-71.4285714285714,4,2,1,85,0,1
71450,-71.4285714285714,4,2,1,5,0,1
71540,-71.4285714285714,4,2,1,85,0,1
71631,-71.4285714285714,4,2,1,5,0,1
71722,-71.4285714285714,4,2,1,75,0,0
71904,-71.4285714285714,4,2,1,80,0,0
72086,-50,4,2,2,90,0,1
72359,-71.4285714285714,4,2,1,5,0,1
72450,-250,4,2,1,85,0,1
72631,-250,4,2,2,85,0,1
72722,-71.4285714285714,4,2,1,5,0,1
72813,-71.4285714285714,4,2,1,85,0,1
72904,-71.4285714285714,4,2,1,5,0,1
72994,-71.4285714285714,4,2,1,85,0,1
73086,-71.4285714285714,4,2,1,5,0,1
73176,-71.4285714285714,4,2,1,85,0,1
73268,-71.4285714285714,4,2,1,5,0,1
73359,-71.4285714285714,4,2,2,85,0,1
73540,-55.5555555555556,4,2,3,90,0,1
73813,-71.4285714285714,4,2,1,5,0,1
73904,-71.4285714285714,4,2,1,85,0,1
74359,-71.4285714285714,4,2,1,5,0,1
74449,-71.4285714285714,4,2,1,85,0,1
74540,-71.4285714285714,4,2,1,5,0,1
74630,-71.4285714285714,4,2,1,85,0,1
74722,-71.4285714285714,4,2,2,85,0,1
74995,-55.5555555555556,4,2,2,90,0,1
75268,-71.4285714285714,4,2,1,5,0,1
75359,-71.4285714285714,4,2,1,85,0,1
75813,-71.4285714285714,4,2,1,5,0,1
75903,-71.4285714285714,4,2,1,85,0,1
75995,-71.4285714285714,4,2,1,5,0,1
76085,-71.4285714285714,4,2,1,85,0,1
76177,-71.4285714285714,4,2,1,5,0,1
76268,-71.4285714285714,4,2,2,85,0,1
76450,-55.5555555555556,4,2,1,85,0,1
76722,-71.4285714285714,4,2,1,5,0,1
76814,-71.4285714285714,4,2,1,85,0,1
77268,-71.4285714285714,4,2,1,5,0,1
77359,-71.4285714285714,4,2,1,85,0,1
77450,-71.4285714285714,4,2,1,5,0,1
77540,-71.4285714285714,4,2,1,80,0,1
77722,-71.4285714285714,4,2,1,85,0,1
77904,-47.6190476190476,4,2,2,90,0,1
78177,-71.4285714285714,4,2,1,5,0,1
78268,-71.4285714285714,4,2,1,85,0,1
78450,-71.4285714285714,4,2,2,85,0,1
78631,-71.4285714285714,4,2,1,85,0,1
78722,-71.4285714285714,4,2,1,5,0,1
78813,-71.4285714285714,4,2,1,85,0,1
78904,-71.4285714285714,4,2,1,5,0,1
78995,-250,4,2,1,90,0,1
79268,-71.4285714285714,4,2,1,5,0,1
79358,-71.4285714285714,4,2,3,90,0,1
79631,-71.4285714285714,4,2,1,5,0,1
79722,-71.4285714285714,4,2,1,85,0,1
80177,-71.4285714285714,4,2,1,5,0,1
80268,-71.4285714285714,4,2,1,85,0,1
80359,-71.4285714285714,4,2,1,5,0,1
80450,-71.4285714285714,4,2,1,85,0,1
80540,-71.4285714285714,4,2,1,5,0,1
80631,-71.4285714285714,4,2,1,85,0,1
80722,-71.4285714285714,4,2,1,5,0,1
80813,-55.5555555555556,4,2,2,90,0,1
81086,-71.4285714285714,4,2,1,5,0,1
81177,-71.4285714285714,4,2,1,85,0,1
81359,-71.4285714285714,4,2,2,85,0,1
81540,-71.4285714285714,4,2,1,85,0,1
81631,-71.4285714285714,4,2,1,5,0,1
81722,-71.4285714285714,4,2,1,85,0,1
81813,-71.4285714285714,4,2,1,5,0,1
81904,-71.4285714285714,4,2,1,85,0,1
81995,-71.4285714285714,4,2,1,5,0,1
82086,-100,4,2,3,90,0,1
82177,-100,4,2,3,55,0,1
82450,-100,4,2,3,60,0,1
82631,-100,4,2,3,65,0,1
82813,-100,4,2,3,70,0,1
82995,-100,4,2,3,75,0,1
83177,-100,4,2,3,80,0,1
83359,-100,4,2,3,85,0,1
83540,-100,4,2,3,90,0,1
83722,-55.5555555555556,4,2,2,95,0,1
83995,-55.5555555555556,4,2,2,5,0,1
84086,-71.4285714285714,4,2,1,85,0,1
84177,-55.5555555555556,4,2,2,5,0,1
84268,-71.4285714285714,4,2,2,85,0,1
84449,-71.4285714285714,4,2,1,85,0,1
84540,-55.5555555555556,4,2,2,5,0,1
84631,-71.4285714285714,4,2,1,85,0,1
84722,-55.5555555555556,4,2,2,5,0,1
84813,-71.4285714285714,4,2,1,85,0,1
84904,-55.5555555555556,4,2,2,5,0,1
84995,-71.4285714285714,4,2,2,85,0,1
85177,-62.5,4,2,1,85,0,1
85450,-55.5555555555556,4,2,2,5,0,1
85540,-71.4285714285714,4,2,1,85,0,1
85995,-55.5555555555556,4,2,2,5,0,1
86086,-71.4285714285714,4,2,2,85,0,1
86177,-55.5555555555556,4,2,2,5,0,1
86268,-71.4285714285714,4,2,1,80,0,1
86450,-71.4285714285714,4,2,1,75,0,1
86631,-111.111111111111,4,2,1,70,0,0
86995,-125,4,2,1,55,0,0
88086,-125,4,2,1,45,0,0
88268,-125,4,2,1,50,0,0
88449,-125,4,2,1,55,0,0
88631,-125,4,2,1,60,0,0
88813,-125,4,2,1,55,0,0
90995,-125,4,2,1,45,0,0
91177,-125,4,2,1,50,0,0
91358,-125,4,2,1,55,0,0
91540,-125,4,2,1,60,0,0
91722,-125,4,2,1,55,0,0
93904,-125,4,2,1,45,0,0
94086,-125,4,2,1,50,0,0
94267,-125,4,2,1,55,0,0
94449,-125,4,2,1,60,0,0
94631,-125,4,2,1,55,0,0
95177,363.636363636364,4,2,1,65,1,0
95177,-142.857142857143,4,2,1,65,0,0
95904,-142.857142857143,4,2,1,40,0,0
96086,-142.857142857143,4,2,1,55,0,0
96631,-142.857142857143,4,2,1,60,0,0
97358,-142.857142857143,4,2,1,50,0,0
98086,-142.857142857143,4,2,1,5,0,0

[Colours]
Combo1 : 117,141,223
Combo2 : 241,121,244
Combo3 : 227,247,119
Combo4 : 240,220,108

[HitObjects]
9,49,269,5,2,0:0:0:0:
87,7,450,1,2,0:0:0:0:
163,53,632,1,2,0:0:0:0:
85,186,814,5,2,0:0:0:0:
162,142,996,1,2,0:0:0:0:
163,151,1359,1,2,0:0:0:0:
164,160,1723,1,2,0:0:0:0:
165,169,2087,5,2,0:0:0:0:
227,103,2269,1,2,0:0:0:0:
316,124,2450,1,2,0:0:0:0:
342,210,2632,1,2,0:0:0:0:
253,190,2814,1,2,0:0:0:0:
251,198,3178,5,2,0:0:0:0:
340,219,3359,1,2,0:0:0:0:
185,261,3541,1,2,0:0:0:0:
193,265,3905,1,2,0:0:0:0:
201,269,4269,1,2,0:0:0:0:
209,273,4632,1,2,0:0:0:0:
217,277,4996,5,2,0:0:0:0:
280,219,5178,1,2,0:0:0:0:
317,384,5359,1,2,0:0:0:0:
235,361,5541,1,2,0:0:0:0:
362,245,5723,1,2,0:0:0:0:
364,235,6087,5,2,0:0:0:0:
512,221,6269,1,2,0:0:0:0:
431,134,6450,1,2,0:0:0:0:
432,144,6814,1,2,0:0:0:0:
433,154,7178,1,2,0:0:0:0:
434,164,7542,1,2,0:0:0:0:
435,174,7905,5,2,0:0:0:0:
512,127,8087,1,2,0:0:0:0:
510,37,8269,1,2,0:0:0:0:
354,39,8450,1,2,0:0:0:0:
355,130,8632,1,2,0:0:0:0:
434,84,8814,5,2,0:0:0:0:
275,85,8996,1,2,0:0:0:0:
433,73,9178,1,2,0:0:0:0:
434,84,9269,1,2,0:0:0:0:
433,99,9359,6,0,B|451:124|443:155|434:136|410:178|408:201|416:234|453:246|453:246|480:236|487:210|475:192,1,215.999993408203,2|2,0:0|0:0,0:0:0:0:
480,212,10269,1,2,0:0:0:0:
480,212,10450,1,2,0:0:0:0:
483,219,10814,6,0,P|490:259|495:303,1,72,2|2,0:0|0:0,0:0:0:0:
495,300,11269,1,2,0:0:0:0:
497,310,11359,1,2,0:0:0:0:
335,349,11541,1,2,0:0:0:0:
419,383,11723,1,2,0:0:0:0:
406,293,11905,5,2,0:0:0:0:
263,384,12087,1,2,0:0:0:0:
258,369,12178,1,2,0:0:0:0:
253,340,12269,1,2,0:0:0:0:
265,301,12359,1,2,0:0:0:0:
312,270,12450,6,0,B|357:240|332:150|274:141|274:141|292:180|264:214,1,229.500004377365,6|0,3:2|0:0,0:0:0:0:
163,310,12813,1,8,0:0:0:0:
124,273,12903,1,2,0:0:0:0:
121,220,12994,1,2,0:0:0:0:
153,179,13085,1,2,0:0:0:0:
205,170,13177,2,0,P|201:143|196:116,1,53.9999983520508,2|2,3:2|0:0,0:0:0:0:
12,37,13359,5,2,0:0:0:0:
47,69,13449,1,2,0:0:0:0:
96,70,13540,1,10,0:0:0:0:
135,44,13631,1,2,0:0:0:0:
174,19,13722,1,2,0:0:0:0:
223,22,13813,1,2,0:0:0:0:
259,53,13904,6,0,B|315:76|315:76|382:42,1,116.999994644165,2|2,3:2|0:0,0:0:0:0:
510,50,14268,1,10,0:0:0:0:
473,230,14450,1,2,0:0:0:0:
469,214,14540,1,2,0:0:0:0:
465,198,14631,2,0,P|456:146|436:78,1,107.999996704102,2|2,3:2|0:0,0:0:0:0:
440,5,14995,1,10,0:0:0:0:
376,229,15177,1,2,0:0:0:0:
373,213,15268,1,2,0:0:0:0:
370,196,15359,5,2,3:2:0:0:
335,168,15449,1,2,0:0:0:0:
291,167,15540,1,2,0:0:0:0:
256,194,15631,1,2,0:0:0:0:
246,237,15722,2,0,P|251:259|254:289,1,45,10|2,0:0|0:0,0:0:0:0:
176,104,15904,2,0,P|193:87|217:71,1,45,2|2,0:0|0:2,0:0:0:0:
96,232,16086,6,0,P|45:228|-3:161,1,116.999994644165,2|2,3:2|0:0,0:0:0:0:
5,164,16359,1,2,0:0:0:0:
15,151,16450,1,10,0:0:0:0:
0,364,16631,1,2,0:0:0:0:
14,357,16722,1,2,0:0:0:0:
30,356,16813,6,0,P|64:349|102:358,1,53.9999983520508,2|2,3:2|0:0,0:0:0:0:
212,275,16995,2,0,P|227:252|236:227,1,53.9999983520508,2|2,0:0|0:0,0:0:0:0:
96,232,17177,2,0,P|115:252|127:276,1,53.9999983520508,10|2,0:0|0:0,0:0:0:0:
256,349,17359,2,0,P|283:350|310:344,1,53.9999983520508,2|2,0:0|0:0,0:0:0:0:
491,215,17540,6,0,P|481:267|483:338,1,107.999996704102,2|2,3:2|0:0,0:0:0:0:
402,351,17813,1,2,0:0:0:0:
396,335,17904,2,0,P|394:308|389:281,1,53.9999983520508,10|0,0:0|0:0,0:0:0:0:
300,131,18086,1,0,0:0:0:0:
301,147,18177,1,8,0:0:0:0:
302,163,18268,6,0,P|274:169|236:155,1,53.9999983520508,2|2,3:2|0:0,0:0:0:0:
443,65,18450,2,0,P|461:45|469:19,1,53.9999983520508,2|2,0:0|0:0,0:0:0:0:
321,57,18631,2,0,P|302:37|294:11,1,53.9999983520508,10|2,0:0|0:0,0:0:0:0:
455,152,18813,2,0,P|481:158|507:152,1,53.9999983520508,2|2,0:0|0:0,0:0:0:0:
378,119,18995,5,2,3:2:0:0:
380,159,19085,1,2,0:0:0:0:
383,200,19176,1,2,0:0:0:0:
386,241,19267,1,2,0:0:0:0:
386,279,19359,2,0,B|438:262|438:262|498:295,1,116.999994644165,10|2,0:0|0:0,0:0:0:0:
356,356,19631,1,2,0:0:0:0:
342,367,19722,6,0,B|299:359|287:311|287:311|242:272|198:290,1,175.499991966248,2|2,3:2|0:0,0:0:0:0:
190,299,20086,1,10,0:0:0:0:
5,331,20268,1,2,0:0:0:0:
5,314,20359,1,10,0:0:0:0:
5,296,20450,1,2,3:2:0:0:
136,194,20632,1,2,0:0:0:0:
108,384,20813,1,10,0:0:0:0:
18,214,20995,1,2,0:0:0:0:
249,67,21177,6,0,B|206:85|159:41|159:41|154:44|154:44|108:3|65:20,1,202.500007724762,6|0,3:2|0:0,0:0:0:0:
50,8,21540,2,0,P|57:60|58:139,1,107.999996704102,10|2,0:0|0:0,0:0:0:0:
62,131,21813,1,2,0:0:0:0:
66,146,21904,1,2,3:2:0:0:
249,100,22086,1,8,0:0:0:0:
249,67,22177,1,8,0:0:0:0:
251,34,22268,1,2,3:2:0:0:
126,327,22450,6,0,B|32:281|113:136|245:224|178:295|297:316|328:276,1,341.999990867615,6|2,3:2|3:2,0:0:0:0:
415,85,22995,1,10,0:0:0:0:
484,366,23177,1,6,3:2:0:0:
481,349,23268,1,2,0:0:0:0:
475,334,23359,5,2,0:0:0:0:
432,365,23449,1,2,0:0:0:0:
379,365,23540,1,2,0:0:0:0:
336,335,23631,1,2,0:0:0:0:
319,284,23722,1,2,0:0:0:0:
351,241,23813,1,2,0:0:0:0:
351,188,23904,1,2,0:0:0:0:
321,145,23995,1,2,0:0:0:0:
271,127,24086,6,0,B|280:80|257:49|257:49|267:2|328:-2,1,161.999995056153,6|2,3:2|3:2,0:0:0:0:
379,52,24631,1,2,0:0:0:0:
384,61,24722,1,2,0:0:0:0:
389,70,24813,2,0,P|428:80|472:56,1,72,0|2,3:2|0:0,0:0:0:0:
512,10,25177,1,2,3:2:0:0:
506,132,25359,1,2,0:0:0:0:
504,142,25450,1,2,0:0:0:0:
503,152,25540,6,0,P|497:199|491:284,1,108,0|0,3:2|0:0,0:0:0:0:
491,270,25904,2,0,B|454:256|454:256|400:272,1,72,0|2,3:0|0:0,0:0:0:0:
415,273,26177,1,2,0:0:0:0:
409,282,26268,1,0,3:2:0:0:
386,366,26450,1,2,0:0:0:0:
324,303,26631,1,0,3:2:0:0:
471,345,26813,1,2,0:0:0:0:
297,384,26995,6,0,L|221:369,1,72,2|2,3:2|0:0,0:0:0:0:
47,346,27359,1,2,3:2:0:0:
133,384,27540,2,0,P|131:314|148:222,1,144,2|2,0:0|0:0,0:0:0:0:
179,80,28086,1,2,3:2:0:0:
235,141,28268,6,0,P|193:162|106:116,1,144,2|0,0:0|0:0,0:0:0:0:
22,44,28813,1,0,3:0:0:0:
110,124,28995,1,2,0:0:0:0:
113,134,29086,1,2,0:0:0:0:
114,144,29177,1,0,3:0:0:0:
106,40,29359,1,2,0:0:0:0:
26,128,29541,1,0,3:0:0:0:
64,307,29722,1,2,0:0:0:0:
65,296,29813,1,2,0:0:0:0:
64,284,29904,6,0,L|54:190,1,72,2|2,3:2|0:0,0:0:0:0:
0,354,30268,1,2,3:2:0:0:
154,367,30450,2,0,P|154:330|141:270,1,72,2|0,0:0|3:0,0:0:0:0:
340,300,30813,2,0,P|334:335|334:371,1,72,2|0,0:0|3:0,0:0:0:0:
243,381,31177,6,0,L|247:226,1,144,2|2,0:0|0:0,0:0:0:0:
253,64,31722,1,2,3:2:0:0:
158,152,31904,2,0,P|206:148|314:158,1,144,2|2,0:0|0:0,0:0:0:0:
391,194,32450,1,0,3:0:0:0:
451,44,32631,1,2,0:0:0:0:
453,54,32722,1,2,0:0:0:0:
457,63,32813,6,0,L|472:154,1,72,2|2,3:2|0:0,0:0:0:0:
451,344,33177,1,2,3:2:0:0:
512,288,33359,2,0,P|471:263|381:301,1,144,2|2,0:0|0:0,0:0:0:0:
343,362,33904,1,2,3:2:0:0:
281,148,34086,6,0,L|305:291,1,144,2|2,0:0|0:0,0:0:0:0:
371,199,34631,1,2,3:2:0:0:
214,225,34813,1,2,0:0:0:0:
281,148,34995,1,0,3:2:0:0:
304,290,35177,1,2,0:0:0:0:
279,137,35359,2,0,L|267:44,1,72,10|2,3:2|0:0,0:0:0:0:
268,54,35631,1,2,0:0:0:0:
257,45,35722,6,0,B|200:31|200:31|192:18|192:18|127:3,1,135,2|0,3:2|0:0,0:0:0:0:
118,4,36086,1,10,0:0:0:0:
35,160,36268,2,0,P|35:106|15:-10,1,161.999995056153,2|2,0:0|0:0,0:0:0:0:
207,113,36813,1,10,0:0:0:0:
129,84,36995,1,2,0:0:0:0:
127,96,37086,1,2,0:0:0:0:
125,108,37177,6,0,P|113:167|111:228,1,121.499996292114,2|0,3:2|0:0,0:0:0:0:
113,240,37540,2,0,B|73:228|73:228|35:247,1,80.9999975280763,8|0,0:0|0:0,0:0:0:0:
173,298,37904,1,0,3:0:0:0:
27,327,38086,1,2,0:0:0:0:
33,337,38177,1,2,0:0:0:0:
36,348,38268,2,0,B|76:360|76:360|114:341,1,80.9999975280763,10|2,0:0|0:0,0:0:0:0:
173,298,38540,1,2,0:0:0:0:
184,301,38631,6,0,P|183:260|199:205,1,80.9999975280763,2|2,3:2|0:0,0:0:0:0:
359,185,38995,1,10,0:0:0:0:
260,373,39177,2,0,P|260:292|279:214,1,161.999995056153,2|2,0:0|0:0,0:0:0:0:
305,29,39722,1,10,0:0:0:0:
191,119,39904,6,0,L|362:107,1,161.999995056153,2|0,0:0|0:0,0:0:0:0:
477,22,40450,2,0,L|381:28,1,80.9999975280763,8|0,0:0|0:0,0:0:0:0:
450,171,40813,1,2,3:2:0:0:
449,159,40904,1,8,0:0:0:0:
450,146,40995,2,0,L|441:87,1,40.4999987640381,2|2,0:0|0:0,0:0:0:0:
505,232,41177,1,10,0:0:0:0:
482,249,41267,1,2,0:2:0:0:
455,256,41358,1,2,0:2:0:0:
427,251,41449,1,2,0:2:0:0:
403,236,41540,6,0,B|364:224|364:224|308:237,1,80.9999975280763,2|2,3:2|0:0,0:0:0:0:
266,295,41904,1,8,0:0:0:0:
406,349,42086,2,0,B|366:361|366:361|310:348,1,80.9999975280763,2|0,0:0|3:0,0:0:0:0:
186,209,42450,2,0,P|178:275|174:372,1,161.999995056153,2|2,2:0|2:0,2:0:0:0:
5,345,42995,5,2,3:2:0:0:
86,384,43177,1,2,0:0:0:0:
74,205,43359,1,10,0:0:0:0:
3,249,43540,2,0,L|-8:152,1,80.9999975280763,2|0,0:0|3:0,0:0:0:0:
149,262,43904,1,2,0:0:0:0:
149,250,43995,1,2,0:0:0:0:
149,238,44086,2,0,L|158:157,1,80.9999975280763,10|2,0:0|0:0,0:0:0:0:
159,145,44359,1,2,0:0:0:0:
161,133,44450,6,0,B|118:142|118:142|68:116,1,80.9999975280763,2|2,3:2|0:0,0:0:0:0:
71,0,44813,1,10,0:0:0:0:
0,48,44995,2,0,P|74:44|182:54,1,161.999995056153,2|2,0:0|0:0,0:0:0:0:
347,43,45540,1,10,0:0:0:0:
253,93,45722,2,0,P|254:52|251:12,1,80.9999975280763,2|0,0:0|3:0,0:0:0:0:
436,11,46086,5,8,0:0:0:0:
437,27,46177,1,8,0:0:0:0:
435,43,46268,2,0,P|433:71|435:99,1,53.9999983520508,8|0,0:0|0:0,0:0:0:0:
485,194,46450,2,0,P|497:170|509:148,1,49.5000015106202,0|0,3:2|3:2,0:0:0:0:
361,153,46631,6,0,P|373:172|384:193,1,45,4|0,3:3|0:0,0:0:0:0:
310,263,46813,2,0,P|328:261|350:262,1,40.4999987640381,8|0,3:3|0:0,0:0:0:0:
372,361,46995,2,0,P|381:344|393:325,1,36,8|0,3:3|0:0,0:0:0:0:
487,356,47177,2,0,P|477:339|463:313,1,31.4999990386963,4|0,3:3|0:0,0:0:0:0:
361,153,47359,6,0,B|284:161|262:93|262:93|214:42|139:73,1,251.999992309571,6|0,3:2|3:0,0:0:0:0:
0,17,47904,1,2,0:0:0:0:
49,195,48086,2,0,P|60:112|78:37,1,155.250002961159,10|0,0:0|0:0,0:0:0:0:
83,28,48450,1,0,3:0:0:0:
178,0,48631,1,10,0:0:0:0:
297,156,48813,5,6,3:2:0:0:
201,128,48995,2,0,P|190:167|183:207,1,80.9999975280763,10|0,0:0|3:0,0:0:0:0:
49,195,49359,2,0,P|42:155|31:115,1,80.9999975280763,2|10,0:0|0:0,0:0:0:0:
0,266,49722,2,0,P|52:243|130:286,1,144,2|0,0:0|3:0,0:0:0:0:
131,288,50177,1,0,3:0:0:0:
139,300,50268,6,0,B|193:307|209:371|209:371|256:397|336:348,1,207.000003948212,6|0,3:2|3:0,0:0:0:0:
129,376,50813,1,2,0:0:0:0:
266,300,50995,2,0,P|265:223|279:98,1,180,10|0,0:0|3:0,0:0:0:0:
292,36,51540,1,10,0:0:0:0:
512,85,51722,5,6,3:2:0:0:
395,97,51904,2,0,L|406:16,1,80.9999975280763,10|0,0:0|3:0,0:0:0:0:
512,85,52268,5,2,0:0:0:0:
292,36,52450,1,10,0:0:0:0:
507,362,53177,6,0,B|461:381|411:334|411:334|405:337|405:337|356:293|311:311,1,207.000003948212,6|2,3:2|3:2,0:0:0:0:
206,384,53722,1,2,0:0:0:0:
204,370,53813,1,2,0:0:0:0:
202,356,53904,2,0,L|187:246,1,90,2|2,3:2|0:0,0:0:0:0:
182,67,54268,1,2,3:2:0:0:
272,213,54450,1,2,0:0:0:0:
272,226,54540,1,2,0:0:0:0:
272,239,54631,5,2,3:2:0:0:
97,120,54813,1,2,0:0:0:0:
269,114,54995,1,2,3:2:0:0:
101,219,55177,2,0,B|61:234|61:234|1:211,1,90,2|2,0:0|3:2,0:0:0:0:
18,341,55540,2,0,B|58:326|58:326|118:349,1,90,2|10,0:0|0:0,0:0:0:0:
248,382,55904,1,2,0:0:0:0:
244,369,55995,1,2,0:0:0:0:
241,355,56086,6,0,P|239:307|246:236,1,90,2|2,3:2|0:0,0:0:0:0:
324,48,56450,1,2,3:2:0:0:
157,10,56631,1,2,0:0:0:0:
42,134,56813,1,2,3:2:0:0:
208,172,56995,1,2,0:0:0:0:
324,48,57177,1,2,3:2:0:0:
488,84,57359,1,2,0:0:0:0:
386,295,57540,6,0,P|380:244|371:200,1,90,2|0,3:2|0:0,0:0:0:0:
455,195,57813,1,2,0:0:0:0:
455,195,57904,6,0,P|463:239|471:313,1,107.999996704102,0|0,3:2|0:0,0:0:0:0:
307,319,58177,1,2,0:0:0:0:
307,319,58268,6,0,P|300:256|289:194,1,125.999996154785,2|0,3:2|0:0,0:0:0:0:
372,206,58540,1,2,0:0:0:0:
372,206,58631,1,2,3:2:0:0:
97,292,58813,1,6,3:2:0:0:
110,190,58995,5,8,3:2:0:0:
122,193,59086,1,8,3:2:0:0:
133,196,59177,1,8,3:2:0:0:
150,204,59268,1,8,3:2:0:0:
165,214,59359,1,8,3:2:0:0:
182,232,59450,1,8,3:2:0:0:
196,249,59540,1,8,3:2:0:0:
198,283,59631,1,8,3:2:0:0:
196,314,59722,1,8,3:2:0:0:
179,347,59813,1,8,3:2:0:0:
153,376,59904,1,8,3:2:0:0:
109,384,59995,1,8,3:2:0:0:
58,380,60086,1,8,3:2:0:0:
19,347,60177,1,8,3:2:0:0:
0,293,60268,1,8,3:2:0:0:
15,231,60359,1,8,3:2:0:0:
78,191,60450,6,0,B|90:131|51:69|51:69|82:0|181:3,1,270,6|0,3:2|0:0,0:0:0:0:
322,4,60813,1,10,0:0:0:0:
239,230,60995,1,10,0:0:0:0:
241,211,61086,1,8,0:0:0:0:
246,192,61177,2,0,P|246:154|239:116,1,62.9999980773926,2|0,3:2|0:0,0:0:0:0:
322,4,61359,2,0,P|302:28|287:56,1,62.9999980773926,0|0,3:0|0:0,0:0:0:0:
167,2,61540,2,0,P|186:26|201:54,1,62.9999980773926,10|0,0:0|0:0,0:0:0:0:
190,302,61722,1,2,0:3:0:0:
190,302,61813,1,2,0:3:0:0:
190,302,61904,6,0,B|238:262|302:306|302:306|321:370|404:365,1,242.999992584229,6|0,3:2|0:0,0:0:0:0:
497,361,62268,1,10,0:0:0:0:
407,187,62450,1,8,0:0:0:0:
403,205,62540,1,8,0:0:0:0:
397,223,62631,2,0,L|381:293,1,62.9999980773926,0|0,3:0|0:0,0:0:0:0:
449,91,62813,2,0,L|517:69,1,62.9999980773926,2|0,3:2|0:0,0:0:0:0:
309,112,62995,2,0,L|256:63,1,62.9999980773926,10|0,0:0|0:0,0:0:0:0:
36,15,63177,1,2,0:3:0:0:
36,15,63268,1,2,0:3:0:0:
36,15,63359,6,0,B|99:-6|142:42|142:42|95:113|144:181,1,242.999992584229,6|0,3:2|0:0,0:0:0:0:
72,276,63722,1,10,0:0:0:0:
27,90,63904,1,8,0:0:0:0:
31,108,63995,1,8,0:0:0:0:
33,126,64086,2,0,L|45:198,1,62.9999980773926,2|0,3:2|0:0,0:0:0:0:
168,309,64268,2,0,L|156:237,1,62.9999980773926,0|0,3:0|0:0,0:0:0:0:
8,368,64450,6,0,L|68:361,1,54,14|0,0:0|0:0,0:0:0:0:
142,383,64813,6,0,B|87:377|65:297|131:268|131:268|143:298|176:313,1,216,6|0,3:2|0:0,0:0:0:0:
220,370,65177,1,8,0:0:0:0:
328,195,65359,1,0,3:0:0:0:
310,188,65450,1,8,0:0:0:0:
292,195,65540,2,0,L|220:185,1,62.9999980773926,2|0,0:0|0:0,0:0:0:0:
404,70,65722,2,0,L|467:79,1,62.9999980773926,0|0,3:0|0:0,0:0:0:0:
401,253,65904,2,0,L|409:190,1,62.9999980773926,10|0,0:0|0:0,0:0:0:0:
295,15,66086,2,0,L|286:77,1,62.9999980773926,2|0,0:3|0:3,0:0:0:0:
320,339,66268,6,0,B|378:319|400:253|400:253|414:310|482:346,1,242.999992584229,6|0,3:2|0:0,0:0:0:0:
401,384,66631,1,10,0:0:0:0:
233,384,66813,1,8,0:0:0:0:
235,365,66904,1,8,0:0:0:0:
237,346,66995,2,0,P|232:314|222:285,1,62.9999980773926,0|0,3:0|0:0,0:0:0:0:
106,159,67177,2,0,P|75:153|46:142,1,62.9999980773926,2|0,3:2|0:0,0:0:0:0:
82,299,67359,2,0,P|107:279|128:255,1,62.9999980773926,10|0,0:0|0:0,0:0:0:0:
9,65,67540,1,2,0:3:0:0:
9,65,67631,1,2,0:3:0:0:
9,65,67722,6,0,B|45:10|123:35|123:35|166:102|234:76,1,242.999992584229,6|0,3:2|0:0,0:0:0:0:
200,0,68086,1,10,0:0:0:0:
380,34,68268,1,8,0:0:0:0:
361,35,68359,1,8,0:0:0:0:
342,33,68450,2,0,L|272:22,1,62.9999980773926,2|0,3:2|0:0,0:0:0:0:
218,167,68631,2,0,L|288:178,1,62.9999980773926,0|0,3:0|0:0,0:0:0:0:
468,4,68813,6,0,P|465:39|464:73,1,54,14|0,0:0|0:0,0:0:0:0:
464,229,69177,6,0,B|530:208|530:90|463:58|463:58|471:112|426:144,1,283.499991348267,6|0,3:2|0:0,0:0:0:0:
376,198,69540,2,0,P|374:166|370:135,1,62.9999980773926,10|0,0:0|0:0,0:0:0:0:
197,0,69722,1,4,3:2:0:0:
197,18,69813,1,8,0:0:0:0:
200,36,69904,2,0,P|203:67|205:98,1,62.9999980773926,10|0,0:0|0:0,0:0:0:0:
255,347,70086,6,0,L|189:339,1,54,2|0,3:2|0:0,0:0:0:0:
121,380,70450,6,0,B|84:318|138:250|146:284|214:228|185:113|70:93|2:194|65:265,1,377.999988464356,6|2,3:2|3:2,0:0:0:0:
19,384,70995,1,8,0:0:0:0:
201,340,71177,1,10,3:2:0:0:
219,336,71268,1,10,0:0:0:0:
235,345,71359,2,0,P|268:338|317:348,1,62.9999980773926,2|0,0:0|0:0,0:0:0:0:
452,240,71540,2,0,P|420:242|390:235,1,62.9999980773926,2|0,3:2|0:0,0:0:0:0:
117,187,71722,5,8,0:0:0:0:
167,153,71813,1,8,0:0:0:0:
226,170,71903,1,8,0:0:0:0:
257,225,71994,1,8,0:0:0:0:
181,235,72086,6,0,B|134:141|182:64|182:64|171:120|196:151,1,270,6|0,3:2|0:0,0:0:0:0:
314,100,72450,6,0,L|261:96,1,54,10|2,0:0|0:3,0:0:0:0:
182,65,72813,2,0,P|179:30|189:-30,1,62.9999980773926,2|0,3:2|0:0,0:0:0:0:
117,118,72995,2,0,P|88:104|62:87,1,62.9999980773926,0|0,3:0|0:0,0:0:0:0:
260,95,73177,2,0,P|288:81|314:64,1,62.9999980773926,10|0,0:0|0:0,0:0:0:0:
512,42,73359,1,2,0:3:0:0:
512,42,73450,1,2,0:3:0:0:
512,42,73540,6,0,B|442:27|398:72|398:72|448:145|397:194,1,242.999992584229,6|0,3:2|0:0,0:0:0:0:
345,135,73904,1,10,0:0:0:0:
457,332,74086,1,8,0:0:0:0:
460,314,74177,1,8,0:0:0:0:
465,295,74268,6,0,P|470:263|481:225,1,62.9999980773926,0|0,3:0|0:0,0:0:0:0:
276,169,74450,2,0,P|284:199|289:230,1,62.9999980773926,0|0,3:0|0:0,0:0:0:0:
335,384,74631,1,10,0:0:0:0:
304,356,74721,1,8,0:0:0:0:
265,344,74812,1,8,0:0:0:0:
224,349,74903,1,8,0:0:0:0:
189,370,74995,6,0,B|131:343|138:248|213:227|213:227|212:266|245:299,1,242.999992584229,6|0,3:2|0:0,0:0:0:0:
289,230,75359,1,10,0:0:0:0:
83,384,75540,1,8,0:0:0:0:
81,365,75631,1,8,0:0:0:0:
79,346,75722,6,0,L|69:283,1,62.9999980773926,0|0,3:0|0:0,0:0:0:0:
85,109,75904,2,0,B|52:99|52:99|25:108,1,62.9999980773926,2|0,3:2|0:0,0:0:0:0:
27,194,76086,2,0,B|59:203|59:203|86:194,1,62.9999980773926,10|0,0:0|0:0,0:0:0:0:
11,26,76268,1,2,0:3:0:0:
11,26,76359,1,2,0:3:0:0:
11,26,76450,6,0,B|63:-15|130:33|130:33|153:98|221:95,1,242.999992584229,2|0,3:2|0:0,0:0:0:0:
211,12,76813,1,8,0:0:0:0:
219,178,76995,1,0,3:0:0:0:
237,175,77086,1,8,0:0:0:0:
251,183,77177,2,0,B|283:176|283:176|342:194,1,62.9999980773926,2|0,0:0|0:0,0:0:0:0:
508,189,77359,2,0,B|476:196|476:196|417:178,1,62.9999980773926,2|0,3:2|0:0,0:0:0:0:
370,0,77540,5,10,0:0:0:0:
373,34,77631,1,8,0:0:0:0:
375,87,77722,1,8,0:0:0:0:
380,147,77813,1,8,0:0:0:0:
378,226,77904,6,0,B|322:307|379:385|379:385|363:326|403:266,1,283.499991348267,6|0,3:2|0:0,0:0:0:0:
485,268,78268,1,8,0:0:0:0:
268,370,78450,1,2,0:3:0:0:
267,351,78540,1,2,0:3:0:0:
265,332,78631,2,0,P|263:297|271:253,1,62.9999980773926,2|0,3:2|0:0,0:0:0:0:
82,256,78813,2,0,P|86:287|85:319,1,62.9999980773926,0|0,3:0|0:0,0:0:0:0:
174,379,78995,6,0,L|175:315,1,54,14|0,0:0|0:0,0:0:0:0:
239,179,79359,6,0,B|192:198|176:246|176:246|162:188|113:168,1,188.999994232178,6|0,3:2|0:0,0:0:0:0:
181,114,79722,1,8,0:0:0:0:
65,0,79904,1,0,3:0:0:0:
71,16,79995,1,8,0:0:0:0:
77,32,80086,2,0,P|93:65|105:117,1,62.9999980773926,2|0,0:0|0:0,0:0:0:0:
262,237,80268,2,0,P|248:208|239:179,1,62.9999980773926,2|0,3:2|0:0,0:0:0:0:
285,37,80450,2,0,P|271:66|262:95,1,62.9999980773926,10|0,0:0|0:0,0:0:0:0:
99,230,80632,2,0,P|113:201|122:171,1,62.9999980773926,2|0,0:0|0:0,0:0:0:0:
180,23,80813,6,0,P|286:17|441:20,1,242.999992584229,6|0,3:2|0:0,0:0:0:0:
510,19,81177,1,10,0:0:0:0:
456,195,81358,1,2,0:3:0:0:
459,176,81449,1,2,0:3:0:0:
461,157,81540,2,0,P|460:122|468:66,1,62.9999980773926,2|0,3:2|0:0,0:0:0:0:
442,304,81722,2,0,P|472:320|517:355,1,62.9999980773926,0|0,3:0|0:0,0:0:0:0:
324,214,81904,2,0,P|294:232|241:253,1,62.9999980773926,8|0,0:0|0:0,0:0:0:0:
22,328,82086,5,6,3:2:0:0:
27,335,82177,1,8,0:0:0:0:
32,340,82268,1,8,0:0:0:0:
39,345,82359,1,8,0:0:0:0:
49,353,82450,1,8,0:0:0:0:
64,361,82540,1,8,0:0:0:0:
81,366,82631,1,8,0:0:0:0:
103,366,82722,1,8,0:0:0:0:
125,362,82813,1,8,0:0:0:0:
150,352,82904,1,8,0:0:0:0:
172,336,82995,1,8,0:0:0:0:
192,311,83086,1,8,0:0:0:0:
202,276,83177,1,8,0:0:0:0:
196,235,83268,1,8,0:0:0:0:
169,198,83359,1,8,0:0:0:0:
125,174,83450,1,8,0:0:0:0:
71,177,83540,1,8,0:0:0:0:
22,211,83631,1,8,0:0:0:0:
5,286,83722,6,0,B|107:261|107:261|121:238|121:238|239:211,1,242.999992584229,4|0,3:2|0:0,0:0:0:0:
294,169,84086,2,0,P|307:197|306:228,1,62.9999980773926,8|0,0:0|0:0,0:0:0:0:
490,240,84268,1,2,0:3:0:0:
490,240,84359,1,2,0:3:0:0:
490,240,84450,2,0,P|480:211|483:180,1,62.9999980773926,0|0,3:0|0:0,0:0:0:0:
358,299,84631,2,0,P|387:288|419:292,1,62.9999980773926,2|0,3:2|0:0,0:0:0:0:
432,108,84813,2,0,P|402:119|365:115,1,62.9999980773926,10|0,0:0|0:0,0:0:0:0:
224,57,84995,1,2,0:3:0:0:
224,57,85086,1,2,0:3:0:0:
224,57,85177,6,0,B|229:0|313:-22|343:46|343:46|312:58|296:92,1,216,2|0,3:2|0:0,0:0:0:0:
371,116,85540,1,10,0:0:0:0:
164,242,85722,1,0,3:0:0:0:
160,205,85813,1,8,0:0:0:0:
156,168,85904,2,0,P|152:129|159:100,1,62.9999980773926,2|0,0:0|0:0,0:0:0:0:
30,117,86086,2,0,P|34:148|31:179,1,62.9999980773926,2|0,3:2|0:0,0:0:0:0:
4,36,86268,5,10,0:0:0:0:
40,6,86358,1,8,0:0:0:0:
87,3,86449,1,8,0:0:0:0:
129,19,86540,1,8,0:0:0:0:
157,59,86631,6,0,B|228:41|228:41|238:25|238:25|320:6,1,161.999995056153,6|0,3:2|3:0,0:0:0:0:
494,38,87177,1,2,0:0:0:0:
345,87,87359,1,0,3:0:0:0:
406,19,87540,1,2,0:0:0:0:
442,176,87722,2,0,P|439:129|429:88,1,72,0|2,3:0|0:0,0:0:0:0:
268,195,88086,5,2,3:2:0:0:
407,257,88268,1,2,0:0:0:0:
355,185,88450,1,2,3:2:0:0:
231,275,88631,2,0,L|83:259,1,144,2|2,0:0|0:0,0:0:0:0:
11,113,89177,1,0,3:0:0:0:
87,259,89359,1,2,0:0:0:0:
49,186,89540,5,0,3:2:0:0:
94,117,89722,1,2,0:0:0:0:
177,122,89904,1,0,3:2:0:0:
215,197,90086,2,0,L|286:189,1,72,2|0,0:0|3:0,0:0:0:0:
451,95,90450,5,2,0:0:0:0:
405,243,90631,1,0,3:0:0:0:
502,192,90813,1,2,0:0:0:0:
353,146,90995,1,2,3:2:0:0:
428,169,91177,5,2,0:0:0:0:
481,266,91359,1,2,3:2:0:0:
424,361,91540,2,0,P|357:353|267:349,1,144,2|2,0:0|0:0,0:0:0:0:
117,367,92086,1,0,3:0:0:0:
188,275,92268,1,2,0:0:0:0:
198,359,92450,5,0,3:0:0:0:
36,375,92631,1,2,0:0:0:0:
104,296,92813,2,0,P|113:342|119:398,1,72,0|2,3:0|0:0,0:0:0:0:
164,141,93177,5,0,3:0:0:0:
1,148,93358,1,2,0:0:0:0:
92,216,93540,2,0,P|84:169|81:112,1,72,0|2,3:0|0:0,0:0:0:0:
29,266,93904,5,2,3:2:0:0:
166,246,94086,1,2,0:0:0:0:
82,144,94268,1,2,3:2:0:0:
103,296,94450,1,2,0:0:0:0:
92,216,94631,5,0,3:0:0:0:
229,197,94813,1,2,0:0:0:0:
166,246,94995,1,2,3:2:0:0:
220,51,95177,6,0,B|176:46|129:82|124:146|158:171|158:171|185:134|166:101,1,251.999992309571,6|2,3:2|0:0,0:0:0:0:
166,100,96086,1,2,0:0:0:0:
166,100,96267,1,2,0:0:0:0:
172,92,96631,6,0,B|203:72|240:83|217:92|264:122|290:127|330:120|345:77|345:77|334:46|305:36|284:49,2,251.999992309571,2|2|0,0:0|0:0|0:0,0:0:0:0:
