osu file format v14

[General]
AudioFilename: audio.mp3
AudioLeadIn: 0
PreviewTime: 59813
Countdown: 0
SampleSet: Soft
StackLeniency: 0.7
Mode: 0
LetterboxInBreaks: 0
WidescreenStoryboard: 0

[Editor]
Bookmarks: 269,12450,22450,24086,29904,35722,47359,53177,63359,69177,74995,77904,82086,83722,86631,98086
DistanceSpacing: 0.9
BeatDivisor: 4
GridSize: 32
TimelineZoom: 1.6

[Metadata]
Title:Mirai no Kaze ga Fuku
TitleUnicode:未来の風が吹く
Artist:NANA
ArtistUnicode:NANA
Creator:tomatas95
Version:Easy
Source:ALIA's CARNIVAL!
Tags:eroge nanawind visual novel vn Future wind blows NORAS 八 Hachi 和解事件 Cap galgame op opening japanese video game female vocals vocalist jpop j-pop pop
BeatmapID:3771155
BeatmapSetID:1769792

[Difficulty]
HPDrainRate:2
CircleSize:2.5
OverallDifficulty:2
ApproachRate:3
SliderMultiplier:1
SliderTickRate:1

[Events]
//Background and Video events
0,0,"SaijouPatPat.jpg",0,0
Video,0,"IloveNanaWindEroge.mp4"
//Break Periods
//Storyboard Layer 0 (Background)
//Storyboard Layer 1 (Fail)
//Storyboard Layer 2 (Pass)
//Storyboard Layer 3 (Foreground)
//Storyboard Layer 4 (Overlay)
//Storyboard Sound Samples

[TimingPoints]
269,363.636363636364,4,2,1,35,1,0
269,-100,4,2,1,35,0,0
814,-100,4,2,1,55,0,0
996,-100,4,2,1,50,0,0
2087,-100,4,2,1,40,0,0
2269,-100,4,2,1,45,0,0
2450,-100,4,2,1,50,0,0
2632,-100,4,2,1,55,0,0
2814,-100,4,2,1,60,0,0
2996,-100,4,2,1,50,0,0
4996,-100,4,2,1,40,0,0
5178,-100,4,2,1,45,0,0
5359,-100,4,2,1,50,0,0
5541,-100,4,2,1,55,0,0
5723,-100,4,2,1,60,0,0
5905,-100,4,2,1,50,0,0
6087,-100,4,2,1,40,0,0
6632,-100,4,2,1,55,0,0
6814,-100,4,2,1,50,0,0
7905,-100,4,2,1,40,0,0
8087,-100,4,2,1,45,0,0
8268,-100,4,2,1,50,0,0
8450,-100,4,2,1,55,0,0
8632,-100,4,2,1,60,0,0
8814,-100,4,2,1,50,0,0
9178,-100,4,2,2,50,0,0
9359,-100,4,2,1,60,0,0
9541,-100,4,2,2,40,0,0
10087,-100,4,2,1,50,0,0
10269,-100,4,2,1,55,0,0
10814,-100,4,2,1,60,0,0
10996,-100,4,2,1,40,0,0
11178,-100,4,2,3,55,0,0
11541,-100,4,2,3,60,0,0
11723,-100,4,2,3,65,0,0
12087,-100,4,2,4,50,0,0
12178,-100,4,2,4,60,0,0
12269,-100,4,2,4,65,0,0
12359,-100,4,2,4,70,0,0
12450,363.636363636364,4,2,2,75,1,0
12450,-100,4,2,2,75,0,0
12813,-100,4,2,1,70,0,0
12904,-100,4,2,3,70,0,0
13177,-100,4,2,1,70,0,0
13268,-100,4,2,3,70,0,0
13541,-100,4,2,1,70,0,0
13631,-100,4,2,3,70,0,0
13904,-100,4,2,1,70,0,0
14086,-100,4,2,3,70,0,0
14268,-100,4,2,1,70,0,0
14450,-100,4,2,3,70,0,0
14632,-100,4,2,1,70,0,0
14722,-100,4,2,3,70,0,0
14995,-100,4,2,1,70,0,0
15177,-100,4,2,3,70,0,0
15359,-100,4,2,1,70,0,0
15450,-100,4,2,3,70,0,0
15722,-100,4,2,1,70,0,0
16268,-100,4,2,3,70,0,0
16450,-100,4,2,1,70,0,0
16631,-100,4,2,3,70,0,0
16813,-100,4,2,1,70,0,0
16904,-100,4,2,3,70,0,0
17177,-100,4,2,1,70,0,0
17268,-100,4,2,3,70,0,0
17541,-100,4,2,1,70,0,0
17722,-100,4,2,3,70,0,0
17904,-100,4,2,1,70,0,0
18086,-100,4,2,3,70,0,0
18177,-100,4,2,1,70,0,0
18359,-100,4,2,3,70,0,0
18631,-100,4,2,1,70,0,0
18722,-100,4,2,3,70,0,0
18994,-100,4,2,1,70,0,0
19086,-100,4,2,3,70,0,0
19358,-100,4,2,1,70,0,0
19540,-100,4,2,3,70,0,0
19722,-100,4,2,1,70,0,0
19813,-100,4,2,3,70,0,0
20086,-100,4,2,1,70,0,0
20268,-100,4,2,3,70,0,0
20359,-100,4,2,1,70,0,0
20631,-100,4,2,3,70,0,0
20813,-100,4,2,1,70,0,0
20995,-100,4,2,3,70,0,0
21177,-100,4,2,3,80,0,0
21540,-100,4,2,1,70,0,0
21722,-100,4,2,3,70,0,0
21904,-100,4,2,1,70,0,0
22086,-100,4,2,1,75,0,0
22450,-100,4,2,2,80,0,0
22813,-100,4,2,1,70,0,0
23177,-100,4,2,3,80,0,0
23268,-100,4,2,1,70,0,0
23540,-100,4,2,1,75,0,0
23722,-100,4,2,1,80,0,0
23904,-100,4,2,1,75,0,0
24086,-100,4,2,1,75,0,0
24268,-100,4,2,1,60,0,0
25995,-100,4,2,5,60,0,0
26268,-100,4,2,1,60,0,0
26450,-100,4,2,5,60,0,0
26632,-100,4,2,1,60,0,0
26813,-100,4,2,2,60,0,0
26995,-100,4,2,1,60,0,0
28813,-100,4,2,1,65,0,0
28904,-100,4,2,5,60,0,0
29177,-100,4,2,1,60,0,0
29722,-100,4,2,5,60,0,0
29904,-100,4,2,1,60,0,0
32631,-100,4,2,2,60,0,0
32813,-100,4,2,1,60,0,0
35540,-100,4,2,4,60,0,0
35722,-100,4,2,4,60,0,0
36086,-100,4,2,1,65,0,0
37086,-100,4,2,5,65,0,0
37176,-100,4,2,1,65,0,0
38086,-100,4,2,4,60,0,0
38813,-100,4,2,1,65,0,0
40995,-100,4,2,4,60,0,0
41176,-100,4,2,1,65,0,0
41359,-100,4,2,4,60,0,0
41722,-100,4,2,1,65,0,0
43904,-100,4,2,4,60,0,0
44631,-100,4,2,1,65,0,0
46086,-100,4,2,1,70,0,0
46450,-100,4,2,2,70,0,0
46631,-100,4,2,1,65,0,0
46813,-100,4,2,2,60,0,0
46995,-100,4,2,3,55,0,0
47177,-100,4,2,3,50,0,0
47359,-100,4,2,2,80,0,0
47722,-100,4,2,1,65,0,0
48086,-100,4,2,1,70,0,0
48450,-100,4,2,1,65,0,0
48813,-100,4,2,1,75,0,0
48995,-100,4,2,1,65,0,0
50268,-100,4,2,1,75,0,0
50631,-100,4,2,1,65,0,0
50995,-100,4,2,1,70,0,0
51359,-100,4,2,1,65,0,0
51722,-100,4,2,1,75,0,0
51904,-100,4,2,1,65,0,0
53177,-100,4,2,2,75,0,0
53540,-100,4,2,1,70,0,0
53722,-100,4,2,3,70,0,0
53904,-100,4,2,1,70,0,0
54086,-100,4,2,3,70,0,0
54268,-100,4,2,1,70,0,0
54359,-100,4,2,3,70,0,0
54631,-100,4,2,1,70,0,0
55086,-100,4,2,3,70,0,0
55358,-100,4,2,1,70,0,0
55540,-100,4,2,3,70,0,0
55722,-100,4,2,1,70,0,0
55904,-100,4,2,3,70,0,0
56086,-100,4,2,1,70,0,0
56268,-100,4,2,3,70,0,0
56450,-100,4,2,1,70,0,0
57813,-100,4,2,4,70,0,0
58177,-100,4,2,4,75,0,0
58540,-100,4,2,4,80,0,0
58813,-100,4,2,2,85,0,0
58995,-100,4,2,3,50,0,0
59177,-100,4,2,3,55,0,0
59359,-100,4,2,3,60,0,0
59540,-100,4,2,3,65,0,0
59722,-100,4,2,3,70,0,0
59904,-100,4,2,3,75,0,0
60086,-100,4,2,3,80,0,0
60268,-100,4,2,3,85,0,0
60450,-100,4,2,2,90,0,1
60813,-100,4,2,1,85,0,1
60995,-100,4,2,2,85,0,1
61177,-100,4,2,1,85,0,1
61722,-100,4,2,2,85,0,1
61904,-100,4,2,3,90,0,1
62268,-100,4,2,2,85,0,1
62632,-100,4,2,1,85,0,1
63177,-100,4,2,2,85,0,1
63359,-100,4,2,2,90,0,1
63722,-100,4,2,1,85,0,1
63904,-100,4,2,2,85,0,1
64086,-100,4,2,1,85,0,1
64450,-100,4,2,1,90,0,1
64813,-100,4,2,3,90,0,1
65177,-100,4,2,1,85,0,1
66086,-100,4,2,2,85,0,1
66268,-100,4,2,2,90,0,1
66631,-100,4,2,1,85,0,1
67540,-100,4,2,2,85,0,1
67722,-100,4,2,3,90,0,1
68086,-100,4,2,1,85,0,1
68268,-100,4,2,2,85,0,1
68450,-100,4,2,1,85,0,1
68813,-100,4,2,1,90,0,1
69177,-100,4,2,3,90,0,1
69540,-100,4,2,1,85,0,1
69722,-100,4,2,1,90,0,1
70086,-100,4,2,1,85,0,1
70450,-100,4,2,2,90,0,1
70813,-100,4,2,1,85,0,1
71722,-100,4,2,1,75,0,0
71904,-100,4,2,1,80,0,0
72086,-100,4,2,2,90,0,1
72450,-100,4,2,1,85,0,1
72631,-100,4,2,2,85,0,1
72813,-100,4,2,1,85,0,1
73359,-100,4,2,2,85,0,1
73541,-100,4,2,3,90,0,1
73904,-100,4,2,1,85,0,1
74722,-100,4,2,2,85,0,1
74995,-100,4,2,2,90,0,1
75359,-100,4,2,1,85,0,1
76268,-100,4,2,2,85,0,1
76450,-100,4,2,1,85,0,1
77540,-100,4,2,1,80,0,1
77722,-100,4,2,1,85,0,1
77904,-100,4,2,2,90,0,1
78268,-100,4,2,1,85,0,1
78450,-100,4,2,2,85,0,1
78631,-100,4,2,1,85,0,1
78995,-100,4,2,1,90,0,1
79359,-100,4,2,3,90,0,1
79722,-100,4,2,1,85,0,1
80813,-100,4,2,2,90,0,1
81177,-100,4,2,1,85,0,1
81359,-100,4,2,2,85,0,1
81540,-100,4,2,1,85,0,1
82086,-100,4,2,3,90,0,1
82177,-100,4,2,3,55,0,1
82450,-100,4,2,3,60,0,1
82631,-100,4,2,3,65,0,1
82813,-100,4,2,3,70,0,1
82995,-100,4,2,3,75,0,1
83177,-100,4,2,3,80,0,1
83359,-100,4,2,3,85,0,1
83540,-100,4,2,3,90,0,1
83722,-100,4,2,2,95,0,1
84086,-100,4,2,1,85,0,1
84268,-100,4,2,2,85,0,1
84449,-100,4,2,1,85,0,1
84995,-100,4,2,2,85,0,1
85176,-100,4,2,1,85,0,1
86268,-100,4,2,1,80,0,1
86450,-100,4,2,1,75,0,1
86631,-100,4,2,1,70,0,0
86995,-100,4,2,1,55,0,0
88086,-100,4,2,1,45,0,0
88268,-100,4,2,1,50,0,0
88449,-100,4,2,1,55,0,0
88631,-100,4,2,1,60,0,0
88813,-100,4,2,1,55,0,0
90995,-100,4,2,1,45,0,0
91177,-100,4,2,1,50,0,0
91358,-100,4,2,1,55,0,0
91540,-100,4,2,1,60,0,0
91722,-100,4,2,1,55,0,0
93904,-100,4,2,1,45,0,0
94086,-100,4,2,1,50,0,0
94267,-100,4,2,1,55,0,0
94449,-100,4,2,1,60,0,0
94631,-100,4,2,1,55,0,0
95177,363.636363636364,4,2,1,65,1,0
95904,-100,4,2,1,40,0,0
96086,-100,4,2,1,55,0,0
96631,-100,4,2,1,60,0,0
97358,-100,4,2,1,50,0,0
98086,-100,4,2,1,5,0,0

[Colours]
Combo1 : 117,141,223
Combo2 : 241,121,244
Combo3 : 227,247,119
Combo4 : 240,220,108

[HitObjects]
0,85,814,6,0,B|78:101|48:27|135:46,1,150,2|2,0:0|0:0,0:0:0:0:
216,6,1723,1,2,0:0:0:0:
307,105,2269,2,0,P|298:145|288:262,1,150,2|2,0:0|0:0,0:0:0:0:
136,350,3541,6,0,P|88:335|42:352,1,100,2|2,0:0|0:0,0:0:0:0:
3,270,4269,2,0,P|38:236|47:187,1,100,2|2,0:0|0:0,0:0:0:0:
108,121,4996,1,2,0:0:0:0:
156,196,5359,2,0,P|167:243|205:275,1,100,2|2,0:0|0:0,0:0:0:0:
371,344,6450,6,0,P|423:347|473:357,2,100,2|2|2,0:0|0:0|0:0,0:0:0:0:
335,261,7541,1,2,0:0:0:0:
454,208,8087,2,0,P|458:157|474:49,1,150,2|2,0:0|0:0,0:0:0:0:
298,12,9359,6,0,B|256:7|203:38|203:38|174:119|228:187,1,250,2|2,0:0|0:0,0:0:0:0:
293,295,10814,1,2,0:0:0:0:
512,58,12450,6,0,B|462:73|462:73|414:53,1,100,6|8,3:2|0:0,0:0:0:0:
333,22,13177,1,2,3:2:0:0:
278,93,13540,2,0,P|288:137|291:204,1,100,10|2,0:0|3:2,0:0:0:0:
380,204,14268,2,0,P|370:248|367:315,1,100,10|2,0:0|3:2,0:0:0:0:
310,372,14995,1,10,0:0:0:0:
222,348,15359,6,0,B|174:362|174:362|124:339,2,100,2|10|2,3:2|0:0|3:2,0:0:0:0:
182,267,16450,2,0,P|173:215|197:156,1,100,10|2,0:0|3:2,0:0:0:0:
267,130,17177,2,0,P|276:81|262:33,1,100,10|2,0:0|3:2,0:0:0:0:
176,7,17904,1,10,0:0:0:0:
96,49,18268,6,0,B|50:32|50:32|-10:52,2,100,2|10|2,3:2|0:0|3:2,0:0:0:0:
46,124,19359,1,10,0:0:0:0:
103,193,19722,1,2,3:2:0:0:
25,238,20086,2,0,L|40:350,1,100,10|2,0:0|3:2,0:0:0:0:
120,373,20813,1,10,0:0:0:0:
188,314,21177,6,0,B|236:299|274:315|274:315|311:375|381:351,1,200,6|2,3:2|3:2,0:0:0:0:
504,364,22450,1,6,3:2:0:0:
500,274,22813,1,2,3:2:0:0:
497,184,23177,2,0,B|457:184|457:184|432:201|432:201|404:186|404:186|349:190,1,150,6|2,3:2|0:0,0:0:0:0:
292,253,24086,6,0,P|264:187|299:123,1,150,6|2,3:2|0:0,0:0:0:0:
365,61,24995,1,2,0:0:0:0:
281,26,25359,2,0,L|128:17,1,150,2|0,0:0|3:0,0:0:0:0:
41,22,26268,2,0,P|33:73|26:142,1,100,0|0,3:2|3:2,0:0:0:0:
20,210,26995,6,0,B|63:221|95:186|95:186|129:178|172:198,1,150,2|2,3:2|0:0,0:0:0:0:
248,213,27904,1,2,0:0:0:0:
222,299,28268,2,0,B|196:329|187:370|187:370|158:347|114:353,1,150,2|0,0:0|3:0,0:0:0:0:
31,358,29177,2,0,L|43:255,1,100,0|0,3:0|3:0,0:0:0:0:
8,175,29904,6,0,B|55:156|89:179|89:179|116:149|104:99,1,150,2|2,3:2|0:0,0:0:0:0:
79,32,30813,1,2,0:0:0:0:
169,22,31177,2,0,P|218:8|276:32,2,100,2|2|2,0:0|0:0|0:0,0:0:0:0:
215,99,32268,1,2,0:0:0:0:
269,222,32813,6,0,B|313:218|343:246|343:246|390:248|412:200,1,150,2|2,3:2|0:0,0:0:0:0:
475,163,33722,1,2,0:0:0:0:
504,77,34086,2,0,B|477:28|409:29|409:29|373:65|326:46,1,200,2|2,0:0|0:0,0:0:0:0:
197,16,35359,1,10,3:2:0:0:
155,95,35722,6,0,B|147:144|147:144|155:175|155:175|144:247,1,150,2|2,3:2|0:0,0:0:0:0:
94,314,36631,1,2,0:0:0:0:
160,374,36995,2,0,L|315:362,1,150,2|8,0:0|0:0,0:0:0:0:
378,304,37904,2,0,P|377:263|360:197,1,100,0|10,3:0|0:0,0:0:0:0:
281,167,38631,6,0,P|311:127|413:137,1,150,2|2,3:2|0:0,0:0:0:0:
477,180,39540,1,2,0:0:0:0:
508,264,39904,2,0,B|504:306|516:344|516:344|491:369|447:364,1,150,2|8,0:0|0:0,0:0:0:0:
362,370,40813,1,0,3:0:0:0:
304,247,41359,6,0,B|254:262|254:262|202:242,2,100,2|2|2,0:0|0:0|0:0,0:0:0:0:
255,171,42450,2,0,P|257:101|281:3,2,150,2|2|2,0:0|3:2|0:0,0:0:0:0:
165,165,43904,2,0,P|163:115|152:66,1,100,2|2,0:0|0:0,0:0:0:0:
82,9,44631,5,2,0:0:0:0:
20,75,44995,2,0,P|30:123|32:173,1,100,2|2,0:0|0:0,0:0:0:0:
13,261,45722,2,0,B|51:271|79:254|79:254|116:274|101:332,1,150,2|8,0:0|0:0,0:0:0:0:
176,377,46631,1,4,3:3:0:0:
255,340,46995,1,8,3:3:0:0:
224,255,47359,6,0,B|235:200|198:159|198:159|194:107|225:63,1,200,6|10,3:2|0:0,0:0:0:0:
346,10,48631,1,10,0:0:0:0:
429,43,48995,1,10,0:0:0:0:
442,132,49359,2,0,L|431:248,1,100,2|2,0:0|0:0,0:0:0:0:
500,348,50268,6,0,B|451:361|404:327|404:327|350:311|296:356,1,200,6|10,3:2|0:0,0:0:0:0:
178,370,51540,1,10,0:0:0:0:
128,295,51904,1,10,0:0:0:0:
191,230,52268,2,0,P|190:185|196:122,1,100,2|0,0:0|0:0,0:0:0:0:
101,32,53177,6,0,B|58:26|26:46|26:46|42:92|33:127,1,150,6|2,3:2|0:0,0:0:0:0:
82,193,54086,1,2,0:0:0:0:
17,256,54450,2,0,P|23:301|23:370,1,100,2|2,0:0|0:0,0:0:0:0:
110,379,55177,2,0,P|145:351|205:316,1,100,2|2,0:0|0:0,0:0:0:0:
210,233,55904,2,0,P|269:276|278:349,1,150,2|2,0:0|3:2,0:0:0:0:
364,372,56813,1,2,3:2:0:0:
440,324,57177,1,2,3:2:0:0:
384,253,57540,6,0,B|292:179|302:56|430:-40|522:90|450:146,1,400,2|8,3:2|3:2,0:0:0:0:
155,355,60450,6,0,B|106:368|106:368|45:346,1,100,6|10,3:2|0:0,0:0:0:0:
109,276,61177,2,0,P|109:229|96:123,1,150,2|2,3:2|0:3,0:0:0:0:
19,79,62086,1,0,0:0:0:0:
79,12,62450,2,0,L|181:19,1,100,2|2,0:3|3:2,0:0:0:0:
308,56,63359,6,0,B|324:43|338:9|338:9|373:69|349:171,1,200,6|2,3:2|3:2,0:0:0:0:
322,233,64450,1,14,0:0:0:0:
366,311,64813,2,0,B|426:299|470:313|470:313|468:256|509:225,1,200,6|2,3:2|0:0,0:0:0:0:
465,148,65904,1,10,0:0:0:0:
512,65,66268,6,0,B|434:81|464:7|377:26,1,150,6|8,3:2|0:0,0:0:0:0:
287,10,67177,1,2,3:2:0:0:
217,66,67540,2,0,P|225:122|230:228,1,150,2|10,0:3|0:0,0:0:0:0:
209,303,68450,1,2,3:2:0:0:
122,328,68813,1,14,0:0:0:0:
57,265,69177,6,0,B|51:213|51:213|59:189|59:189|51:109,1,150,6|4,3:2|3:2,0:0:0:0:
16,33,70086,1,2,3:2:0:0:
103,13,70450,2,0,B|143:5|173:24|173:24|155:67|181:109,1,150,6|8,3:2|0:0,0:0:0:0:
211,181,71359,1,2,0:0:0:0:
300,191,71722,1,10,3:2:0:0:
354,119,72086,6,0,L|368:8,1,100,6|10,3:2|0:0,0:0:0:0:
456,9,72813,2,0,L|475:166,1,150,2|2,3:2|0:3,0:0:0:0:
505,242,73722,1,0,0:0:0:0:
489,330,74086,2,0,B|440:316|440:316|393:331,1,100,8|0,0:0|3:0,0:0:0:0:
263,366,74995,6,0,B|287:338|296:292|277:240|236:218|236:218|198:241|192:281,1,250,6|2,3:2|3:2,0:0:0:0:
172,369,76268,2,0,B|150:349|109:357|109:357|48:389|-10:352|-10:352|8:312|40:308,1,250,2|2,0:3|0:0,0:0:0:0:
23,222,77540,1,10,0:0:0:0:
109,195,77904,6,0,B|157:206|196:163|196:163|236:150|299:171,1,200,6|2,3:2|3:2,0:0:0:0:
353,240,78995,1,14,0:0:0:0:
436,206,79359,2,0,B|452:221|484:221|484:221|539:142|482:87,1,200,6|2,3:2|0:0,0:0:0:0:
414,28,80450,1,10,0:0:0:0:
364,102,80813,6,0,B|306:118|264:102|264:102|267:47|221:3,1,200,6|2,3:2|3:2,0:0:0:0:
95,17,82086,2,0,B|52:17|22:41|22:41|35:72|28:121,1,150,6|8,3:2|0:0,0:0:0:0:
31,201,82995,1,8,0:0:0:0:
116,171,83359,1,8,0:0:0:0:
152,252,83722,6,0,B|154:343|154:343|175:373|211:367,1,150,4|2,3:2|0:3,0:0:0:0:
255,293,84631,1,2,3:2:0:0:
327,347,84995,2,0,B|404:390|478:380|524:287|524:287|470:235|421:264,1,350,2|10,0:3|0:0,0:0:0:0:
344,219,86631,6,0,P|336:168|354:119,1,100,6|0,3:2|3:0,0:0:0:0:
286,55,87359,2,0,P|245:87|194:95,1,100,0|0,3:0|3:0,0:0:0:0:
130,153,88086,2,0,P|106:89|151:20,1,150,2|2,3:2|0:0,0:0:0:0:
199,95,88995,1,2,0:0:0:0:
243,173,89359,6,0,P|234:218|235:295,1,100,2|2,0:0|0:0,0:0:0:0:
160,326,90086,2,0,P|124:295|58:258,1,100,2|2,0:0|0:0,0:0:0:0:
20,145,90995,2,0,B|25:108|10:68|10:68|24:28|68:11,1,150,2|2,3:2|0:0,0:0:0:0:
145,5,91904,1,2,0:0:0:0:
184,85,92268,6,0,P|236:97|292:72,1,100,2|2,0:0|0:0,0:0:0:0:
358,39,92995,2,0,P|410:27|466:52,1,100,2|2,0:0|0:0,0:0:0:0:
507,165,93904,2,0,B|461:152|434:173|434:173|447:209|434:263,1,150,2|2,3:2|0:0,0:0:0:0:
494,315,94813,1,2,0:0:0:0:
415,358,95177,6,0,B|370:327|325:348|325:348|281:368|229:392|189:358|187:297|207:271|239:263,1,300,6|2,3:2|0:0,0:0:0:0:
310,259,96631,2,0,B|319:202|291:142|291:142|245:170|203:148,2,200,2|2|0,0:0|0:0|0:0,0:0:0:0:
