osu file format v14

[General]
AudioFilename: audio.mp3
AudioLeadIn: 0
PreviewTime: 251358
Countdown: 0
SampleSet: Soft
StackLeniency: 0.7
Mode: 0
LetterboxInBreaks: 0
WidescreenStoryboard: 1

[Editor]
Bookmarks: 38420,64366,93555,119501,119704,119906,120109,120312,120514,120717,120920,121122,121325,121528,121731,121933,122136,122339,122541,122744,122947,123149,123352,123555,123758,123960,124163,124366,124568,124771,124974,125176,158418,171393,187607,213554,226527,239500,252474,252676,252879,253082,253285,253487,253690,253893,254095,254298,254501,254704,254906,255109,255312,255514,255717,255920,256122,256325,256528,256731,256933,257136,257339,257541,257744,257947,258149,258352,258555,258758,258960,259163,259366,259568,259771,259974,260176,260379,260582,260785,260987,261190,261393,261797,284905,303834
DistanceSpacing: 0.8
BeatDivisor: 4
GridSize: 32
TimelineZoom: 1.9

[Metadata]
Title:Kono Hi no Mama de
TitleUnicode:この日のままで
Artist:NANA
ArtistUnicode:NANA
Creator:sinn
Version:In the Afternoon Sunlight, a Dream Full of Happiness
Source:グリザイアの果実
Tags:grisaia no kajitsu le fruit de of la grisaia sachi komine ed remains of the day just like today eroge vn visual novel japanese pop video game mori haruki elements garden the ending 小嶺 幸 母裡治樹 jpop j-pop j galgame galge
BeatmapID:3606964
BeatmapSetID:1759096

[Difficulty]
HPDrainRate:5
CircleSize:4.2
OverallDifficulty:7.5
ApproachRate:8
SliderMultiplier:2.22
SliderTickRate:1

[Events]
//Background and Video events
Video,-288,"sachi_ed.mp4"
0,0,"sacchan.jpg",0,0
//Break Periods
2,119700,125208
2,252671,261047
//Storyboard Layer 0 (Background)
//Storyboard Layer 1 (Fail)
//Storyboard Layer 2 (Pass)
//Storyboard Layer 3 (Foreground)
//Storyboard Layer 4 (Overlay)
//Storyboard Sound Samples

[TimingPoints]
22204,810.810810810811,4,2,2,30,1,0
22204,-125,4,2,2,30,0,0
25071,810.810810810811,4,2,2,30,1,0
25071,-125,4,2,2,30,0,0
28285,810.810810810811,4,2,2,30,1,0
28690,810.810810810811,4,2,2,30,1,0
28690,-125,4,2,2,30,0,0
31954,810.810810810811,4,2,2,30,1,0
31954,-125,4,2,2,30,0,0
35115,810.810810810811,4,2,2,30,1,0
35115,-125,4,2,2,30,0,0
35216,810.810810810811,4,2,2,30,1,0
36868,810.810810810811,4,2,2,30,1,0
38420,810.810810810811,4,2,2,40,1,0
38420,-142.857142857143,4,2,2,40,0,0
64366,-100,4,2,2,50,0,0
77369,810.810810810811,4,2,2,40,1,0
77369,-125,4,2,2,40,0,0
79019,810.810810810811,4,2,2,30,1,0
79019,-125,4,2,2,30,0,0
82203,810.810810810811,4,2,2,30,1,0
82203,-125,4,2,2,30,0,0
83824,810.810810810811,4,2,2,50,1,0
92742,-250.000000000001,4,2,2,50,0,0
93452,-250.000000000001,4,2,2,5,0,0
93553,-83.3333333333333,4,2,2,75,0,1
118553,-166.666666666667,4,2,2,75,0,1
118688,-166.666666666667,4,2,2,5,0,1
119499,-100,4,2,2,50,0,0
125986,-125,4,2,2,40,0,0
130851,-166.666666666667,4,2,2,40,0,0
131053,-166.666666666667,4,2,2,5,0,0
132269,-125,4,2,2,30,0,0
132472,-125,4,2,2,50,0,0
158418,-100,4,2,2,50,0,0
171391,-166.666666666667,4,2,2,40,0,0
177878,-100,4,2,2,50,0,0
186796,-250,4,2,2,50,0,0
187607,-83.3333333333333,4,2,2,75,0,1
211932,-111.111111111111,4,2,2,75,0,1
212607,-166.666666666667,4,2,2,75,0,1
212742,-166.666666666667,4,2,2,5,0,1
213553,-100,4,2,2,40,0,0
226526,-83.3333333333333,4,2,2,75,0,1
249229,-166.666666666667,4,2,2,75,0,1
249330,-166.666666666667,4,2,2,5,0,1
250851,-166.666666666667,4,2,2,50,0,1
251661,-166.666666666667,4,2,2,40,0,0
252117,-166.666666666667,4,2,0,40,0,0
252472,-166.666666666667,4,2,2,50,0,0
261796,-83.3333333333333,4,2,2,40,0,0
264634,-166.666666666667,4,2,2,40,0,0
265445,-83.3333333333333,4,2,2,75,0,1
283283,-111.111111111111,4,2,2,75,0,1
283958,-166.666666666667,4,2,2,75,0,1
284094,-166.666666666667,4,2,2,5,0,1
284905,-100,4,2,2,40,0,0
291027,810.810810810811,4,2,2,30,1,0
291483,705.882352941176,4,2,2,30,1,0
292240,769.230769230769,4,2,2,30,1,0
293065,1200,4,2,2,40,1,0
294295,810.810810810811,4,2,2,30,1,0
294715,857.142857142857,4,2,2,35,1,0
294715,-142.857142857143,4,2,2,35,0,0
295625,952.380952380952,4,2,2,30,1,0
295625,-129.87012987013,4,2,2,30,0,0
296743,810.810810810811,4,2,2,25,1,0
297411,1200,4,2,2,20,1,0
298730,937.5,4,2,2,15,1,0
299606,697.674418604651,4,2,2,30,1,0
299780,810.810810810811,4,2,22,15,1,0
299780,-125,4,2,22,15,0,0
299830,-125,4,2,22,5,0,0
303834,-125,4,2,22,40,0,0

[Colours]
Combo1 : 243,46,75
Combo2 : 255,108,182
Combo3 : 40,137,255

[HitObjects]
490,183,22204,6,0,L|359:154,1,133.2,2|0,0:0|0:0,0:0:0:0:
308,94,23014,2,0,P|249:118|227:184,1,133.2,2|0,0:0|0:0,0:0:0:0:
273,245,23825,1,2,0:0:0:0:
273,245,25071,1,2,0:0:0:0:
195,263,25273,1,2,0:0:0:0:
164,346,25476,6,0,P|94:349|32:344,2,133.2,2|2|2,0:0|0:0|0:0,0:0:0:0:
164,346,28285,1,2,0:0:0:0:
70,259,28690,5,2,0:0:0:0:
70,259,29095,1,2,0:0:0:0:
81,174,29500,1,2,0:0:0:0:
81,174,29906,1,2,0:0:0:0:
92,86,30311,1,2,0:0:0:0:
92,86,31527,1,2,0:0:0:0:
172,16,31954,6,0,P|185:61|190:104,1,88.8,2|2,0:0|0:0,0:0:0:0:
271,65,32764,2,0,P|284:110|289:153,1,88.8,2|2,0:0|0:0,0:0:0:0:
363,201,33575,1,2,0:0:0:0:
363,201,35115,2,0,L|373:198,2,11.1,2|2|2,0:0|0:0|0:0,0:0:0:0:
315,255,36868,1,2,0:0:0:0:
419,372,38420,6,0,P|434:297|459:220,1,155.399995257569,2|0,0:0|0:0,0:0:0:0:
458,221,40041,1,2,0:0:0:0:
426,150,40447,1,2,0:0:0:0:
489,105,40852,2,0,L|476:27,1,77.6999976287843,2|2,0:0|0:0,0:0:0:0:
468,20,41460,1,2,0:0:0:0:
386,72,41663,6,0,L|360:228,1,155.399995257569,2|2,0:0|0:0,0:0:0:0:
360,225,43285,2,0,P|370:267|375:303,2,77.6999976287843,2|2|2,0:0|0:0|0:0,0:0:0:0:
295,182,44501,1,2,0:0:0:0:
214,266,44906,6,0,P|147:254|118:178,1,155.399995257569,2|2,0:0|0:0,0:0:0:0:
117,178,46528,1,2,0:0:0:0:
117,178,47339,1,2,0:0:0:0:
182,135,47744,2,0,P|185:116|184:93,1,38.8499988143921,2|0,0:0|0:0,0:0:0:0:
255,18,48149,6,0,B|353:16|316:60|401:66,1,155.399995257569,2|2,0:0|0:0,0:0:0:0:
484,29,49771,1,2,0:0:0:0:
484,29,50582,1,2,0:0:0:0:
500,149,51393,6,0,B|465:172|465:172|440:287,1,155.399995257569,2|2,0:0|0:0,0:0:0:0:
440,282,53014,1,2,0:0:0:0:
370,248,53420,1,2,0:0:0:0:
324,311,53825,2,0,P|289:310|244:303,1,77.6999976287843,2|2,0:0|0:0,0:0:0:0:
236,299,54433,1,2,0:0:0:0:
158,357,54636,6,0,L|147:198,1,155.399995257569,2|2,0:0|0:0,0:0:0:0:
147,201,56258,1,2,0:0:0:0:
163,125,56663,1,2,0:0:0:0:
239,141,57068,1,2,0:0:0:0:
223,217,57474,1,2,0:0:0:0:
288,314,57879,6,0,P|355:302|384:226,1,155.399995257569,2|2,0:0|0:0,0:0:0:0:
384,226,59501,1,2,0:0:0:0:
384,226,60312,1,2,0:0:0:0:
335,166,60514,2,0,L|291:156,2,38.8499988143921,2|0|2,0:0|0:0|0:0,0:0:0:0:
392,113,61122,6,0,P|417:54|501:31,1,155.399995257569,2|2,0:0|0:0,0:0:0:0:
476,105,62744,1,2,0:0:0:0:
512,173,63555,1,2,0:0:0:0:
437,194,63960,2,0,P|431:220|428:240,1,38.8499988143921,2|0,0:0|0:0,0:0:0:0:
481,327,64366,6,0,L|368:302,1,111,6|0,0:0|0:0,0:0:0:0:
299,329,64974,1,0,0:0:0:0:
254,227,65176,1,2,3:2:0:0:
254,227,65582,2,0,L|197:214,1,55.5,2|0,0:0|0:0,0:0:0:0:
130,128,65987,6,0,P|73:137|45:187,1,111,2|0,0:0|0:0,0:0:0:0:
93,241,66595,1,2,0:0:0:0:
0,351,67001,2,0,P|54:339|112:335,1,111,2|0,0:0|0:0,0:0:0:0:
204,366,67609,6,0,L|221:252,1,111,2|0,0:2|0:0,0:0:0:0:
281,207,68217,2,0,P|309:163|300:103,1,111,2|0,0:0|0:2,0:0:0:0:
270,36,68825,1,2,0:0:0:0:
214,132,69028,1,2,0:0:0:0:
172,60,69231,6,0,B|103:60|127:84|66:87,1,111,2|0,0:0|0:0,0:0:0:0:
5,39,69839,1,2,0:0:0:0:
114,169,70244,2,0,P|139:219|119:275,1,111,2|0,0:0|0:0,0:0:0:0:
197,355,70852,6,0,L|322:337,1,111,2|0,0:2|0:0,0:0:0:0:
378,370,71460,2,0,P|429:353|448:297,1,111,2|0,0:0|0:0,0:0:0:0:
420,230,72068,1,2,0:0:0:0:
357,276,72271,1,2,0:0:0:0:
293,186,72474,6,0,B|250:178|250:178|228:190|228:190|184:182,1,111,2|0,0:0|0:0,0:0:0:0:
128,238,73082,2,0,P|106:195|123:133,1,111,2|0,0:0|0:0,0:0:0:0:
264,16,73893,1,2,0:0:0:0:
319,74,74095,6,0,B|435:75|391:120|494:117|494:117|472:109|451:92,1,222,2|2,0:2|0:0,0:0:0:0:
377,253,75312,2,0,P|372:221|365:194,1,55.5,2|0,0:0|0:0,0:0:0:0:
281,146,75717,2,0,P|213:170|210:258,1,166.5,2|0,0:0|0:0,0:0:0:0:
256,323,76528,1,2,0:0:0:0:
494,117,77369,6,0,P|501:74|513:28,2,88.8,2|2|2,0:2|0:0|0:0,0:0:0:0:
385,185,79019,2,0,P|396:227|403:271,2,88.8,2|2|2,0:2|0:0|0:0,0:0:0:0:
287,81,80640,2,0,P|264:166|258:258,1,177.6,2|2,0:2|0:0,0:0:0:0:
257,255,82203,1,2,0:0:0:0:
44,149,82811,2,0,P|32:151|21:154,2,22.2,2|2|2,0:0|0:0|0:3,0:0:0:0:
132,121,83217,2,0,P|115:173|102:233,1,111,2|0,0:0|0:0,0:0:0:0:
88,250,83824,6,0,B|191:245|147:296|245:301,1,166.5,6|0,1:2|0:0,0:0:0:0:
395,191,84635,2,0,P|349:163|289:172,1,111,8|0,0:0|0:0,0:0:0:0:
232,217,85243,1,4,0:3:0:0:
304,365,85446,6,0,L|317:306,1,55.5,2|0,1:2|0:0,0:0:0:0:
333,235,85851,1,4,0:3:0:0:
439,295,86054,1,4,0:3:0:0:
406,136,86257,6,0,L|393:195,1,55.5,8|0,0:2|0:0,0:0:0:0:
472,186,86662,1,2,0:0:0:0:
423,50,86865,1,2,0:0:0:0:
318,148,87067,6,0,L|156:108,1,166.5,2|0,1:2|0:0,0:0:0:0:
0,173,87877,2,0,P|31:216|86:224,1,111,8|0,0:0|0:0,0:0:0:0:
153,185,88486,1,2,3:2:0:0:
174,344,88689,6,0,L|183:289,1,55.5,2|0,1:2|0:0,0:0:0:0:
274,225,89094,2,0,L|266:279,1,55.5,2|0,1:2|0:0,0:0:0:0:
326,374,89500,1,8,0:0:0:0:
453,317,89703,1,2,0:0:0:0:
350,226,89904,1,0,0:0:0:0:
375,309,90108,1,4,0:3:0:0:
412,171,90311,5,2,1:2:0:0:
494,248,90513,2,0,L|482:138,1,111,12|0,0:0|0:0,0:0:0:0:
482,138,91020,1,12,0:3:0:0:
482,138,91121,1,8,0:0:0:0:
350,226,91323,1,4,0:3:0:0:
350,226,91729,1,2,0:0:0:0:
285,278,91932,6,0,L|291:336,1,55.5,6|0,1:2|0:0,0:0:0:0:
344,170,92338,2,0,L|350:228,1,55.5,4|4,0:3|0:3,0:0:0:0:
408,110,92743,6,2,L|418:31,1,77.7,8|2,0:0|0:0,0:0:0:0:
409,14,93554,6,0,L|423:146,1,133.199995935059,6|0,0:0|0:0,0:0:0:0:
458,218,94161,1,2,0:2:0:0:
403,384,94364,2,0,P|370:330|394:267,1,133.199995935059,8|0,0:0|0:0,0:0:0:0:
345,204,94972,1,2,0:2:0:0:
271,314,95174,6,0,L|203:300,1,66.5999979675294,2|0,1:2|0:0,0:0:0:0:
92,249,95580,2,0,L|158:236,1,66.5999979675294,2|0,0:2|0:0,0:0:0:0:
19,130,95986,2,0,L|33:196,1,66.5999979675294,8|0,0:2|0:0,0:0:0:0:
87,87,96392,2,0,L|101:19,1,66.5999979675294,2|0,0:2|0:0,0:0:0:0:
184,105,96797,6,0,L|156:241,1,133.199995935059,2|0,1:2|0:0,0:0:0:0:
236,221,97405,1,2,0:0:0:0:
92,360,97608,2,0,P|39:343|27:274,1,133.199995935059,10|0,0:0|0:0,0:0:0:0:
51,197,98216,1,2,0:0:0:0:
205,300,98419,6,0,B|285:300|249:333|333:331,1,133.199995935059,2|0,1:2|0:2,0:0:0:0:
411,318,99027,1,2,0:0:0:0:
281,223,99230,5,10,0:0:0:0:
361,117,99432,1,2,0:0:0:0:
495,149,99635,1,2,0:0:0:0:
495,149,100040,5,2,1:2:0:0:
512,234,100243,2,0,L|378:204,1,133.199995935059,2|0,0:0|0:0,0:0:0:0:
288,228,100851,1,8,0:0:0:0:
376,288,101054,1,2,0:0:0:0:
291,373,101257,2,0,P|285:340|277:305,1,66.5999979675294,2|0,3:2|0:0,0:0:0:0:
157,223,101662,5,2,1:2:0:0:
78,259,101865,2,0,P|126:301|201:300,1,133.199995935059,2|0,0:0|0:0,0:0:0:0:
288,228,102473,2,0,P|297:196|303:163,1,66.5999979675294,8|0,0:2|0:2,0:0:0:0:
197,82,102878,2,0,P|204:114|210:147,1,66.5999979675294,2|0,0:0|0:3,0:0:0:0:
18,168,103284,6,0,L|151:193,1,133.199995935059,2|0,1:2|0:0,0:0:0:0:
218,234,103892,1,2,0:0:0:0:
124,296,104094,5,10,0:0:0:0:
232,168,104296,2,0,P|224:200|218:233,1,66.5999979675294,2|0,0:2|0:2,0:0:0:0:
167,109,104702,1,2,0:0:0:0:
18,168,104905,6,0,L|43:35,1,133.199995935059,2|0,1:2|0:0,0:0:0:0:
114,0,105513,1,2,0:0:0:0:
232,62,105716,2,0,P|200:73|165:68,1,66.5999979675294,8|0,0:0|0:0,0:0:0:0:
18,168,106121,2,0,P|50:164|82:175,1,66.5999979675294,2|4,0:0|0:3,0:0:0:0:
95,197,106425,1,4,0:3:0:0:
95,197,106527,6,0,L|232:181,1,133.199995935059,6|0,0:0|0:0,0:0:0:0:
299,217,107135,1,2,0:0:0:0:
386,116,107338,2,0,P|447:130|482:194,1,133.199995935059,8|0,0:0|0:0,0:0:0:0:
425,244,107946,1,2,3:2:0:0:
496,356,108148,6,0,P|464:345|430:338,1,66.5999979675294,2|0,1:2|0:0,0:0:0:0:
302,308,108554,2,0,P|335:301|367:291,1,66.5999979675294,2|0,0:2|0:0,0:0:0:0:
261,190,108959,2,0,P|254:223|244:255,1,66.5999979675294,8|0,0:2|0:0,0:0:0:0:
208,131,109365,2,0,P|197:99|190:65,1,66.5999979675294,2|0,0:2|0:0,0:0:0:0:
294,6,109770,6,0,P|316:70|330:138,1,133.199995935059,2|0,1:2|0:0,0:0:0:0:
342,213,110378,1,2,0:0:0:0:
208,362,110581,2,0,P|157:333|157:262,1,133.199995935059,8|0,0:0|0:0,0:0:0:0:
216,212,111189,1,2,0:0:0:0:
145,44,111392,6,0,P|79:32|13:25,2,133.199995935059,2|0|8,1:2|3:0|0:0,0:0:0:0:
41,305,112608,2,0,P|37:273|30:239,1,66.5999979675294,2|0,0:0|0:0,0:0:0:0:
13,141,113013,6,0,P|76:148|147:160,1,133.199995935059,2|0,1:2|0:0,0:0:0:0:
223,176,113621,1,2,0:0:0:0:
122,263,113824,2,0,P|127:295|131:328,1,66.5999979675294,8|0,0:2|0:0,0:0:0:0:
207,303,114230,1,2,0:0:0:0:
257,366,114432,1,2,3:2:0:0:
379,310,114635,6,0,L|367:175,1,133.199995935059,2|0,1:2|0:0,0:0:0:0:
420,117,115243,1,2,0:0:0:0:
312,28,115446,2,0,P|306:67|298:103,1,66.5999979675294,8|0,0:0|0:0,0:0:0:0:
367,177,115851,1,2,0:0:0:0:
252,244,116054,1,2,0:2:0:0:
188,127,116257,6,0,P|154:122|119:115,1,66.5999979675294,2|0,1:2|0:0,0:0:0:0:
29,254,116662,2,0,P|63:259|98:266,1,66.5999979675294,2|0,0:2|0:0,0:0:0:0:
172,202,117067,2,0,P|138:197|103:190,1,66.5999979675294,8|0,0:2|0:0,0:0:0:0:
13,329,117473,1,2,0:0:0:0:
94,265,117675,1,2,3:2:0:0:
168,376,117878,5,2,1:2:0:0:
168,376,118553,2,0,P|231:358|304:348,1,133.199995935059,2|0,0:0|0:0,0:0:0:0:
383,335,119500,5,6,0:0:0:0:
459,36,125986,6,0,P|446:83|440:126,1,88.8,2|0,0:0|0:0,0:0:0:0:
378,173,126594,2,0,P|391:220|397:263,1,88.8,2|2,0:0|0:0,0:0:0:0:
454,350,127405,6,0,L|480:358,2,22.2,2|2|2,0:0|0:0|0:0,0:0:0:0:
349,383,128621,1,2,0:0:0:0:
255,288,129027,1,2,0:0:0:0:
182,322,129230,6,0,L|94:305,2,88.8,2|2|2,0:0|0:0|0:0,0:0:0:0:
327,255,130446,2,0,P|333:224|331:186,1,66.6,2|0,0:0|0:0,0:0:0:0:
314,172,130851,6,0,L|518:211,1,199.799993902588,2|0,0:0|0:0,0:0:0:0:
510,209,132270,2,0,L|505:243,1,22.2,2|2,0:0|0:0,0:0:0:0:
433,273,132473,6,0,P|416:318|407:362,2,88.8,2|2|8,1:2|0:0|0:2,0:0:0:0:
428,147,133688,2,0,L|420:201,1,44.4,2|2,0:0|0:0,0:0:0:0:
363,252,134094,6,0,P|322:237|276:229,1,88.8,2|0,1:2|0:0,0:0:0:0:
203,259,134703,1,2,0:0:0:0:
128,286,134905,2,0,P|86:283|46:255,1,88.8,10|0,3:2|0:0,0:0:0:0:
22,182,135513,1,2,0:0:0:0:
122,108,135716,6,0,P|114:67|99:17,2,88.8,2|2|8,1:2|0:0|0:0,0:0:0:0:
233,51,136932,2,0,L|281:61,1,44.4,2|0,0:0|0:0,0:0:0:0:
372,141,137338,6,0,L|276:161,1,88.8,2|0,1:2|0:0,0:0:0:0:
215,120,137946,1,2,0:0:0:0:
166,183,138148,2,0,P|146:224|157:275,1,88.8,10|0,3:2|0:0,0:0:0:0:
196,333,138757,1,2,0:0:0:0:
294,257,138959,6,0,P|338:248|385:246,2,88.8,2|2|10,1:2|0:0|0:0,0:0:0:0:
324,378,140175,2,0,P|328:359|335:335,1,44.4,2|0,0:0|0:0,0:0:0:0:
441,287,140581,6,0,P|454:244|441:199,1,88.8,2|0,1:2|0:0,0:0:0:0:
399,136,141189,1,2,0:0:0:0:
325,166,141391,2,0,L|278:155,1,44.4,8|0,0:0|0:0,0:0:0:0:
221,104,141796,1,2,0:0:0:0:
170,183,142000,1,2,0:0:0:0:
118,85,142203,6,0,L|71:76,2,44.4,2|0|2,1:2|0:0|0:0,0:0:0:0:
257,6,143013,2,0,L|248:53,1,44.4,8|0,0:2|0:0,0:0:0:0:
294,116,143419,2,0,P|329:120|358:102,1,66.6,2|0,0:0|0:0,0:0:0:0:
375,87,143824,6,0,L|384:134,1,44.4,2|0,1:2|0:0,0:0:0:0:
440,188,144230,2,0,L|426:258,1,66.6,2|0,3:2|0:0,0:0:0:0:
424,280,144635,6,0,P|397:273|371:276,1,44.4,10|0,0:0|0:0,0:0:0:0:
300,303,145040,1,2,0:0:0:0:
317,225,145243,1,2,0:0:0:0:
224,313,145446,6,0,L|211:222,1,88.8,2|0,1:2|0:0,0:0:0:0:
114,98,146257,2,0,P|70:112|48:160,1,88.8,8|0,0:0|0:0,0:0:0:0:
109,201,146865,1,2,0:0:0:0:
21,275,147067,6,0,P|12:323|14:368,2,88.8,2|2|10,1:2|0:0|0:0,0:0:0:0:
158,357,148284,1,2,0:0:0:0:
224,313,148486,1,2,0:0:0:0:
163,229,148689,6,0,P|159:255|156:279,1,44.4,2|0,1:2|0:0,0:0:0:0:
224,313,149094,1,2,0:0:0:0:
309,187,149500,2,0,P|263:179|221:174,1,88.8,8|0,0:2|0:0,0:0:0:0:
163,229,150108,1,2,0:0:0:0:
72,158,150311,6,0,P|56:122|72:72,2,88.8,2|2|8,1:2|0:0|0:0,0:0:0:0:
217,90,151527,1,2,0:0:0:0:
226,11,151730,1,2,0:0:0:0:
334,55,151932,6,0,P|311:58|286:57,1,44.4,2|0,1:2|0:0,0:0:0:0:
226,11,152338,1,2,0:0:0:0:
312,146,152743,2,0,P|302:193|302:240,1,88.8,10|0,0:0|0:0,0:0:0:0:
379,213,153351,1,2,0:0:0:0:
439,312,153554,6,0,P|444:288|444:265,1,44.4,2|0,1:2|0:0,0:0:0:0:
366,287,153959,2,0,P|356:334|356:381,1,88.8,2|8,0:2|0:0,0:0:0:0:
280,346,154567,1,2,0:0:0:0:
206,378,154770,1,2,0:0:0:0:
133,346,154972,1,2,0:0:0:0:
21,377,155175,5,2,1:2:0:0:
66,311,155378,2,0,L|82:220,1,88.8,2|0,0:0|0:0,0:0:0:0:
14,128,155986,2,0,L|22:173,1,44.4,10|0,0:0|0:0,0:0:0:0:
127,123,156392,2,0,L|139:54,1,66.6,2|0,0:0|0:0,0:0:0:0:
144,32,156797,5,2,1:2:0:0:
224,40,157000,1,2,0:0:0:0:
246,118,157203,2,0,L|181:106,1,44.4,2|0,0:0|0:0,0:0:0:0:
127,123,157608,1,10,0:2:0:0:
127,123,158013,1,2,0:0:0:0:
242,191,158216,1,2,0:0:0:0:
146,284,158419,6,0,P|93:283|39:265,1,111,6|0,0:0|0:0,0:0:0:0:
24,189,159027,1,2,0:0:0:0:
127,123,159230,2,0,P|153:123|180:132,1,55.5,10|0,0:0|0:0,0:0:0:0:
242,191,159634,1,2,0:0:0:0:
146,284,159838,1,2,3:2:0:0:
279,384,160039,6,0,P|288:359|290:329,1,55.5,2|0,1:2|0:0,0:0:0:0:
285,250,160445,1,2,0:0:0:0:
209,330,160647,1,2,0:0:0:0:
137,204,160850,1,8,0:0:0:0:
44,252,161053,2,0,P|93:282|146:283,1,111,2|4,0:0|0:3,0:0:0:0:
175,269,161560,1,4,0:3:0:0:
175,269,161661,6,0,L|156:381,1,111,2|0,1:2|0:0,0:0:0:0:
234,358,162269,1,2,0:0:0:0:
337,265,162472,2,0,L|355:155,1,111,8|2,0:2|0:0,0:0:0:0:
279,180,163080,1,2,0:0:0:0:
385,330,163284,6,0,P|439:341|480:305,1,111,2|8,1:2|0:3,0:0:0:0:
503,233,163892,1,2,0:0:0:0:
414,93,164094,1,8,0:0:0:0:
358,153,164297,2,0,B|301:148|326:123|251:119,1,111,2|4,0:0|0:3,0:0:0:0:
241,119,164804,1,4,0:3:0:0:
241,119,164905,6,0,B|217:155|217:155|228:232,1,111,6|0,1:2|0:0,0:0:0:0:
268,289,165513,1,2,0:0:0:0:
389,227,165716,2,0,L|497:250,1,111,8|0,0:0|0:0,0:0:0:0:
444,314,166324,1,2,3:2:0:0:
358,153,166527,6,0,P|367:102|364:42,1,111,2|0,1:2|0:0,0:0:0:0:
291,76,167135,1,2,0:0:0:0:
180,2,167338,2,0,P|171:53|174:113,1,111,8|0,0:2|0:0,0:0:0:0:
233,163,167946,1,2,0:0:0:0:
125,258,168148,6,0,L|11:235,2,111,2|2|10,1:2|0:0|0:0,0:0:0:0:
173,111,169365,2,0,P|148:102|114:101,1,55.5,2|4,0:0|0:3,0:0:0:0:
246,32,169770,6,0,L|354:53,1,111,2|2,1:2|0:0,0:0:0:0:
510,179,170581,2,0,P|454:167|406:200,1,111,10|0,0:0|0:0,0:0:0:0:
363,256,171189,1,2,0:0:0:0:
276,127,171392,5,6,1:2:0:0:
276,127,172203,1,2,0:0:0:0:
276,127,172811,1,2,0:0:0:0:
197,153,173013,5,2,1:2:0:0:
197,153,173824,1,2,0:0:0:0:
197,153,174432,1,2,0:0:0:0:
119,182,174635,5,2,1:2:0:0:
188,237,174838,1,2,0:0:0:0:
188,237,175243,1,2,0:2:0:0:
115,277,175446,1,2,0:0:0:0:
171,384,175647,2,0,P|178:352|187:319,1,66.5999979675294,2|0,0:0|0:0,0:0:0:0:
255,260,176257,5,2,1:2:0:0:
486,362,176865,1,2,0:0:0:0:
486,362,176966,1,2,0:0:0:0:
486,362,177067,1,2,0:3:0:0:
436,231,177270,2,0,P|424:265|418:308,1,66.5999979675294,2|4,0:0|0:3,0:0:0:0:
418,315,177777,1,4,0:3:0:0:
418,315,177878,6,0,P|379:239|301:227,1,166.5,6|0,0:0|0:0,0:0:0:0:
207,355,178689,2,0,L|197:301,1,55.5,10|0,3:2|0:0,0:0:0:0:
226,228,179094,1,2,0:0:0:0:
152,161,179296,1,4,0:3:0:0:
238,58,179500,6,0,P|239:89|237:113,1,55.5,2|0,1:2|0:0,0:0:0:0:
164,86,179905,1,2,0:0:0:0:
77,154,180107,1,2,0:0:0:0:
53,22,180311,6,0,L|113:35,1,55.5,10|0,0:2|0:0,0:0:0:0:
164,86,180716,1,2,0:0:0:0:
17,119,180919,1,2,2:0:0:0:
17,119,181020,1,2,2:0:0:0:
17,119,181120,6,0,P|-1:169|16:231,1,111,2|0,1:2|0:0,0:0:0:0:
77,179,181730,1,2,0:0:0:0:
144,293,181931,2,0,L|165:171,1,111,8|0,0:0|0:0,0:0:0:0:
125,118,182540,1,2,0:0:0:0:
238,89,182743,6,0,P|249:143|241:204,2,111,2|2|10,1:2|0:0|0:0,0:0:0:0:
318,3,183757,1,2,0:0:0:0:
420,59,183959,1,2,0:0:0:0:
350,199,184162,1,2,0:0:0:0:
238,89,184365,5,2,1:2:0:0:
152,244,184567,2,0,L|169:135,1,111,6|4,0:0|0:3,0:0:0:0:
169,135,185074,1,4,0:3:0:0:
169,135,185175,1,8,0:0:0:0:
350,199,185378,1,8,0:3:0:0:
350,199,185784,1,2,0:0:0:0:
395,259,185986,6,0,L|450:270,1,55.5,6|0,1:2|0:0,0:0:0:0:
360,122,186392,2,0,L|415:133,1,55.5,4|4,0:3|0:3,0:0:0:0:
306,15,186797,6,2,L|297:56,1,33.3,8|0,0:0|0:3,0:0:0:0:
244,97,187203,2,0,L|246:108,4,7.4,2|2|2|2|2,0:0|0:0|0:0|0:0|0:0,0:0:0:0:
299,47,187608,6,0,L|433:74,1,133.199995935059,6|0,0:0|0:3,0:0:0:0:
494,121,188216,1,2,0:0:0:0:
371,223,188419,2,0,L|240:196,1,133.199995935059,8|0,0:0|0:3,0:0:0:0:
183,141,189027,1,2,0:0:0:0:
61,210,189230,6,0,P|39:256|50:307,1,99.899996951294,2|0,1:2|0:0,0:0:0:0:
58,323,189635,2,0,L|126:311,1,66.5999979675294,2|0,0:0|0:0,0:0:0:0:
217,216,190040,2,0,L|314:235,1,99.899996951294,8|0,0:0|0:3,0:0:0:0:
334,249,190446,2,0,P|346:285|340:321,1,66.5999979675294,2|0,0:0|0:0,0:0:0:0:
452,236,190851,6,0,L|472:99,1,133.199995935059,2|0,1:2|0:0,0:0:0:0:
459,25,191459,1,0,0:0:0:0:
318,147,191662,2,0,P|263:178|195:153,1,133.199995935059,8|0,0:0|0:0,0:0:0:0:
168,84,192270,1,2,0:0:0:0:
36,196,192473,6,0,P|47:260|55:333,1,133.199995935059,2|0,1:2|0:0,0:0:0:0:
115,380,193081,1,2,0:0:0:0:
188,244,193284,5,10,0:0:0:0:
36,196,193486,1,2,0:0:0:0:
31,40,193689,1,2,0:0:0:0:
31,40,194094,5,2,1:2:0:0:
107,82,194297,2,0,B|189:83|152:54|238:54,1,133.199995935059,2|0,0:0|0:0,0:0:0:0:
369,114,194905,1,10,0:0:0:0:
238,180,195108,1,2,0:0:0:0:
308,51,195311,2,0,L|293:127,1,66.5999979675294,2|0,0:0|0:0,0:0:0:0:
409,209,195716,5,2,1:2:0:0:
352,265,195919,2,0,L|222:238,1,133.199995935059,2|0,0:0|0:0,0:0:0:0:
85,142,196527,2,0,P|133:132|165:91,1,99.899996951294,8|0,0:0|0:0,0:0:0:0:
172,69,196932,2,0,L|182:145,1,66.5999979675294,2|0,0:0|0:0,0:0:0:0:
57,248,197338,6,0,B|108:262|108:262|122:286|122:286|177:300,1,133.199995935059,2|0,1:2|0:0,0:0:0:0:
281,249,197946,1,2,0:0:0:0:
180,135,198148,2,0,L|170:211,1,66.5999979675294,8|0,0:0|0:0,0:0:0:0:
252,375,198554,2,0,L|242:299,1,66.5999979675294,2|0,0:0|0:0,0:0:0:0:
291,163,198959,5,2,1:2:0:0:
173,299,199162,1,2,0:0:0:0:
85,142,199365,2,0,L|9:132,1,66.5999979675294,2|0,0:0|0:0,0:0:0:0:
187,25,199770,6,0,P|235:32|267:78,1,99.899996951294,10|0,0:0|0:0,0:0:0:0:
274,92,200175,2,0,L|343:83,1,66.5999979675294,2|0,0:0|0:0,0:0:0:0:
175,168,200581,6,0,B|181:238|143:226|140:298,1,133.199995935059,6|0,1:2|0:0,0:0:0:0:
184,361,201189,1,2,0:0:0:0:
261,269,201392,2,0,L|393:295,1,133.199995935059,8|0,0:0|0:0,0:0:0:0:
465,263,202000,1,2,0:0:0:0:
386,173,202203,6,0,P|390:130|409:76,1,99.899996951294,2|0,1:2|0:0,0:0:0:0:
422,57,202608,2,0,L|355:44,1,66.5999979675294,2|0,0:0|0:0,0:0:0:0:
271,125,203013,2,0,P|226:143|171:128,1,99.899996951294,10|0,0:0|0:0,0:0:0:0:
157,119,203419,2,0,L|166:191,1,66.5999979675294,2|0,0:0|0:0,0:0:0:0:
286,331,203824,6,0,L|304:187,1,133.199995935059,2|0,1:2|0:0,0:0:0:0:
271,125,204432,1,2,0:0:0:0:
424,13,204635,2,0,P|483:29|496:101,1,133.199995935059,10|0,0:0|0:0,0:0:0:0:
431,135,205243,1,2,0:0:0:0:
512,297,205446,6,0,B|430:289|465:324|381:324,1,133.199995935059,2|0,1:2|0:0,0:0:0:0:
321,275,206054,1,2,0:0:0:0:
181,376,206257,6,0,L|46:354,1,133.199995935059,10|0,0:0|0:0,0:0:0:0:
0,292,206865,1,2,0:0:0:0:
136,176,207066,6,0,L|201:186,1,66.5999979675294,2|0,1:2|0:0,0:0:0:0:
267,140,207472,1,2,0:0:0:0:
308,253,207674,1,0,0:0:0:0:
467,154,207877,2,0,P|439:140|404:139,1,66.5999979675294,8|0,0:2|0:0,0:0:0:0:
334,178,208283,1,2,0:0:0:0:
406,275,208486,1,2,3:2:0:0:
263,373,208689,6,0,L|252:307,1,66.5999979675294,2|0,1:2|0:0,0:0:0:0:
334,178,209094,1,2,3:2:0:0:
308,253,209297,1,0,0:0:0:0:
266,101,209500,5,8,0:0:0:0:
206,154,209703,2,0,L|184:286,1,133.199995935059,2|0,0:2|0:0,0:0:0:0:
50,373,210311,6,0,P|39:343|44:309,1,66.5999979675294,2|0,1:2|0:0,0:0:0:0:
107,162,210716,2,0,P|118:192|113:226,1,66.5999979675294,2|0,0:2|0:0,0:0:0:0:
155,361,211121,2,0,P|202:365|246:333,1,99.899996951294,8|0,0:0|0:0,0:0:0:0:
257,315,211527,2,0,L|329:331,1,66.5999979675294,2|0,0:0|0:0,0:0:0:0:
394,242,211932,6,0,P|441:232|495:223,1,99.8999969512941,2|0,1:2|0:0,0:0:0:0:
384,255,212607,6,0,B|405:147|405:147|388:109,1,133.199995935059,2|0,0:0|0:0,0:0:0:0:
351,52,213554,5,6,0:0:0:0:
275,36,213959,1,2,0:0:0:0:
218,89,214365,1,2,0:0:0:0:
142,75,214770,1,2,0:0:0:0:
82,125,215175,5,2,0:0:0:0:
82,125,215986,1,2,0:0:0:0:
192,159,216392,1,2,0:0:0:0:
303,189,216797,5,2,0:0:0:0:
291,266,217203,1,2,0:0:0:0:
216,244,217608,1,2,0:0:0:0:
200,320,218013,1,2,0:0:0:0:
125,299,218419,5,2,0:0:0:0:
440,193,219230,1,2,0:0:0:0:
158,17,220040,5,2,0:0:0:0:
173,93,220446,1,2,0:0:0:0:
97,78,220851,1,2,0:0:0:0:
106,155,221257,1,2,0:0:0:0:
31,135,221662,5,2,0:0:0:0:
31,135,222473,1,2,0:0:0:0:
40,218,222878,1,2,0:0:0:0:
60,366,223284,5,6,0:0:0:0:
311,248,223689,1,2,0:0:0:0:
81,75,224094,1,10,0:0:0:0:
221,353,224500,1,10,0:0:0:0:
369,55,224905,6,0,P|341:49|313:40,1,55.5,12|0,0:0|0:0,0:0:0:0:
218,172,225311,2,0,P|244:163|271:157,1,55.5,2|0,1:2|0:0,0:0:0:0:
210,50,225716,6,0,P|204:22|197:0,2,37,10|4|4,0:0|0:3|0:3,0:0:0:0:
132,47,226120,5,10,3:2:0:0:
68,85,226257,5,10,3:2:0:0:
52,157,226392,5,10,3:2:0:0:
91,224,226527,6,0,B|160:243|160:243|192:283|192:283|270:302,1,199.799993902588,6|0,0:0|0:0,0:0:0:0:
435,216,227338,2,0,P|408:196|375:190,1,66.5999979675294,8|0,0:0|0:0,0:0:0:0:
262,217,227743,1,2,0:0:0:0:
369,347,227946,1,2,0:0:0:0:
262,217,228148,6,0,L|272:151,1,66.5999979675294,2|0,1:2|0:0,0:0:0:0:
168,28,228554,2,0,L|178:94,1,66.5999979675294,2|0,3:2|0:0,0:0:0:0:
42,241,228959,2,0,L|62:109,1,133.199995935059,8|0,0:2|0:0,0:0:0:0:
157,326,229567,1,2,0:0:0:0:
157,326,229669,1,2,0:0:0:0:
157,326,229770,6,0,B|202:340|202:340|258:318|277:269|261:214,1,199.799993902588,2|0,1:2|0:0,0:0:0:0:
174,51,230581,2,0,L|184:117,1,66.5999979675294,8|0,0:2|0:0,0:0:0:0:
136,205,230986,1,2,0:0:0:0:
255,98,231189,1,2,0:0:0:0:
401,163,231392,5,2,3:2:0:0:
182,343,231662,5,2,3:2:0:0:
261,216,231932,5,2,3:2:0:0:
154,268,232203,5,10,3:2:0:0:
283,305,232507,5,2,3:2:0:0:
391,384,232811,5,2,3:2:0:0:
427,317,233013,6,0,L|464:118,1,199.799993902588,6|0,0:0|0:0,0:0:0:0:
335,147,233823,2,0,L|346:217,1,66.5999979675294,8|0,0:0|0:0,0:0:0:0:
285,333,234230,1,2,0:0:0:0:
261,218,234432,1,2,0:0:0:0:
427,317,234635,6,0,P|396:303|361:298,1,66.5999979675294,2|0,1:2|0:0,0:0:0:0:
285,333,235040,2,0,P|262:342|238:344,2,44.3999986450196,2|2|2,0:0|0:0|0:0,0:0:0:0:
363,378,235446,2,0,L|386:384,9,22.1999993225098,10|0|2|0|2|0|2|0|2|0,0:0|0:0|0:0|0:0|0:0|0:0|0:0|0:0|0:0|0:0,0:0:0:0:
285,333,236257,6,0,P|202:318|128:299,1,133.199995935059,2|0,1:2|0:0,0:0:0:0:
63,328,236864,1,2,0:0:0:0:
29,240,237067,5,10,3:2:0:0:
148,20,237371,5,2,3:2:0:0:
375,125,237675,5,2,3:2:0:0:
361,206,237878,5,6,3:2:0:0:
157,157,238182,5,2,3:2:0:0:
9,306,238486,5,2,3:2:0:0:
56,373,238689,5,6,3:2:0:0:
168,294,238892,1,2,3:2:0:0:
168,294,238993,1,2,3:2:0:0:
168,294,239094,2,0,L|163:330,1,33.2999989837647,12|0,3:3|0:0,0:0:0:0:
82,196,239297,2,0,L|77:160,1,33.2999989837647,12|0,3:3|0:0,0:0:0:0:
191,66,239499,6,2,B|232:76|269:67|269:67|307:85|307:85|341:76|391:85,1,199.799993902588,6|0,0:0|0:0,0:1:0:0:
507,212,240311,2,0,P|477:225|444:223,1,66.5999979675294,8|0,0:0|0:0,0:0:0:0:
310,163,240716,1,2,0:0:0:0:
465,102,240919,1,0,0:0:0:0:
369,252,241120,6,2,B|322:242|322:242|299:276|247:277,1,133.199995935059,2|0,1:2|0:0,0:0:0:0:
145,213,241730,1,2,0:0:0:0:
218,57,241932,2,0,P|227:88|234:129,1,66.5999979675294,8|0,0:0|0:0,0:0:0:0:
240,145,242236,1,2,0:0:0:0:
240,145,242337,2,0,B|228:179|228:179|223:211,1,66.5999979675294,2|0,0:0|0:0,0:0:0:0:
76,374,242743,6,2,B|58:342|39:329|39:329|50:284|50:284|47:251|47:251|59:190,1,199.799993902588,2|0,1:2|0:0,0:1:0:0:
89,56,243554,1,8,0:0:0:0:
138,194,243757,1,2,0:0:0:0:
8,128,243959,1,2,0:0:0:0:
174,111,244162,1,2,0:0:0:0:
126,271,244365,5,2,1:2:0:0:
87,81,244567,1,2,0:0:0:0:
87,81,244669,1,2,0:0:0:0:
87,81,244770,1,2,0:0:0:0:
265,137,244973,1,2,0:0:0:0:
220,331,245175,1,10,0:0:0:0:
74,194,245378,1,2,0:0:0:0:
252,219,245580,2,0,P|220:229|187:236,1,66.5999979675294,2|0,0:0|0:0,0:0:0:0:
22,299,245985,6,2,B|62:314|99:311|99:311|137:335|137:335|172:331|216:346,1,199.799993902588,2|0,1:2|0:0,0:1:0:0:
358,213,246796,2,0,L|345:281,1,66.5999979675294,8|0,0:0|0:0,0:1:0:0:
287,369,247203,1,2,0:0:0:0:
246,221,247405,1,0,0:0:0:0:
382,112,247608,6,2,B|330:107|307:135|307:135|273:120|273:120|240:150|188:145,1,199.799993902588,2|0,1:2|0:0,0:0:0:0:
37,254,248419,2,0,L|137:276,1,66.5999979675294,8|0,0:0|0:0,0:0:0:0:
117,284,248723,1,2,0:0:0:0:
117,284,248824,1,2,0:0:0:0:
198,145,249027,1,2,0:0:0:0:
287,369,249229,5,4,0:0:0:0:
256,192,249330,12,2,250850,0:0:0:0:
253,210,251661,6,0,L|264:144,2,66.5999979675294,2|2|6,0:0|0:0|0:0,0:0:0:0:
208,43,261797,6,0,L|214:78,1,33.2999989837647,2|0,0:3|0:0,0:0:0:0:
297,132,262000,2,0,L|303:97,1,33.2999989837647,2|0,0:3|0:0,0:0:0:0:
198,172,262203,5,6,0:0:0:0:
415,17,262608,1,12,0:3:0:0:
512,265,263013,2,0,L|444:248,1,66.5999979675294,10|0,0:0|0:0,0:0:0:0:
297,132,263418,6,0,P|312:117|336:109,1,44.3999986450196,12|12,0:3|0:3,0:3:0:0:
413,103,263688,5,12,0:3:0:0:
467,162,263823,5,6,1:2:0:0:
57,367,264634,2,2,P|51:344|41:316,1,49.949998475647,8|0,0:0|0:0,0:0:0:0:
101,273,265040,1,2,0:0:0:0:
105,253,265142,1,2,0:0:0:0:
109,232,265243,1,2,0:0:0:0:
113,211,265344,1,2,0:0:0:0:
117,187,265446,6,0,L|251:211,1,133.199995935059,6|0,0:0|0:0,0:0:0:0:
367,271,266054,1,2,0:0:0:0:
274,367,266257,2,0,P|269:337|272:301,1,66.5999979675294,8|0,0:0|0:0,0:0:0:0:
351,162,266662,1,2,0:0:0:0:
442,294,266865,1,2,3:2:0:0:
504,91,267067,6,0,P|509:121|502:191,1,99.899996951294,2|0,1:2|0:0,0:0:0:0:
496,213,267473,2,0,L|420:196,1,66.5999979675294,2|0,0:0|0:0,0:0:0:0:
340,67,267878,2,0,P|287:64|244:102,1,99.899996951294,8|0,0:0|0:0,0:0:0:0:
238,110,268284,2,0,L|247:185,1,66.5999979675294,2|0,0:0|0:0,0:0:0:0:
340,338,268689,6,0,B|292:326|292:326|270:299|270:299|216:287,1,133.199995935059,2|0,1:2|0:0,0:0:0:0:
69,354,269297,1,2,0:0:0:0:
117,194,269500,2,0,P|128:232|132:264,1,66.5999979675294,8|0,0:0|0:0,0:0:0:0:
219,158,269905,1,2,0:0:0:0:
66,92,270108,1,2,3:2:0:0:
225,0,270311,6,0,P|214:38|210:70,1,66.5999979675294,2|0,1:2|0:0,0:0:0:0:
91,5,270716,1,2,0:0:0:0:
219,158,270919,1,2,0:0:0:0:
35,234,271121,6,0,P|24:196|20:164,1,66.5999979675294,10|0,0:2|0:0,0:0:0:0:
73,4,271527,2,0,P|89:61|95:109,1,99.899996951294,2|0,0:2|0:0,0:0:0:0:
92,124,271932,6,0,L|159:114,1,66.5999979675294,2|0,1:2|0:0,0:0:0:0:
300,213,272338,1,2,0:0:0:0:
138,263,272540,1,2,0:0:0:0:
230,124,272743,2,0,P|233:160|228:192,1,66.5999979675294,8|0,0:0|0:0,0:0:0:0:
131,364,273148,1,2,0:0:0:0:
90,168,273351,1,2,0:0:0:0:
235,306,273554,6,0,P|301:308|370:299,1,133.199995935059,2|0,1:2|0:0,0:0:0:0:
509,211,274162,1,2,0:0:0:0:
372,116,274365,1,8,0:0:0:0:
493,2,274567,2,0,P|482:32|473:72,1,66.5999979675294,2|0,0:0|0:0,0:0:0:0:
440,235,274973,1,2,0:0:0:0:
440,235,275074,1,2,0:0:0:0:
440,235,275175,6,0,P|432:202|421:171,1,66.5999979675294,2|0,1:2|0:0,0:0:0:0:
340,17,275581,2,0,P|328:48|321:80,1,66.5999979675294,2|0,0:2|0:0,0:0:0:0:
349,218,275986,2,0,L|245:197,1,99.899996951294,8|0,0:0|0:0,0:0:0:0:
228,191,276392,2,0,L|236:260,1,66.5999979675294,2|0,0:0|0:0,0:0:0:0:
348,374,276797,6,0,P|397:346|404:271,1,133.199995935059,2|0,1:2|0:0,0:0:0:0:
349,218,277405,1,2,3:2:0:0:
256,348,277608,1,8,0:0:0:0:
211,282,277811,2,0,L|145:268,1,66.5999979675294,2|0,0:0|0:0,0:0:0:0:
228,191,278216,1,2,0:0:0:0:
144,7,278419,6,0,L|116:138,1,133.199995935059,6|0,0:0|0:0,0:0:0:0:
58,192,279027,1,2,0:0:0:0:
161,344,279230,2,0,P|211:314|220:240,1,133.199995935059,8|0,0:0|0:0,0:0:0:0:
178,177,279838,1,2,0:0:0:0:
266,44,280040,6,0,P|329:58|401:70,1,133.199995935059,2|0,1:2|0:0,0:0:0:0:
475,54,280648,1,2,0:0:0:0:
454,213,280851,1,8,0:0:0:0:
387,169,281054,2,0,L|376:237,1,66.5999979675294,2|0,0:0|0:0,0:0:0:0:
255,339,281459,2,0,L|249:305,1,33.2999989837647,2|0,0:0|0:0,0:0:0:0:
175,249,281662,6,0,L|185:183,1,66.5999979675294,2|0,1:2|0:0,0:0:0:0:
266,44,282067,2,0,L|276:109,1,66.5999979675294,2|0,0:0|0:0,0:0:0:0:
376,234,282473,2,0,L|277:213,1,99.899996951294,8|0,0:2|0:0,0:0:0:0:
255,209,282878,2,0,L|265:274,1,66.5999979675294,2|0,0:2|0:0,0:0:0:0:
135,369,283284,6,0,B|109:332|109:332|135:275,1,99.8999969512941,2|0,1:2|0:0,0:0:0:0:
144,380,283959,6,0,L|125:237,1,133.199995935059,2|0,0:0|0:0,0:0:0:0:
82,174,284905,5,2,1:2:0:0:
94,98,285716,1,2,0:0:0:0:
165,65,286527,1,2,0:0:0:0:
165,65,287743,1,2,0:0:0:0:
241,81,287946,1,2,0:0:0:0:
298,29,288148,5,2,0:0:0:0:
278,161,288757,5,2,0:0:0:0:
258,293,289365,5,2,0:0:0:0:
211,225,289770,5,2,0:0:0:0:
492,325,291027,1,2,0:0:0:0:
489,214,291483,5,2,0:0:0:0:
426,169,291835,1,2,0:0:0:0:
350,187,292240,1,2,0:0:0:0:
325,261,292624,1,2,0:0:0:0:
378,347,293065,5,2,0:0:0:0:
455,47,294295,1,2,0:0:0:0:
388,112,294715,6,0,P|348:109|314:88,1,77.6999976287843,2|2,0:0|0:0,0:0:0:0:
181,243,295625,2,0,P|208:211|250:202,1,85.4699983045807,2|2,0:0|0:0,0:0:0:0:
171,56,296743,5,2,0:0:0:0:
85,114,297411,5,2,0:0:0:0:
86,217,298011,5,2,0:0:0:0:
181,244,298730,5,2,0:0:0:0:
265,167,299606,6,0,P|264:183|263:198,1,27.75,2|2,0:0|0:0,0:0:0:0:
260,147,299780,6,0,B|229:138|221:102|134:109|92:195|146:235|140:281|173:285|173:285|194:304|215:282|246:282|273:297|275:328|308:316|308:316|332:328|345:275|405:259|404:175|357:142|325:161|298:157|298:157|267:114|327:71|327:71|273:79|201:37,1,888,12|2,0:0|0:0,0:0:0:0:
