osu file format v14

[General]
AudioFilename: audio.mp3
AudioLeadIn: 0
PreviewTime: 38346
Countdown: 0
SampleSet: Soft
StackLeniency: 0.4
Mode: 0
LetterboxInBreaks: 0
WidescreenStoryboard: 1

[Editor]
Bookmarks: 38784,52770
DistanceSpacing: 2
BeatDivisor: 4
GridSize: 4
TimelineZoom: 1

[Metadata]
Title:Koisuru Chikara (Speed up ver.)
TitleUnicode:Koisuru Chikara (Speed up ver.)
Artist:NANA
ArtistUnicode:NANA
Creator:SigurdV
Version:Nekogami
Source:Nekokoi ~ Nekogami Sama to Nekomimi no Tatari ~
Tags:neko
BeatmapID:2160912
BeatmapSetID:1033488

[Difficulty]
HPDrainRate:4
CircleSize:3.8
OverallDifficulty:9.2
ApproachRate:9.6
SliderMultiplier:1.4
SliderTickRate:1

[Events]
//Background and Video events
0,0,"catgirl.jpg",0,0
//Break Periods
//Storyboard Layer 0 (Background)
//Storyboard Layer 1 (Fail)
//Storyboard Layer 2 (Pass)
//Storyboard Layer 3 (Foreground)
//Storyboard Layer 4 (Overlay)
//Storyboard Sound Samples

[TimingPoints]
1488,291.375291375291,4,2,0,50,1,0
6150,-111.111111111111,4,2,1,50,0,0
10812,-66.6666666666667,4,2,1,65,0,1
17805,-66.6666666666667,4,2,1,50,0,0
20136,-66.6666666666667,4,2,1,50,0,0
20273,-83.3333333333333,4,2,1,50,0,0
26546,-100,4,2,1,50,0,0
28148,-76.9230769230769,4,2,1,50,0,0
33684,-76.9230769230769,4,2,1,50,0,0
37472,-55.5555555555556,4,2,1,50,0,0
38784,-83.3333333333333,4,2,1,50,0,0
52770,-66.6666666666667,4,2,1,65,0,1
60782,-76.9230769230769,4,2,1,50,0,0
62094,-66.6666666666667,4,2,1,65,0,1
65444,-76.9230769230769,4,2,1,50,0,0
66756,-66.6666666666667,4,2,1,65,0,1
70398,-76.9230769230769,4,2,1,50,0,0
71418,-66.6666666666667,4,2,1,65,0,1
73749,-76.9230769230769,4,2,1,50,0,0
76080,-66.6666666666667,4,2,1,65,0,1
83073,-76.9230769230769,4,2,1,50,0,0

[HitObjects]
60,0,1050,5,0,0:0:0:0:
36,76,1196,1,0,0:0:0:0:
60,152,1342,1,0,0:0:0:0:
36,228,1488,6,0,P|84:240|116:268,2,70
0,384,1925,2,0,P|44:344|132:344,1,140
256,384,2362,5,0,0:0:0:0:
200,204,2507,1,0,0:0:0:0:
264,360,2653,5,0,0:0:0:0:
316,192,2799,1,0,0:0:0:0:
240,366,2944,5,0,0:0:0:0:
416,344,3090,6,0,B|380:288|412:244|412:244|440:200|412:144,1,210
512,0,3673,5,0,0:0:0:0:
320,60,3819,2,0,P|360:76|396:72,1,70
176,16,4110,2,0,P|216:0|252:4,1,70
124,136,4401,5,0,0:0:0:0:
72,0,4547,1,0,0:0:0:0:
0,192,4693,1,0,0:0:0:0:
176,256,4838,5,0,0:0:0:0:
0,384,5130,1,0,0:0:0:0:
256,320,5421,5,0,0:0:0:0:
0,192,5712,1,0,0:0:0:0:
336,384,6150,6,0,P|372:332|370:256,1,125.999996154785
312,192,6732,1,0,0:0:0:0:
512,256,7024,1,0,0:0:0:0:
464,112,7315,6,0,P|416:128|356:116,1,94.499997116089
512,0,7606,1,0,0:0:0:0:
279,70,7752,1,0,0:0:0:0:
256,248,8043,5,0,0:0:0:0:
204,24,8189,1,0,0:0:0:0:
136,296,8335,1,0,0:0:0:0:
80,48,8481,5,0,0:0:0:0:
256,248,8626,1,0,0:0:0:0:
0,192,8772,1,0,0:0:0:0:
332,192,8918,5,0,0:0:0:0:
136,296,9063,1,0,0:0:0:0:
204,24,9209,1,0,0:0:0:0:
256,248,9355,5,0,0:0:0:0:
373,123,9500,5,0,0:0:0:0:
296,328,9792,1,0,0:0:0:0:
512,288,10083,1,0,0:0:0:0:
328,24,10229,6,0,P|340:72|312:160,1,125.999996154785
322,145,10666,1,0,0:0:0:0:
464,40,10812,5,4,3:0:0:0:
504,332,10958,1,0,3:0:0:0:
333,24,11103,5,12,3:0:0:0:
278,351,11250,1,0,3:0:0:0:
452,48,11394,5,4,3:0:0:0:
476,329,11540,1,0,3:0:0:0:
298,20,11685,5,12,3:0:0:0:
272,336,11832,1,0,3:0:0:0:
429,23,11977,5,4,3:0:0:0:
469,315,12123,1,0,3:0:0:0:
301,22,12268,5,12,3:0:0:0:
234,323,12414,1,0,3:0:0:0:
410,28,12560,5,4,3:0:0:0:
439,307,12705,1,0,3:0:0:0:
268,0,12851,5,12,3:0:0:0:
368,208,13143,5,4,3:0:0:0:
76,84,13289,1,0,3:0:0:0:
392,96,13434,5,12,3:0:0:0:
96,264,13581,1,0,3:0:0:0:
356,204,13725,5,4,3:0:0:0:
62,55,13871,1,0,3:0:0:0:
380,79,14016,5,12,3:0:0:0:
75,259,14163,1,0,3:0:0:0:
331,182,14308,5,4,3:0:0:0:
48,61,14454,1,0,3:0:0:0:
374,79,14599,5,12,3:0:0:0:
56,225,14745,1,0,3:0:0:0:
322,172,14891,5,4,3:0:0:0:
24,39,15036,1,0,3:0:0:0:
348,57,15182,5,12,3:0:0:0:
180,72,15476,5,4,3:0:0:0:
340,356,15622,1,0,3:0:0:0:
298,24,15766,5,12,3:0:0:0:
205,355,15913,1,0,3:0:0:0:
219,72,16057,5,4,3:0:0:0:
350,349,16203,1,0,3:0:0:0:
324,25,16347,5,12,3:0:0:0:
234,344,16493,1,0,3:0:0:0:
236,54,16640,5,4,3:0:0:0:
394,361,16785,1,0,3:0:0:0:
353,28,16930,5,12,3:0:0:0:
262,332,17075,1,0,3:0:0:0:
267,57,17222,5,4,3:0:0:0:
420,352,17367,1,0,3:0:0:0:
388,24,17513,5,12,3:0:0:0:
284,332,17659,1,0,3:0:0:0:
256,192,17805,5,6,0:0:0:0:
0,384,18242,5,6,0:0:0:0:
120,140,18387,1,6,0:0:0:0:
0,0,18824,5,2,3:0:0:0:
196,100,19116,1,2,3:0:0:0:
352,0,19407,5,2,3:0:0:0:
256,192,19553,1,2,3:0:0:0:
256,192,19844,5,0,3:0:0:0:
468,132,20136,5,0,0:0:0:0:
512,320,20281,2,0,P|478:365|435:396,1,83.9999974365235
468,132,20573,5,0,0:0:0:0:
512,212,20718,1,0,0:0:0:0:
420,296,20864,2,0,P|376:308|336:301,1,83.9999974365235
382,84,21155,6,0,L|362:185,1,83.9999974365235
172,261,21447,1,0,0:0:0:0:
267,233,21592,1,0,0:0:0:0:
243,329,21738,1,0,0:0:0:0:
172,261,22029,5,0,0:0:0:0:
243,329,22175,1,0,0:0:0:0:
256,148,22321,1,0,0:0:0:0:
117,132,22467,1,0,0:0:0:0:
0,384,22612,6,0,P|24:340|37:274,1,83.9999974365235
0,192,22904,1,0,0:0:0:0:
117,132,23049,1,0,0:0:0:0:
7,61,23195,1,0,0:0:0:0:
184,8,23486,6,0,P|256:40|356:24,1,167.999994873047
448,0,23923,1,0,0:0:0:0:
512,72,24069,2,0,P|480:164|504:252,1,167.999994873047
320,304,24506,1,0,0:0:0:0:
496,360,24652,1,0,0:0:0:0:
388,176,24798,6,0,P|328:192|220:176,1,167.999994873047
204,304,25235,2,0,P|193:344|175:382,1,83.9999974365235
40,192,25526,2,0,P|47:233|61:272,1,83.9999974365235
208,68,25817,6,0,P|140:88|28:72,1,167.999994873047
208,192,26254,1,0,0:0:0:0:
292,0,26400,1,0,0:0:0:0:
328,236,26546,6,0,L|312:156,1,70
432,28,26837,2,0,L|416:108,1,70
492,204,27129,5,0,0:0:0:0:
316,219,27420,1,0,0:0:0:0:
420,360,27711,1,0,0:0:0:0:
396,120,28003,1,0,0:0:0:0:
304,384,28148,6,0,P|242:334|124:311,1,181.999991668702
143,310,28513,1,0,0:0:0:0:
143,310,28585,1,0,0:0:0:0:
0,384,28731,1,0,0:0:0:0:
120,188,28877,6,0,P|76:224|24:232,1,90.9999958343508
112,40,29168,2,0,P|152:60|188:96,1,90.9999958343508
184,91,29387,1,0,0:0:0:0:
184,91,29460,1,0,0:0:0:0:
284,204,29605,5,0,0:0:0:0:
256,24,29751,1,0,0:0:0:0:
248,232,29897,5,0,0:0:0:0:
276,52,30043,1,0,0:0:0:0:
380,112,30188,6,0,P|395:69|403:24,1,90.9999958343508
401,240,30479,2,0,P|471:202|510:136,1,136.499993751526
384,140,30771,5,0,0:0:0:0:
500,288,30916,1,0,0:0:0:0:
313,314,31062,1,0,0:0:0:0:
216,204,31208,6,0,P|205:275|175:309,1,90.9999958343508
80,268,31499,2,0,P|90:339|120:373,1,90.9999958343508
100,353,31791,1,0,0:0:0:0:
200,104,31936,5,0,0:0:0:0:
32,188,32082,1,0,0:0:0:0:
60,56,32228,1,0,0:0:0:0:
216,128,32373,1,0,0:0:0:0:
336,32,32519,6,0,P|328:80|300:132,1,90.9999958343508
428,232,32810,2,0,P|412:184|440:67,1,136.499993751526
512,188,33102,5,0,0:0:0:0:
456,364,33247,1,0,0:0:0:0:
331,227,33393,1,0,0:0:0:0:
264,340,33684,6,0,L|276:388,1,45.4999979171754
160,268,33830,2,0,L|140:384,1,90.9999958343508
276,132,34122,6,0,P|196:156|112:152,1,136.499993751526
192,72,34413,1,0,0:0:0:0:
12,0,34559,6,0,P|0:80|8:120,1,90.9999958343508
48,244,34850,2,0,P|60:324|52:364,1,90.9999958343508
164,176,35141,6,0,P|231:172|296:151,1,136.499993751526
376,40,35433,5,0,0:0:0:0:
196,92,35578,1,0,0:0:0:0:
332,222,35724,1,0,0:0:0:0:
468,104,35870,5,0,0:0:0:0:
456,180,36015,1,0,0:0:0:0:
444,256,36161,1,0,0:0:0:0:
320,348,36307,5,0,0:0:0:0:
456,180,36453,1,0,0:0:0:0:
332,222,36598,1,0,0:0:0:0:
224,168,36744,1,0,0:0:0:0:
181,380,36890,6,0,P|168:296|134:189,1,181.999991668702
76,312,37327,1,0,0:0:0:0:
48,136,37472,5,0,0:0:0:0:
152,92,37618,1,0,0:0:0:0:
62,24,37764,1,0,0:0:0:0:
57,122,37909,5,0,0:0:0:0:
135,89,38055,1,0,0:0:0:0:
68,38,38201,1,0,0:0:0:0:
220,16,38346,5,0,0:0:0:0:
304,68,38492,1,0,0:0:0:0:
412,40,38638,1,0,0:0:0:0:
468,152,38784,6,0,P|460:212|472:272,1,83.9999974365235
304,384,39075,2,0,P|312:324|300:264,1,83.9999974365235
448,144,39366,6,0,P|440:204|452:264,1,83.9999974365235
284,376,39657,2,0,P|292:316|280:256,1,83.9999974365235
428,136,39949,6,0,P|420:196|432:256,1,83.9999974365235
264,368,40240,2,0,P|272:308|260:248,1,83.9999974365235
408,128,40532,6,0,P|400:188|412:248,1,83.9999974365235
244,360,40823,2,0,P|252:300|240:240,1,83.9999974365235
388,120,41115,6,0,P|380:180|392:240,1,83.9999974365235
224,352,41406,2,0,P|232:292|220:232,1,83.9999974365235
476,316,41697,6,0,P|409:318|344:306,1,125.999996154785
248,102,41989,1,0,0:0:0:0:
94,169,42134,2,0,P|82:230|85:293,1,125.999996154785
164,384,42426,5,0,0:0:0:0:
4,292,42571,1,0,0:0:0:0:
116,160,42717,2,0,P|104:221|108:268,1,83.9999974365235
100,40,43008,5,0,0:0:0:0:
208,68,43154,1,0,0:0:0:0:
292,16,43300,1,0,0:0:0:0:
420,84,43446,6,0,P|408:152|408:204,1,83.9999974365235
272,316,43737,2,0,P|284:248|284:196,1,83.9999974365235
440,80,44028,6,0,P|428:148|428:200,1,83.9999974365235
292,312,44319,2,0,P|304:244|304:192,1,83.9999974365235
500,348,44611,6,0,P|433:350|368:338,1,125.999996154785
427,162,44902,1,0,0:0:0:0:
508,368,45048,6,0,P|441:370|376:358,1,125.999996154785
435,182,45339,1,0,0:0:0:0:
512,272,45485,1,0,0:0:0:0:
308,124,45631,6,0,P|250:126|124:72,1,167.999994873047
200,328,46068,5,0,0:0:0:0:
152,192,46214,1,0,0:0:0:0:
24,384,46359,5,0,0:0:0:0:
72,248,46505,1,0,0:0:0:0:
200,328,46651,5,0,0:0:0:0:
136,72,46796,6,0,P|213:104|296:106,1,167.999994873047
432,12,47233,1,0,0:0:0:0:
384,192,47379,1,0,0:0:0:0:
512,108,47525,1,0,0:0:0:0:
284,260,47670,5,0,0:0:0:0:
476,296,47816,1,0,0:0:0:0:
296,106,47962,1,0,0:0:0:0:
384,384,48108,5,0,0:0:0:0:
384,384,48253,1,0,0:0:0:0:
512,108,48399,1,0,0:0:0:0:
284,260,48545,1,0,0:0:0:0:
168,136,48690,5,0,0:0:0:0:
176,228,48836,1,0,0:0:0:0:
184,320,48982,1,0,0:0:0:0:
68,100,49127,1,0,0:0:0:0:
268,76,49273,5,0,0:0:0:0:
276,168,49419,1,0,0:0:0:0:
284,260,49565,1,0,0:0:0:0:
168,40,49710,1,0,0:0:0:0:
380,184,49856,5,0,0:0:0:0:
168,40,50001,1,0,0:0:0:0:
184,320,50147,1,0,0:0:0:0:
420,260,50293,1,0,0:0:0:0:
292,384,50439,5,0,0:0:0:0:
512,328,50876,5,0,0:0:0:0:
448,104,51021,1,0,0:0:0:0:
268,64,51458,5,0,0:0:0:0:
168,104,51750,1,0,0:0:0:0:
52,44,52041,5,0,0:0:0:0:
256,192,52187,1,0,0:0:0:0:
376,32,52478,5,0,0:0:0:0:
376,32,52770,5,4,3:0:0:0:
512,340,52915,1,0,3:0:0:0:
512,12,53061,5,4,3:0:0:0:
372,356,53208,1,0,3:0:0:0:
352,36,53352,5,4,3:0:0:0:
488,344,53498,1,0,3:0:0:0:
488,16,53643,5,4,3:0:0:0:
348,360,53790,1,0,3:0:0:0:
328,40,53935,5,4,3:0:0:0:
464,348,54081,1,0,3:0:0:0:
464,20,54226,5,4,3:0:0:0:
324,364,54372,1,0,3:0:0:0:
304,44,54518,6,0,P|298:114|316:196,1,105.000004005432,4|0,3:0|3:0,0:0:0:0:
440,352,54809,1,4,3:0:0:0:
280,28,54955,6,0,P|274:98|292:180,1,105.000004005432,0|4,3:0|3:0,0:0:0:0:
512,192,55246,1,0,3:0:0:0:
324,364,55392,5,4,3:0:0:0:
380,88,55538,1,0,3:0:0:0:
316,340,55683,5,4,3:0:0:0:
280,28,55829,1,0,3:0:0:0:
308,316,55975,5,4,3:0:0:0:
52,196,56120,2,0,P|104:200|156:194,1,105.000004005432,0|4,3:0|3:0,0:0:0:0:
80,16,56412,5,2,3:0:0:0:
152,368,56557,1,6,3:0:0:0:
104,20,56703,5,2,3:0:0:0:
176,372,56848,1,6,3:0:0:0:
128,24,56995,5,2,3:0:0:0:
200,376,57140,1,6,3:0:0:0:
288,140,57286,5,0,3:0:0:0:
464,352,57432,5,4,3:0:0:0:
412,168,57577,1,0,3:0:0:0:
279,306,57723,1,4,3:0:0:0:
460,68,57869,6,0,P|400:64|340:80,1,105.000004005432,0|4,3:0|3:0,0:0:0:0:
184,134,58160,6,0,P|235:143|287:139,1,105.000004005432,0|4,3:0|3:0,0:0:0:0:
44,352,58451,6,0,P|59:272|52:191,1,157.500006008148,0|0,3:0|0:0,0:0:0:0:
208,32,58743,5,0,3:0:0:0:
53,196,58888,1,4,3:0:0:0:
274,249,59034,1,0,3:0:0:0:
108,32,59180,5,4,3:0:0:0:
196,336,59325,1,0,3:0:0:0:
312,24,59471,5,4,3:0:0:0:
184,312,59617,1,0,3:0:0:0:
424,196,59763,5,6,3:0:0:0:
104,132,59908,1,2,3:0:0:0:
472,124,60054,5,6,3:0:0:0:
108,220,60200,1,2,3:0:0:0:
456,240,60345,5,6,3:0:0:0:
80,100,60491,1,2,3:0:0:0:
492,104,60637,5,6,3:0:0:0:
88,240,60782,5,6,3:0:0:0:
108,256,61074,5,6,0:0:0:0:
128,272,61365,5,6,0:0:0:0:
256,116,61511,1,6,0:0:0:0:
327,304,61656,6,0,P|338:280|341:249,2,45.4999979171754,0|0|0,3:0|3:0|3:0,3:0:0:0:
416,28,61948,6,0,L|424:88,1,45.4999979171754,0|0,3:3|3:3,3:3:0:0:
460,344,62094,1,4,3:0:0:0:
300,24,62239,5,0,3:0:0:0:
256,352,62385,1,4,3:0:0:0:
392,36,62531,5,0,3:0:0:0:
436,352,62677,1,4,3:0:0:0:
276,32,62822,5,0,3:0:0:0:
232,360,62968,1,4,3:0:0:0:
368,44,63113,5,0,3:0:0:0:
412,360,63259,1,4,3:0:0:0:
252,40,63404,5,0,3:0:0:0:
208,368,63550,1,4,3:0:0:0:
344,52,63696,5,0,3:0:0:0:
388,368,63842,6,0,P|394:298|376:216,1,105.000004005432,4|0,3:0|3:0,0:0:0:0:
228,48,64133,5,4,3:0:0:0:
412,360,64279,6,0,P|418:290|400:208,1,105.000004005432,0|4,3:0|3:0,0:0:0:0:
256,152,64570,1,0,3:0:0:0:
208,368,64716,5,4,3:0:0:0:
132,72,64862,1,0,3:0:0:0:
212,340,65007,5,4,3:0:0:0:
228,48,65153,1,0,3:0:0:0:
208,368,65299,5,4,3:0:0:0:
82,157,65444,5,6,0:0:0:0:
240,136,65736,5,2,0:0:0:0:
376,192,66027,5,6,0:0:0:0:
484,76,66319,5,2,0:0:0:0:
400,40,66464,5,0,3:0:0:0:
504,176,66610,1,0,3:3:0:0:
496,204,66683,1,0,3:3:0:0:
488,232,66756,5,4,3:3:0:0:
372,32,66901,1,0,3:0:0:0:
436,340,67047,5,4,3:0:0:0:
340,40,67193,1,0,3:0:0:0:
208,328,67338,5,4,3:0:0:0:
304,28,67484,1,0,3:0:0:0:
328,364,67630,5,4,3:0:0:0:
232,64,67776,1,0,3:0:0:0:
184,344,67921,6,0,P|192:288|168:204,1,105.000004005432,4|0,3:0|3:0,0:0:0:0:
84,52,68212,1,4,3:0:0:0:
52,376,68358,6,0,B|140:384|140:344|216:364,1,157.500006008148,0|0,3:0|0:0,0:0:0:0:
32,236,68650,5,0,3:0:0:0:
84,52,68795,1,4,3:0:0:0:
217,189,68941,1,0,3:0:0:0:
64,40,69087,5,6,3:0:0:0:
356,80,69232,1,2,3:0:0:0:
84,52,69378,1,2,3:0:0:0:
288,336,69524,5,2,0:0:0:0:
228,60,69669,1,2,3:0:0:0:
264,320,69815,1,2,3:0:0:0:
468,200,69961,5,2,3:0:0:0:
217,189,70106,1,6,0:0:0:0:
480,228,70398,5,6,0:0:0:0:
229,161,70689,1,6,0:0:0:0:
316,296,70835,5,6,0:0:0:0:
400,64,70981,1,2,3:0:0:0:
512,384,71126,1,10,0:0:0:0:
132,32,71418,5,4,3:0:0:0:
12,240,71563,1,0,3:0:0:0:
172,48,71709,5,4,3:0:0:0:
88,344,71855,1,0,3:0:0:0:
212,24,72000,5,4,3:0:0:0:
292,320,72146,1,0,3:0:0:0:
288,64,72292,5,4,3:0:0:0:
184,372,72438,1,0,3:0:0:0:
328,40,72583,6,0,P|320:96|344:180,1,105.000004005432,4|0,3:0|3:0,0:0:0:0:
428,332,72874,1,4,3:0:0:0:
460,8,73020,6,0,B|384:-4|384:40|280:20,1,157.500006008148
480,148,73312,5,0,3:0:0:0:
428,332,73457,1,4,3:0:0:0:
295,195,73603,1,0,3:0:0:0:
448,344,73749,5,6,3:0:0:0:
176,272,73894,1,2,3:0:0:0:
428,332,74040,1,2,3:0:0:0:
224,48,74186,5,6,3:0:0:0:
272,344,74331,1,2,3:0:0:0:
212,68,74477,1,2,3:0:0:0:
44,184,74623,5,2,3:0:0:0:
295,195,74768,1,6,3:0:0:0:
32,156,75060,5,6,3:0:0:0:
283,223,75351,1,6,3:0:0:0:
196,88,75497,5,6,3:0:0:0:
112,384,75643,1,2,3:0:0:0:
44,184,75788,1,10,0:0:0:0:
512,192,76080,5,4,3:0:0:0:
204,76,76226,1,0,3:0:0:0:
493,72,76371,5,12,3:0:0:0:
206,251,76518,1,0,3:0:0:0:
493,219,76662,5,4,3:0:0:0:
201,97,76808,1,0,3:0:0:0:
484,79,76955,5,12,3:0:0:0:
205,274,77100,1,0,3:0:0:0:
486,237,77246,5,4,3:0:0:0:
198,116,77392,1,0,3:0:0:0:
475,101,77537,5,12,3:0:0:0:
199,294,77684,1,0,3:0:0:0:
489,261,77829,5,4,3:0:0:0:
180,132,77974,1,0,3:0:0:0:
464,136,78120,5,12,3:0:0:0:
252,348,78411,5,4,3:0:0:0:
112,24,78556,1,0,3:0:0:0:
146,335,78702,5,12,3:0:0:0:
289,48,78848,1,0,3:0:0:0:
222,342,78994,5,4,3:0:0:0:
110,25,79140,1,0,3:0:0:0:
109,345,79285,5,12,3:0:0:0:
274,42,79431,1,0,3:0:0:0:
197,343,79577,5,4,3:0:0:0:
86,28,79723,1,0,3:0:0:0:
108,361,79868,5,12,3:0:0:0:
237,52,80013,1,0,3:0:0:0:
188,352,80159,5,4,3:0:0:0:
63,33,80305,1,0,3:0:0:0:
92,340,80450,5,4,3:0:0:0:
262,42,80742,5,4,3:0:0:0:
193,353,80888,1,0,3:0:0:0:
379,70,81033,5,12,3:0:0:0:
429,327,81180,1,0,3:0:0:0:
288,27,81324,5,4,3:0:0:0:
223,359,81470,1,0,3:0:0:0:
383,54,81616,5,12,3:0:0:0:
449,321,81761,1,0,3:0:0:0:
309,23,81907,5,4,3:0:0:0:
225,357,82052,1,0,3:0:0:0:
423,60,82198,5,12,3:0:0:0:
468,307,82344,1,0,3:0:0:0:
329,26,82490,5,4,3:0:0:0:
252,348,82636,1,0,3:0:0:0:
432,56,82781,5,8,3:3:0:0:
408,80,82854,1,0,3:3:0:0:
396,112,82927,1,0,3:3:0:0:
401,146,83000,1,0,3:3:0:0:
420,169,83073,5,6,0:0:0:0:
424,360,83510,5,6,0:0:0:0:
480,84,83655,1,6,0:0:0:0:
400,173,84092,5,2,3:0:0:0:
236,29,84384,1,2,3:0:0:0:
72,212,84675,5,2,3:0:0:0:
304,144,84821,1,2,3:0:0:0:
