osu file format v14

[General]
AudioFilename: optc.mp3
AudioLeadIn: 0
PreviewTime: 65481
Countdown: 0
SampleSet: Soft
StackLeniency: 0.7
Mode: 0
LetterboxInBreaks: 0
WidescreenStoryboard: 1

[Editor]
Bookmarks: 926,7263,19936,26273,38946,51620,57956,65877,78550,84887,91224,103897
DistanceSpacing: 1.2
BeatDivisor: 4
GridSize: 16
TimelineZoom: 2.3

[Metadata]
Title:Escalation heart (Short Ver.)
TitleUnicode:Escalation heart (Short Ver.)
Artist:NANA
ArtistUnicode:NANA
Creator:Shad0w1and
Version:Normal
Source:超昂天使エスカレイヤー・リブート
Tags:Choukou Tenshi Escalayer Reboot Beat Angel アリスソフト AliceSoft Alice Soft Japanese Video Game Jpop Pop Misure
BeatmapID:1391268
BeatmapSetID:654622

[Difficulty]
HPDrainRate:4
CircleSize:4
OverallDifficulty:5
ApproachRate:6
SliderMultiplier:1.3
SliderTickRate:1

[Events]
//Background and Video events
Video,0,"optc.flv"
0,0,"BG0.jpg",0,0
//Break Periods
//Storyboard Layer 0 (Background)
//Storyboard Layer 1 (Fail)
//Storyboard Layer 2 (Pass)
//Storyboard Layer 3 (Foreground)
//Storyboard Layer 4 (Overlay)
//Storyboard Sound Samples

[TimingPoints]
927,396.039603960396,4,2,1,70,1,0
927,-111.111111111111,4,2,1,70,0,0
7263,-100,4,2,1,80,0,0
26273,-100,4,2,1,80,0,1
38154,-100,4,2,1,80,0,0
38946,-100,4,2,1,60,0,0
51620,-111.111111111111,4,2,1,50,0,0
57956,-100,4,2,1,70,0,0
65877,-100,4,2,1,80,0,1
90035,-100,4,2,1,80,0,0
91224,-100,4,2,1,80,0,1
103897,-100,4,2,1,80,0,0
105481,-100,4,2,1,40,0,0
110233,-100,4,2,1,30,0,0

[Colours]
Combo1 : 255,224,130
Combo2 : 100,249,179
Combo3 : 117,180,255
Combo4 : 245,90,114

[HitObjects]
18,93,927,6,0,P|82:91|152:78,1,116.999996429443,6|0,0:1|0:0,0:0:0:0:
260,20,1719,2,0,P|309:30|388:43,1,116.999996429443,2|0,0:0|0:0,0:0:0:0:
463,150,2511,6,0,P|492:124|515:60,2,87.7499973220826,10|8|8,0:1|0:1|0:3,0:0:0:0:
432,213,3303,2,0,P|468:235|534:249,2,87.7499973220826,10|8|8,0:1|0:1|0:1,0:0:0:0:
370,246,4095,6,0,P|359:303|338:362,1,116.999996429443,14|0,0:1|0:0,0:0:0:0:
199,352,4887,2,0,P|181:287|175:225,1,116.999996429443,14|0,0:1|0:0,0:0:0:0:
45,184,5679,6,0,P|63:220|111:242,2,87.7499973220826,14|8|8,0:1|0:1|0:3,0:0:0:0:
114,171,6471,1,10,0:1:0:0:
160,38,6867,1,8,0:0:0:0:
314,72,7263,6,0,P|381:60|448:40,1,130,14|8,0:1|0:0,0:0:0:0:
482,192,8055,2,0,P|464:258|450:326,1,130,8|8,0:1|0:0,0:0:0:0:
307,262,8847,6,0,L|292:378,2,97.5,10|0|0,0:1|0:0|0:0,0:0:0:0:
241,220,9639,1,10,0:1:0:0:
102,290,10035,2,0,P|66:283|27:276,1,65,8|0,0:0|0:0,0:0:0:0:
42,199,10431,6,0,P|6:118|96:64,1,195,10|0,0:1|0:0,0:0:0:0:
152,88,11224,1,10,0:1:0:0:
307,100,11620,2,0,P|304:69|308:18,1,65,8|0,0:0|0:0,0:0:0:0:
383,39,12016,6,0,P|430:43|486:26,2,97.5,14|14|14,0:1|0:1|0:1,0:0:0:0:
306,35,12808,1,14,0:0:0:0:
201,151,13204,2,0,P|208:188|216:234,1,65,8|8,0:0|0:0,0:0:0:0:
178,285,13600,6,0,P|214:326|303:330,1,130,14|8,0:1|0:0,0:0:0:0:
441,326,14392,2,0,P|445:268|445:184,1,130,8|8,0:1|0:0,0:0:0:0:
334,87,15184,6,0,P|339:52|397:-10,2,97.5,10|0|0,0:1|0:0|0:0,0:0:0:0:
291,152,15976,2,0,P|225:147|149:134,1,130,10|8,0:1|0:0,0:0:0:0:
109,194,16570,1,0,0:0:0:0:
109,194,16768,6,0,P|52:175|31:99,1,130,10|8,0:1|0:0,0:0:0:0:
140,5,17560,2,0,P|198:10|274:11,1,130,8|8,0:1|0:0,0:0:0:0:
408,83,18352,6,0,B|472:81|528:51|528:51|500:92|503:135,1,195,10|0,0:1|0:0,0:0:0:0:
442,164,19144,2,0,B|397:164|356:177|356:177|307:149,1,130,10|8,0:1|0:0,0:0:0:0:
263,100,19738,1,8,0:1:0:0:
184,101,19936,6,0,P|165:177|158:236,1,130,14|8,0:1|0:0,0:0:0:0:
235,215,20530,2,0,P|249:269|265:341,1,130,14|8,0:1|0:1,0:0:0:0:
192,371,21125,2,0,P|158:370|121:353,1,65,8|8,0:0|0:1,0:0:0:0:
51,353,21521,6,0,P|37:304|30:254,1,97.5,14|8,0:1|0:1,0:0:0:0:
27,141,22115,2,0,P|61:88|78:10,2,130,14|8|8,0:1|0:1|0:1,0:0:0:0:
88,191,23105,6,0,P|134:218|219:196,1,130,14|8,0:1|0:0,0:0:0:0:
359,236,23897,2,0,P|348:181|339:116,1,97.5,14|12,0:1|0:0,0:0:0:0:
395,36,24491,2,0,P|334:24|264:48,1,130,14|8,0:1|0:0,0:0:0:0:
194,60,25085,1,8,0:0:0:0:
194,60,26273,6,0,P|211:127|220:188,1,130,14|8,0:1|0:0,0:0:0:0:
297,184,26867,1,0,0:0:0:0:
372,164,27065,2,0,P|432:180|474:258,1,130,8|8,0:1|0:0,0:0:0:0:
358,341,27857,6,0,P|311:365|262:371,2,97.5,10|2|2,0:1|0:0|0:0,0:0:0:0:
339,265,28649,2,0,P|269:256|202:257,1,130,10|8,0:1|0:0,0:0:0:0:
59,300,29441,6,0,P|8:262|51:150,1,195,10|2,0:1|0:0,0:0:0:0:
122,142,30233,2,0,P|134:89|150:2,1,130,10|8,0:1|0:0,0:0:0:0:
304,16,31026,6,0,P|369:53|328:159,1,195,10|2,0:1|0:0,0:0:0:0:
265,174,31818,2,0,P|257:235|262:314,1,130,10|8,0:1|0:0,0:0:0:0:
399,374,32610,6,0,P|455:346|468:285,1,130,14|8,0:1|0:0,0:0:0:0:
418,137,33402,2,0,P|360:147|288:154,1,130,10|8,0:1|0:0,0:0:0:0:
190,34,34194,5,10,0:1:0:0:
34,44,34590,1,10,0:0:0:0:
115,177,34986,2,0,P|155:216|203:229,2,97.5,10|2|2,0:1|0:0|0:0,0:0:0:0:
44,143,35778,6,0,B|42:212|22:268|22:268|80:309,1,195,10|2,0:1|0:0,0:0:0:0:
117,373,36570,2,0,P|186:367|267:371,1,130,10|8,0:1|0:0,0:0:0:0:
368,271,37362,6,0,P|384:190|283:143,1,195,14|2,0:1|0:0,0:0:0:0:
252,76,38154,2,0,P|313:62|386:41,1,130,14|8,0:0|0:0,0:0:0:0:
510,129,38946,6,0,P|507:202|509:267,1,130,14|8,0:1|0:0,0:0:0:0:
371,333,39738,2,0,P|314:332|277:271,1,130,8|8,0:1|0:0,0:0:0:0:
210,234,40332,6,0,P|155:262|122:153,1,195,2|8,0:0|0:0,0:0:0:0:
227,61,41323,2,0,P|185:57|149:53,1,65,8|0,0:1|0:0,0:0:0:0:
93,90,41719,2,0,P|62:93|18:94,1,65,8|0,0:0|0:0,0:0:0:0:
4,168,42115,5,10,0:1:0:0:
143,248,42511,1,8,0:0:0:0:
143,248,42709,2,0,P|258:230|210:331,1,260,2|0,0:0|0:0,0:0:0:0:
282,382,43699,5,10,0:1:0:0:
438,353,44095,1,8,0:0:0:0:
438,353,44293,2,0,P|463:304|435:228,1,130,2|0,0:0|0:0,0:0:0:0:
370,204,44887,1,8,0:0:0:0:
217,170,45283,6,0,P|157:128|119:78,1,130,10|8,0:1|0:0,0:0:0:0:
276,119,46075,2,0,P|327:149|373:210,1,130,8|8,0:1|0:0,0:0:0:0:
447,209,46669,6,0,P|493:185|441:69,1,195,2|0,0:0|0:0,0:0:0:0:
409,10,47461,2,0,P|332:30|267:40,1,130,2|0,0:0|0:0,0:0:0:0:
255,111,48055,2,0,P|256:147|259:186,1,65,8|0,0:0|0:0,0:0:0:0:
191,216,48451,6,0,P|105:243|64:164,1,195,10|0,0:1|0:0,0:0:0:0:
88,89,49243,2,0,B|173:82|216:61|216:61|264:122,1,195,10|0,0:1|0:0,0:0:0:0:
280,185,50035,6,0,P|367:203|391:111,1,195,10|8,0:1|0:1,0:0:0:0:
368,44,50827,2,0,P|303:39|226:30,1,130,6|8,0:0|0:0,0:0:0:0:
206,168,51620,6,0,P|188:205|160:255,2,87.7499973220826,14|8|8,0:1|0:1|0:1,0:0:0:0:
287,282,52610,2,0,P|259:291|230:293,1,58.4999982147217,8|8,0:1|0:0,0:0:0:0:
89,296,53204,6,0,P|86:326|94:383,2,87.7499973220826,10|8|8,0:1|0:1|0:1,0:0:0:0:
126,160,54194,2,0,P|102:169|65:176,1,58.4999982147217,8|8,0:1|0:0,0:0:0:0:
18,135,54590,1,8,0:1:0:0:
18,135,54788,6,0,L|32:34,2,87.7499973220826,10|8|8,0:1|0:1|0:1,0:0:0:0:
6,274,55778,2,0,L|29:336,1,58.4999982147217,8|8,0:1|0:0,0:0:0:0:
165,348,56372,6,0,P|200:358|261:340,2,87.7499973220826,10|8|8,0:1|0:1|0:1,0:0:0:0:
213,216,57362,2,0,P|220:190|222:141,1,58.4999982147217,8|14,0:0|0:3,0:0:0:0:
214,93,57758,1,8,0:1:0:0:
214,93,57956,6,0,P|270:96|354:95,1,130,14|8,0:1|0:0,0:0:0:0:
400,148,58550,1,0,0:0:0:0:
456,201,58748,2,0,P|440:265|428:343,1,130,8|14,0:1|0:0,0:0:0:0:
281,372,59540,6,0,P|233:361|134:347,1,130,14|8,0:1|0:0,0:0:0:0:
109,284,60134,1,0,0:0:0:0:
40,246,60332,2,0,P|28:191|1:108,1,130,8|14,0:1|0:0,0:0:0:0:
161,101,61125,6,0,P|201:107|238:112,1,65,14|0,0:1|0:0,0:0:0:0:
288,64,61521,2,0,P|321:63|374:62,1,65,8|0,0:0|0:0,0:0:0:0:
400,125,61917,2,0,P|388:162|370:224,1,97.5,14|12,0:1|0:0,0:0:0:0:
288,298,62511,6,0,P|179:364|185:219,1,325,14|8,0:1|0:1,0:0:0:0:
123,165,63699,2,0,P|89:150|41:141,1,65,10|10,0:0|0:0,0:0:0:0:
1,94,64095,6,0,B|29:32|66:18|66:18|117:53|135:91|135:91|201:60|201:60|259:100|319:93|319:93|296:70|292:41,1,455,14|8,0:1|0:0,0:0:0:0:
448,41,65877,6,0,P|473:106|441:163,1,130,14|8,0:1|0:0,0:0:0:0:
293,176,66669,2,0,P|284:207|284:248,1,65,8|0,0:1|0:0,0:0:0:0:
359,233,67065,2,0,P|367:272|380:311,1,65,8|0,0:0|0:0,0:0:0:0:
410,365,67461,6,0,P|459:377|516:345,2,97.5,10|0|0,0:1|0:0|0:0,0:0:0:0:
453,299,68253,2,0,P|475:233|513:175,1,130,10|8,0:1|0:0,0:0:0:0:
445,38,69045,6,0,P|374:19|319:40,1,130,10|8,0:1|0:0,0:0:0:0:
308,192,69837,2,0,P|272:196|228:196,1,65,8|0,0:1|0:0,0:0:0:0:
180,152,70233,2,0,P|147:149|117:140,1,65,8|0,0:0|0:0,0:0:0:0:
40,124,70629,6,0,P|35:81|20:13,2,97.5,10|0|0,0:1|0:0|0:0,0:0:0:0:
14,197,71422,2,0,P|12:260|64:299,1,130,10|8,0:1|0:0,0:0:0:0:
201,366,72214,6,0,P|262:347|332:339,1,130,14|8,0:1|0:0,0:0:0:0:
479,304,73006,2,0,P|492:277|518:242,1,65,8|0,0:1|0:0,0:0:0:0:
448,204,73402,2,0,P|447:174|439:125,1,65,8|0,0:0|0:0,0:0:0:0:
374,100,73798,6,0,P|383:72|403:-14,2,97.5,10|0|0,0:1|0:0|0:0,0:0:0:0:
300,127,74590,1,10,0:1:0:0:
154,71,74986,2,0,P|123:57|98:39,1,65,8|0,0:0|0:0,0:0:0:0:
37,88,75382,6,0,P|49:151|57:221,1,130,10|8,0:1|0:0,0:0:0:0:
27,288,75976,1,0,0:0:0:0:
96,322,76174,2,0,P|163:322|218:271,1,130,10|8,0:1|0:0,0:0:0:0:
263,226,76768,1,0,0:0:0:0:
313,285,76966,6,0,P|301:332|294:385,2,97.5,14|14|14,0:1|0:1|0:1,0:0:0:0:
370,232,77758,2,0,P|430:221|510:220,1,130,14|8,0:0|0:0,0:0:0:0:
465,66,78550,6,0,P|431:8|361:2,1,130,14|8,0:1|0:0,0:0:0:0:
217,5,79342,2,0,P|207:47|202:86,1,65,8|0,0:1|0:0,0:0:0:0:
254,127,79738,2,0,P|238:161|219:195,1,65,8|0,0:0|0:0,0:0:0:0:
147,191,80134,6,0,P|87:168|67:124,2,97.5,10|0|0,0:1|0:0|0:0,0:0:0:0:
167,266,80926,2,0,P|92:277|29:297,1,130,10|8,0:1|0:0,0:0:0:0:
1,358,81521,1,0,0:0:0:0:
75,382,81719,6,0,P|139:373|202:357,1,130,10|8,0:1|0:0,0:0:0:0:
358,351,82511,2,0,P|362:310|363:279,1,65,8|0,0:1|0:0,0:0:0:0:
439,268,82907,2,0,P|439:229|433:186,1,65,8|0,0:0|0:0,0:0:0:0:
471,133,83303,6,0,P|444:74|359:68,1,130,10|8,0:1|0:0,0:0:0:0:
248,134,84095,2,0,P|213:137|171:138,1,65,10|8,0:1|0:0,0:0:0:0:
151,66,84491,2,0,P|114:64|76:67,1,65,8|8,0:0|0:1,0:0:0:0:
40,128,84887,6,0,P|57:175|73:265,1,130,14|8,0:1|0:0,0:0:0:0:
121,313,85481,2,0,P|193:324|237:291,1,130,14|8,0:1|0:1,0:0:0:0:
237,214,86075,2,0,P|272:204|313:196,1,65,8|8,0:0|0:1,0:0:0:0:
373,223,86471,6,0,P|381:174|391:123,1,97.5,14|0,0:1|0:0,0:0:0:0:
423,14,87065,2,0,P|483:24|511:90,2,130,14|8|8,0:1|0:1|0:1,0:0:0:0:
356,55,88055,6,0,P|280:57|217:46,1,130,14|8,0:1|0:0,0:0:0:0:
73,20,88847,2,0,P|39:56|24:116,1,97.5,14|12,0:1|0:0,0:0:0:0:
123,162,89441,2,0,P|118:228|61:276,1,130,14|8,0:1|0:0,0:0:0:0:
38,340,90035,1,8,0:0:0:0:
38,340,91224,6,0,P|113:338|172:328,1,130,14|8,0:1|0:0,0:0:0:0:
194,256,91818,1,0,0:0:0:0:
231,187,92016,2,0,P|312:184|372:195,1,130,8|8,0:1|0:0,0:0:0:0:
326,40,92808,6,0,P|376:29|436:28,2,97.5,10|2|2,0:1|0:0|0:0,0:0:0:0:
248,31,93600,2,0,P|183:20|120:14,1,130,10|8,0:1|0:0,0:0:0:0:
21,135,94392,6,0,P|-7:194|20:262,1,130,10|8,0:1|0:0,0:0:0:0:
93,259,94986,1,2,0:0:0:0:
93,259,95184,2,0,P|176:265|226:285,1,130,10|8,0:1|0:0,0:0:0:0:
371,248,95976,6,0,P|386:178|393:114,1,130,10|8,0:1|0:0,0:0:0:0:
399,45,96570,1,2,0:0:0:0:
399,45,96768,2,0,P|342:30|267:63,1,130,10|8,0:1|0:0,0:0:0:0:
129,103,97560,6,0,P|142:171|152:246,1,130,14|8,0:1|0:0,0:0:0:0:
252,349,98352,2,0,P|305:336|360:271,1,130,10|8,0:1|0:0,0:0:0:0:
425,143,99144,1,10,0:1:0:0:
288,217,99540,5,10,0:0:0:0:
292,60,99936,2,0,P|342:65|395:76,2,97.5,10|2|2,0:1|0:0|0:0,0:0:0:0:
222,94,100728,6,0,P|154:72|139:12,1,130,10|8,0:1|0:0,0:0:0:0:
63,19,101323,1,2,0:0:0:0:
63,19,101521,2,0,P|34:88|20:143,1,130,10|8,0:1|0:0,0:0:0:0:
137,244,102313,6,0,P|138:322|181:347,1,130,14|8,0:1|0:0,0:0:0:0:
253,377,102907,1,2,0:0:0:0:
253,377,103105,2,0,P|318:359|380:354,1,130,14|8,0:0|0:0,0:0:0:0:
452,215,103897,6,0,P|387:199|324:171,1,130,14|10,0:1|0:1,0:0:0:0:
283,110,104491,1,10,0:0:0:0:
127,119,104887,2,0,P|136:164|148:192,1,65,10|10,0:0|0:1,0:0:0:0:
107,251,105283,1,14,0:0:0:0:
256,192,105481,12,0,110233,0:0:0:0:
