osu file format v14

[General]
AudioFilename: optc.mp3
AudioLeadIn: 0
PreviewTime: 65481
Countdown: 0
SampleSet: Soft
StackLeniency: 0.7
Mode: 0
LetterboxInBreaks: 0
WidescreenStoryboard: 0

[Editor]
DistanceSpacing: 1.4
BeatDivisor: 4
GridSize: 4
TimelineZoom: 2.6

[Metadata]
Title:Escalation heart (Short Ver.)
TitleUnicode:Escalation heart (Short Ver.)
Artist:NANA
ArtistUnicode:NANA
Creator:Shad0w1and
Version:Misure's Hard
Source:超昂天使エスカレイヤー・リブート
Tags:Choukou Tenshi Escalayer Reboot Beat Angel アリスソフト AliceSoft Alice Soft Japanese Video Game Jpop Pop Misure
BeatmapID:1391263
BeatmapSetID:654622

[Difficulty]
HPDrainRate:4.8
CircleSize:3.8
OverallDifficulty:5.8
ApproachRate:7.8
SliderMultiplier:1.36
SliderTickRate:1

[Events]
//Background and Video events
Video,0,"optc.flv"
0,0,"BG0.jpg",0,0
//Break Periods
//Storyboard Layer 0 (Background)
//Storyboard Layer 1 (Fail)
//Storyboard Layer 2 (Pass)
//Storyboard Layer 3 (Foreground)
//Storyboard Layer 4 (Overlay)
//Storyboard Sound Samples

[TimingPoints]
927,396.039603960396,4,2,1,55,1,0
927,-133.333333333333,4,2,1,55,0,0
3303,-100,4,2,1,65,0,0
4095,-133.333333333333,4,2,1,55,0,0
6471,-100,4,2,1,65,0,0
7263,-100,4,2,1,75,0,1
13204,-100,4,2,1,65,0,0
13600,-100,4,2,1,75,0,1
19936,-100,4,2,1,80,0,1
24491,-100,4,2,1,75,0,1
24887,-100,4,2,1,70,0,1
25085,-100,4,2,1,50,0,0
26273,-100,4,2,1,70,0,0
38946,-111.111111111111,4,2,1,60,0,0
51620,-133.333333333333,4,2,1,50,0,0
57560,-200,4,2,1,50,0,0
57956,-111.111111111111,4,2,1,65,0,0
65877,-100,4,2,1,75,0,1
78154,-111.111111111111,4,2,1,65,0,0
78550,-100,4,2,1,75,0,1
84887,-100,4,2,1,80,0,1
89441,-100,4,2,1,75,0,1
89837,-100,4,2,1,70,0,1
90035,-100,4,2,1,50,0,0
91224,-100,4,2,1,70,0,0
103897,-100,4,2,1,80,0,1
105283,-100,4,2,1,80,0,0
105481,-100,4,2,1,70,0,0
105877,-100,4,2,1,65,0,0
106273,-100,4,2,1,60,0,0
106669,-100,4,2,1,55,0,0
107065,-100,4,2,1,50,0,0
107461,-100,4,2,1,45,0,0
107857,-100,4,2,1,40,0,0
108253,-100,4,2,1,35,0,0
108649,-100,4,2,1,30,0,0
109045,-100,4,2,1,25,0,0
109441,-100,4,2,1,20,0,0
109837,-100,4,2,1,15,0,0
110233,-100,4,2,1,10,0,0

[Colours]
Combo1 : 255,224,130
Combo2 : 100,249,179
Combo3 : 117,180,255
Combo4 : 245,90,114

[HitObjects]
190,283,927,6,0,P|168:237|167:186,1,102.000003890991,6|0,0:1|0:0,0:0:0:0:
329,155,1719,2,0,P|350:200|351:251,1,102.000003890991,2|0,0:0|0:0,0:0:0:0:
235,120,2511,6,0,L|215:45,2,76.5000029182435,10|8|8,0:1|0:1|0:3,0:0:0:0:
168,187,3303,2,0,L|99:111,2,102,10|8|8,0:1|0:1|0:1,0:0:0:0:
197,287,4095,6,0,P|240:260|290:253,1,102.000003890991,14|0,0:1|0:0,0:0:0:0:
449,206,4887,2,0,P|398:198|355:172,1,102.000003890991,14|0,0:1|0:0,0:0:0:0:
376,359,5679,6,0,L|446:329,2,76.5000029182435,14|8|8,0:1|0:1|0:3,0:0:0:0:
306,294,6471,2,0,P|270:259|220:264,1,102,10|8,0:1|0:1,0:0:0:0:
205,295,6867,1,8,0:0:0:0:
109,272,7065,1,8,0:0:0:0:
109,272,7164,1,8,0:0:0:0:
109,272,7263,6,0,P|100:239|96:206,1,68,14|0,0:1|0:0,0:0:0:0:
179,158,7659,2,0,P|186:126|200:95,1,68,8|0,0:0|0:0,0:0:0:0:
52,155,8055,2,0,P|71:182|96:206,1,68,8|0,0:1|0:0,0:0:0:0:
100,73,8451,2,0,P|90:40|87:6,1,68,8|0,0:0|0:0,0:0:0:0:
201,94,8847,5,10,0:1:0:0:
162,191,9045,1,2,0:0:0:0:
162,191,9144,1,2,0:0:0:0:
162,191,9243,2,0,P|128:195|96:206,1,68,8|0,0:0|0:0,0:0:0:0:
49,289,9639,2,0,P|81:299|114:305,2,68,10|0|8,0:1|0:0|0:0,0:0:0:0:
9,170,10233,1,2,0:0:0:0:
9,170,10332,1,2,0:0:0:0:
9,170,10431,6,0,P|51:119|117:116,1,136,10|8,0:1|0:0,0:0:0:0:
198,167,11026,1,0,0:0:0:0:
260,96,11224,2,0,L|273:29,2,68,10|0|8,0:1|0:0|0:0,0:0:0:0:
344,160,11818,1,2,0:0:0:0:
344,160,11917,1,2,0:0:0:0:
344,160,12016,6,0,B|375:149|375:149|404:154|404:154|441:142,2,102,14|14|14,0:1|0:1|0:1,0:0:0:0:
283,233,12808,2,0,P|233:241|195:209,1,102,14|0,0:0|0:0,0:0:0:0:
148,196,13204,2,0,L|157:163,3,34,8|8|8|8,0:0|0:0|0:0|0:0,0:0:0:0:
108,135,13600,6,0,L|132:268,1,136,14|8,0:1|0:0,0:0:0:0:
77,346,14194,1,0,0:0:0:0:
77,346,14392,2,0,P|44:336|14:319,1,68,8|0,0:1|0:0,0:0:0:0:
167,372,14788,2,0,P|196:355|229:345,1,68,8|0,0:0|0:0,0:0:0:0:
384,380,15184,5,10,0:1:0:0:
319,309,15382,1,2,0:0:0:0:
319,309,15481,1,2,0:0:0:0:
319,309,15580,2,0,P|324:275|334:242,1,68,8|0,0:0|0:0,0:0:0:0:
391,165,15976,1,10,0:1:0:0:
462,228,16174,2,0,P|481:220|494:218,2,34,0|0|8,0:0|0:0|0:0,0:0:0:0:
478,124,16570,1,2,0:0:0:0:
478,124,16669,1,2,0:0:0:0:
478,124,16768,6,0,P|470:90|457:58,1,68,10|0,0:1|0:0,0:0:0:0:
367,29,17164,2,0,P|335:43|307:62,1,68,8|0,0:0|0:0,0:0:0:0:
279,152,17560,1,8,0:1:0:0:
183,152,17758,1,2,0:0:0:0:
183,152,17857,1,2,0:0:0:0:
183,152,17956,2,0,P|151:138|122:120,1,68,8|0,0:0|0:0,0:0:0:0:
279,152,18352,6,0,L|305:286,1,136,10|8,0:1|0:0,0:0:0:0:
244,358,18946,1,0,0:0:0:0:
163,309,19144,1,10,0:1:0:0:
71,334,19342,1,8,0:0:0:0:
71,334,19441,1,8,0:0:0:0:
71,334,19540,2,0,L|57:302,3,34,8|8|8|0,0:0|0:0|0:1|0:0,0:0:0:0:
61,260,19936,6,0,P|126:273|184:241,1,136,14|8,0:1|0:0,0:0:0:0:
246,155,20530,1,14,0:1:0:0:
246,155,20926,1,8,0:1:0:0:
321,213,21125,2,0,L|309:280,1,68,8|8,0:0|0:1,0:0:0:0:
436,297,21521,6,0,L|417:196,1,102,14|8,0:1|0:1,0:0:0:0:
410,155,21917,1,8,0:0:0:0:
467,46,22115,6,0,P|405:68|354:27,1,136,14|8,0:1|0:1,0:0:0:0:
233,6,22709,1,8,0:0:0:0:
277,95,22907,1,8,0:1:0:0:
277,95,23006,1,8,0:1:0:0:
277,95,23105,6,0,P|266:127|258:160,1,68,14|0,0:1|0:0,0:0:0:0:
362,227,23501,2,0,P|329:236|298:248,1,68,8|0,0:0|0:0,0:0:0:0:
182,234,23897,2,0,P|206:280|218:329,1,102,14|12,0:1|0:0,0:0:0:0:
1,379,24491,6,0,P|7:315|68:297,1,136,14|8,0:1|0:0,0:0:0:0:
132,368,25085,1,8,0:0:0:0:
304,189,26273,6,0,P|253:232|187:231,1,136,14|8,0:1|0:0,0:0:0:0:
96,264,26867,1,2,0:0:0:0:
96,264,26966,1,2,0:0:0:0:
96,264,27065,2,0,P|85:231|81:198,1,68,8|0,0:1|0:0,0:0:0:0:
8,136,27461,2,0,P|14:102|28:71,1,68,8|0,0:0|0:0,0:0:0:0:
120,92,27857,5,10,0:1:0:0:
174,13,28055,2,0,P|190:15|207:20,2,34,0|2|8,0:0|0:0|0:0,0:0:0:0:
271,97,28451,1,2,0:0:0:0:
335,29,28649,2,0,P|400:9|467:0,1,136,10|8,0:1|0:0,0:0:0:0:
391,128,29243,1,2,0:0:0:0:
391,128,29342,1,2,0:0:0:0:
391,128,29441,6,0,P|324:135|270:96,1,136,10|8,0:1|0:0,0:0:0:0:
219,176,30035,1,2,0:0:0:0:
279,249,30233,2,0,P|310:235|343:227,2,68,10|0|8,0:1|0:0|0:0,0:0:0:0:
205,309,30827,1,2,0:0:0:0:
205,309,30926,1,2,0:0:0:0:
205,309,31026,6,0,P|218:368|280:356,1,136,10|8,0:1|0:0,0:0:0:0:
397,366,31620,1,2,0:0:0:0:
397,366,31719,1,2,0:0:0:0:
397,366,31818,2,0,P|404:323|412:299,1,68,10|0,0:1|0:0,0:0:0:0:
494,250,32214,2,0,L|481:218,3,34,8|8|8|8,0:0|0:0|0:0|0:0,0:0:0:0:
496,169,32610,6,0,P|448:214|381:214,1,136,14|8,0:1|0:0,0:0:0:0:
316,143,33204,1,0,0:0:0:0:
261,220,33402,2,0,P|268:252|281:283,1,68,10|0,0:1|0:0,0:0:0:0:
163,355,33798,2,0,P|169:321|180:289,1,68,8|0,0:0|0:0,0:0:0:0:
147,194,34194,5,10,0:1:0:0:
80,262,34392,1,0,0:0:0:0:
80,262,34491,1,0,0:0:0:0:
80,262,34590,2,0,P|51:278|18:285,1,68,10|0,0:0|0:0,0:0:0:0:
20,184,34986,2,0,P|8:134|1:83,1,102,10|2,0:1|0:0,0:0:0:0:
20,52,35382,2,0,P|53:59|84:72,1,68,8|2,0:0|0:0,0:0:0:0:
179,103,35778,6,0,P|197:41|259:19,1,136,10|8,0:1|0:0,0:0:0:0:
344,64,36372,1,2,0:0:0:0:
282,136,36570,2,0,L|299:201,2,68,10|0|8,0:1|0:0|0:0,0:0:0:0:
411,133,37164,1,2,0:0:0:0:
411,133,37263,1,2,0:0:0:0:
411,133,37362,6,0,L|384:266,1,136,14|8,0:1|0:0,0:0:0:0:
357,365,37956,1,2,0:0:0:0:
357,365,38055,1,2,0:0:0:0:
357,365,38154,2,0,P|326:349|295:337,1,68,14|8,0:0|0:0,0:0:0:0:
220,282,38550,2,0,L|190:297,3,34,8|8|8|8,0:0|0:0|0:0|0:0,0:0:0:0:
151,319,38946,5,14,0:1:0:0:
111,132,39342,1,8,0:0:0:0:
111,132,39540,1,0,0:0:0:0:
111,132,39738,2,0,P|160:165|219:155,1,122.399996264649,8|8,0:1|0:0,0:0:0:0:
267,77,40332,1,0,0:0:0:0:
339,136,40530,6,0,P|330:191|323:257,1,122.399996264649,10|8,0:1|0:0,0:0:0:0:
384,328,41125,1,0,0:0:0:0:
384,328,41323,2,0,P|413:320|441:308,1,61.1999981323243,8|0,0:1|0:0,0:0:0:0:
444,216,41719,2,0,P|462:191|484:170,1,61.1999981323243,8|0,0:0|0:0,0:0:0:0:
440,84,42115,6,0,P|387:113|327:107,1,122.399996264649,10|8,0:1|0:0,0:0:0:0:
283,26,42709,1,0,0:0:0:0:
225,97,42907,2,0,P|241:149|260:214,1,122.399996264649,8|8,0:1|0:0,0:0:0:0:
204,288,43501,1,0,0:0:0:0:
204,288,43699,6,0,P|145:273|90:297,1,122.399996264649,10|8,0:1|0:0,0:0:0:0:
29,228,44293,1,0,0:0:0:0:
29,228,44491,2,0,P|16:200|0:174,1,61.1999981323243,8|0,0:1|0:0,0:0:0:0:
83,136,44887,2,0,P|93:107|100:77,1,61.1999981323243,8|0,0:0|0:0,0:0:0:0:
51,0,45283,5,10,0:1:0:0:
212,88,45679,1,8,0:0:0:0:
212,88,45877,1,0,0:0:0:0:
212,88,46075,2,0,P|258:49|318:46,1,122.399996264649,8|8,0:1|0:0,0:0:0:0:
356,132,46669,1,0,0:0:0:0:
335,221,46867,6,0,P|269:204|216:192,1,122.399996264649,10|8,0:1|0:0,0:0:0:0:
143,248,47462,1,0,0:0:0:0:
143,248,47659,2,0,P|145:278|152:308,1,61.1999981323243,8|0,0:1|0:0,0:0:0:0:
219,371,48055,1,8,0:0:0:0:
219,371,48253,1,0,0:0:0:0:
298,324,48452,6,0,P|305:267|316:203,1,122.399996264649,10|8,0:1|0:0,0:0:0:0:
406,184,49046,1,0,0:0:0:0:
346,114,49244,2,0,P|299:152|240:150,1,122.399996264649,8|8,0:1|0:0,0:0:0:0:
181,79,49838,1,0,0:0:0:0:
109,136,50036,6,0,P|126:192|142:253,1,122.399996264649,10|8,0:1|0:0,0:0:0:0:
94,332,50630,1,8,0:1:0:0:
94,332,50728,1,8,0:1:0:0:
94,332,50828,2,0,P|120:348|151:350,1,61.1999981323243,6|8,0:0|0:1,0:0:0:0:
240,359,51224,2,0,L|245:328,2,30.5999990661621,8|8|8,0:0|0:0|0:1,0:0:0:0:
346,374,51620,6,0,L|332:298,2,76.5000029182435,14|8|8,0:1|0:1|0:1,0:0:0:0:
512,280,52610,1,8,0:1:0:0:
512,280,52808,2,0,P|489:292|466:302,1,51.0000019454957,8|0,0:0|0:0,0:0:0:0:
412,224,53204,6,0,L|423:148,2,76.5000029182435,10|8|8,0:1|0:1|0:1,0:0:0:0:
254,217,54194,1,8,0:1:0:0:
254,217,54392,2,0,P|277:205|300:195,1,51.0000019454957,8|8,0:0|0:1,0:0:0:0:
287,106,54788,6,0,L|215:79,2,76.5000029182435,10|8|8,0:1|0:1|0:1,0:0:0:0:
132,187,55778,1,8,0:1:0:0:
132,187,55976,2,0,P|124:210|118:235,1,51.0000019454957,8|0,0:0|0:0,0:0:0:0:
174,306,56372,6,0,L|101:331,2,76.5000029182435,10|8|8,0:1|0:1|0:1,0:0:0:0:
188,324,57065,1,8,0:1:0:0:
188,324,57164,2,0,L|182:374,1,51,8|8,0:0|0:0,0:0:0:0:
282,375,57560,6,0,L|274:324,1,51,14|8,0:3|0:1,0:0:0:0:
275,303,57956,6,0,P|335:302|372:256,1,122.399996264649,14|8,0:1|0:0,0:0:0:0:
461,215,58550,1,2,0:0:0:0:
461,215,58649,1,2,0:0:0:0:
461,215,58748,2,0,P|401:213|364:167,1,122.399996264649,8|14,0:1|0:0,0:0:0:0:
270,140,59342,1,8,0:1:0:0:
270,140,59441,1,8,0:1:0:0:
270,140,59540,6,0,L|294:19,1,122.399996264649,14|8,0:1|0:0,0:0:0:0:
197,4,60134,1,2,0:0:0:0:
197,4,60233,1,2,0:0:0:0:
197,4,60332,2,0,L|172:124,1,122.399996264649,8|14,0:1|0:0,0:0:0:0:
220,209,60926,1,8,0:1:0:0:
220,209,61025,1,8,0:1:0:0:
220,209,61124,6,0,P|279:210|319:166,1,122.399996264649,14|8,0:1|0:0,0:0:0:0:
319,166,61917,2,0,P|304:208|318:251,1,91.7999971984864,14|12,0:1|0:0,0:0:0:0:
318,251,62511,6,0,P|278:206|219:208,1,122.399996264649,14|10,0:1|0:0,0:0:0:0:
147,268,63105,2,0,L|137:328,2,61.1999981323243,10|10|8,0:1|0:0|0:1,0:0:0:0:
59,236,63699,1,10,0:0:0:0:
59,236,63897,1,10,0:0:0:0:
68,141,64095,6,0,P|45:43|137:81,1,244.799992529297,14|8,0:1|0:1,0:0:0:0:
207,148,65085,1,8,0:0:0:0:
207,148,65283,1,8,0:1:0:0:
270,74,65481,2,0,L|279:44,2,30.5999990661621,8|8|8,0:0|0:0|0:0,0:0:0:0:
339,152,65877,6,0,P|403:131|468:110,1,136,14|8,0:1|0:0,0:0:0:0:
507,196,66471,1,0,0:0:0:0:
457,277,66669,2,0,P|426:262|394:250,1,68,8|0,0:1|0:0,0:0:0:0:
307,287,67065,2,0,P|298:254|293:220,1,68,8|0,0:0|0:0,0:0:0:0:
265,93,67461,5,10,0:1:0:0:
209,170,67659,1,2,0:0:0:0:
209,170,67758,1,2,0:0:0:0:
209,170,67857,2,0,P|180:187|147:198,1,68,8|0,0:0|0:0,0:0:0:0:
70,141,68253,1,10,0:1:0:0:
8,213,68451,2,0,P|16:226|23:242,2,34,0|0|8,0:3|0:0|0:0,0:3:0:0:
107,300,68847,1,2,0:0:0:0:
107,300,68946,1,2,0:0:0:0:
107,300,69045,6,0,P|96:332|90:365,1,68,10|0,0:1|0:0,0:0:0:0:
184,384,69441,2,0,P|194:351|200:318,1,68,8|0,0:0|0:0,0:0:0:0:
260,244,69837,1,8,0:1:0:0:
338,311,70035,1,2,0:0:0:0:
338,311,70134,1,2,0:0:0:0:
338,311,70233,2,0,P|371:317|403:329,1,68,8|0,0:0|0:0,0:0:0:0:
472,181,70629,6,0,P|432:211|382:210,1,102,10|0,0:1|0:0,0:0:0:0:
348,216,71026,2,0,P|339:183|335:149,1,68,8|0,0:0|0:0,0:0:0:0:
330,54,71421,1,10,0:1:0:0:
238,27,71619,1,2,0:0:0:0:
238,27,71718,1,2,0:0:0:0:
238,27,71818,2,0,P|225:58|218:91,1,68,8|0,0:0|0:0,0:0:0:0:
204,198,72214,6,0,P|170:191|136:192,1,68,14|0,0:1|0:0,0:0:0:0:
84,112,72610,2,0,P|52:122|23:139,1,68,8|0,0:0|0:0,0:0:0:0:
26,256,73006,2,0,P|56:269|90:275,1,68,8|0,0:1|0:0,0:0:0:0:
137,192,73402,2,0,P|170:198|201:211,1,68,8|0,0:0|0:0,0:0:0:0:
239,298,73798,5,10,0:1:0:0:
324,252,73996,1,2,0:0:0:0:
324,252,74095,1,2,0:0:0:0:
324,252,74194,2,0,P|327:218|336:185,1,68,8|0,0:0|0:0,0:0:0:0:
400,116,74590,1,10,0:1:0:0:
463,186,74788,2,0,P|469:201|474:217,2,34,0|0|8,0:0|0:0|0:0,0:0:0:0:
488,74,75184,1,2,0:0:0:0:
488,74,75283,1,2,0:0:0:0:
488,74,75382,6,0,P|442:26|375:21,1,136,10|8,0:1|0:0,0:0:0:0:
308,88,75976,1,0,0:0:0:0:
236,28,76174,2,0,P|205:39|170:44,2,68,10|0|8,0:1|0:0|0:0,0:0:0:0:
230,143,76768,1,2,0:0:0:0:
230,143,76867,1,2,0:0:0:0:
230,143,76966,6,0,P|233:176|243:209,1,68,14|0,0:1|0:0,0:0:0:0:
216,244,77263,2,0,P|236:271|260:294,1,68,14|0,0:1|0:0,0:0:0:0:
257,338,77560,1,14,0:1:0:0:
172,382,77758,6,0,P|141:366|109:358,1,68,14|0,0:0|0:0,0:0:0:0:
12,282,78154,2,0,P|56:284|85:250,1,91.7999971984864,8|0,0:0|0:0,0:0:0:0:
85,250,78550,6,0,L|46:119,1,136,14|8,0:1|0:0,0:0:0:0:
27,15,79144,1,0,0:0:0:0:
27,15,79342,2,0,P|57:28|90:37,1,68,8|0,0:1|0:0,0:0:0:0:
185,24,79738,2,0,P|217:18|248:4,1,68,8|0,0:0|0:0,0:0:0:0:
353,55,80134,5,10,0:1:0:0:
273,111,80332,1,2,0:0:0:0:
273,111,80431,1,2,0:0:0:0:
273,111,80530,2,0,P|266:144|264:178,1,68,8|0,0:0|0:0,0:0:0:0:
171,199,80927,2,0,P|155:168|144:136,2,68,10|0|8,0:1|0:0|0:0,0:0:0:0:
133,322,81520,1,2,0:0:0:0:
133,322,81619,1,2,0:0:0:0:
133,322,81719,6,0,P|162:302|193:289,1,68,10|0,0:1|0:0,0:0:0:0:
285,268,82115,2,0,P|317:273|350:283,1,68,8|0,0:0|0:0,0:0:0:0:
421,346,82510,1,8,0:1:0:0:
492,283,82708,1,2,0:0:0:0:
492,283,82807,1,2,0:0:0:0:
492,283,82906,2,0,P|494:249|501:215,1,68,8|0,0:0|0:0,0:0:0:0:
456,124,83302,6,0,P|408:170|342:169,1,136,10|8,0:1|0:0,0:0:0:0:
282,94,83897,1,0,0:0:0:0:
210,157,84095,1,10,0:1:0:0:
120,124,84292,1,8,0:0:0:0:
120,124,84391,1,8,0:0:0:0:
120,124,84491,2,0,L|108:92,3,34,8|8|8|0,0:0|0:0|0:1|0:0,0:0:0:0:
84,48,84887,6,0,L|71:183,1,136,14|8,0:1|0:0,0:0:0:0:
17,303,85481,2,0,P|74:269|138:285,1,136,14|8,0:1|0:1,0:0:0:0:
225,322,86075,1,8,0:0:0:0:
292,254,86273,1,8,0:1:0:0:
364,317,86472,6,0,B|371:345|386:371|386:371|366:354|350:353,1,102,14|0,0:1|0:0,0:0:0:0:
313,375,86868,1,8,0:0:0:0:
292,254,87066,6,0,P|354:274|411:241,1,136,14|8,0:1|0:1,0:0:0:0:
417,145,87660,1,8,0:0:0:0:
343,83,87858,1,8,0:1:0:0:
343,83,87957,1,8,0:1:0:0:
343,83,88056,6,0,P|311:94|281:111,1,68,14|0,0:1|0:0,0:0:0:0:
147,147,88451,2,0,P|179:159|209:176,1,68,8|0,0:0|0:0,0:0:0:0:
291,226,88848,2,0,P|269:273|260:323,1,102,14|12,0:1|0:0,0:0:0:0:
88,221,89441,6,0,P|36:184|54:123,1,136,14|8,0:1|0:0,0:0:0:0:
147,147,90035,1,8,0:0:0:0:
291,318,91224,6,0,P|223:331|159:352,1,136,14|8,0:1|0:0,0:0:0:0:
68,324,91818,1,2,0:0:0:0:
68,324,91917,1,2,0:0:0:0:
68,324,92016,2,0,P|78:291|83:258,1,68,8|0,0:1|0:0,0:0:0:0:
24,184,92412,2,0,P|14:151|8:118,1,68,8|0,0:0|0:0,0:0:0:0:
52,36,92808,6,0,P|97:57|147:50,1,102,10|2,0:1|0:0,0:0:0:0:
176,32,93204,2,0,P|165:64|160:97,1,68,8|2,0:0|0:0,0:0:0:0:
232,160,93600,2,0,P|277:138|327:145,1,102,10|0,0:1|0:0,0:0:0:0:
340,176,93996,1,8,0:0:0:0:
333,284,94194,1,2,0:0:0:0:
333,284,94293,1,2,0:0:0:0:
333,284,94392,6,0,P|267:265|201:250,1,136,10|8,0:1|0:0,0:0:0:0:
155,333,94986,1,2,0:0:0:0:
61,313,95184,2,0,P|49:280|35:250,2,68,10|0|8,0:1|0:0|0:0,0:0:0:0:
109,191,95778,1,2,0:0:0:0:
109,191,95877,1,2,0:0:0:0:
109,191,95976,6,0,P|172:166|234:139,1,136,10|8,0:1|0:0,0:0:0:0:
308,212,96571,1,2,0:0:0:0:
308,212,96670,1,2,0:0:0:0:
308,212,96769,2,0,P|298:244|291:277,1,68,10|0,0:1|0:0,0:0:0:0:
339,360,97165,2,0,L|370:346,3,34,8|8|8|8,0:0|0:0|0:0|0:0,0:0:0:0:
411,350,97561,6,0,P|475:347|497:287,1,136,14|8,0:1|0:0,0:0:0:0:
435,214,98155,1,0,0:0:0:0:
356,267,98353,2,0,P|294:238|233:208,1,136,10|8,0:1|0:0,0:0:0:0:
137,213,98946,1,2,0:0:0:0:
137,213,99045,1,2,0:0:0:0:
137,213,99144,6,0,P|126:245|122:278,1,68,10|0,0:1|0:0,0:0:0:0:
50,178,99540,2,0,P|39:145|25:114,1,68,10|0,0:0|0:0,0:0:0:0:
84,39,99936,2,0,P|128:61|178:55,1,102,10|2,0:1|0:0,0:0:0:0:
200,75,100333,2,0,P|233:69|264:56,1,68,8|2,0:0|0:0,0:0:0:0:
364,8,100729,6,0,P|355:65|345:142,1,136,10|8,0:1|0:0,0:0:0:0:
273,221,101323,1,2,0:0:0:0:
273,221,101521,2,0,P|260:189|243:160,2,68,10|0|8,0:1|0:0|0:0,0:0:0:0:
350,295,102115,1,2,0:0:0:0:
350,295,102214,1,2,0:0:0:0:
350,295,102313,6,0,P|411:265|474:240,1,136,14|8,0:1|0:0,0:0:0:0:
462,146,102907,1,2,0:0:0:0:
462,146,103006,1,2,0:0:0:0:
462,146,103105,2,0,P|430:138|397:125,1,68,14|8,0:0|0:0,0:0:0:0:
309,86,103501,2,0,L|302:119,3,34,8|8|8|8,0:0|0:0|0:0|0:0,0:0:0:0:
264,136,103897,6,0,P|258:102|250:69,1,68,14|8,0:1|0:0,0:0:0:0:
168,24,104293,1,10,0:1:0:0:
115,108,104491,2,0,P|141:129|165:153,1,68,10|0,0:0|0:0,0:0:0:0:
173,245,104887,5,10,0:0:0:0:
101,308,105085,1,10,0:1:0:0:
181,261,105283,1,14,0:0:0:0:
256,192,105381,12,0,110233,0:0:0:0:
