osu file format v14

[General]
AudioFilename: optc.mp3
AudioLeadIn: 0
PreviewTime: 65481
Countdown: 0
SampleSet: Soft
StackLeniency: 0.7
Mode: 0
LetterboxInBreaks: 0
WidescreenStoryboard: 0

[Editor]
Bookmarks: 926,7263,19936,26273,38946,51620,57956,65877,78550,84887,91224,103897
DistanceSpacing: 1
BeatDivisor: 4
GridSize: 16
TimelineZoom: 2.6

[Metadata]
Title:Escalation heart (Short Ver.)
TitleUnicode:Escalation heart (Short Ver.)
Artist:NANA
ArtistUnicode:NANA
Creator:Shad0w1and
Version:Insane
Source:超昂天使エスカレイヤー・リブート
Tags:Choukou Tenshi Escalayer Reboot Beat Angel アリスソフト AliceSoft Alice Soft Japanese Video Game Jpop Pop Misure
BeatmapID:1387568
BeatmapSetID:654622

[Difficulty]
HPDrainRate:6
CircleSize:4
OverallDifficulty:7.5
ApproachRate:8.5
SliderMultiplier:1.4
SliderTickRate:1

[Events]
//Background and Video events
Video,0,"optc.flv"
0,0,"BG0.jpg",0,0
//Break Periods
//Storyboard Layer 0 (Background)
//Storyboard Layer 1 (Fail)
//Storyboard Layer 2 (Pass)
//Storyboard Layer 3 (Foreground)
//Storyboard Layer 4 (Overlay)
//Storyboard Sound Samples

[TimingPoints]
927,396.039603960396,4,2,1,70,1,0
927,-133.333333333333,4,2,1,70,0,0
6966,-133.333333333333,4,2,1,60,0,0
7263,-83.3333333333333,4,2,1,80,0,1
13303,-83.3333333333333,4,2,1,70,0,1
13600,-83.3333333333333,4,2,1,80,0,1
19639,-83.3333333333333,4,2,1,70,0,1
19936,-133.333333333333,4,2,1,80,0,1
20530,-66.6666666666667,4,2,1,80,0,1
21521,-133.333333333333,4,2,1,80,0,1
22115,-66.6666666666667,4,2,1,80,0,1
23105,-83.3333333333333,4,2,1,80,0,1
23897,-66.6666666666667,4,2,1,80,0,1
24491,-50,4,2,1,80,0,1
25085,-50,4,2,1,80,0,0
26273,-83.3333333333333,4,2,1,80,0,1
32313,-83.3333333333333,4,2,1,70,0,1
32610,-83.3333333333333,4,2,1,80,0,1
38649,-83.3333333333333,4,2,1,60,0,1
38946,-100,4,2,1,60,0,0
51323,-100,4,2,1,50,0,0
51620,-133.333333333333,4,2,1,50,0,0
57362,-66.6666666666667,4,2,1,60,0,0
57560,-50,4,2,1,70,0,0
57956,-83.3333333333333,4,2,1,70,0,0
59144,-50,4,2,1,70,0,0
59540,-83.3333333333333,4,2,1,70,0,0
60728,-50,4,2,1,70,0,0
61125,-83.3333333333333,4,2,1,70,0,0
61917,-58.8235294117647,4,2,1,70,0,0
62511,-40,4,2,1,70,0,0
62907,-66.6666666666667,4,2,1,70,0,0
64095,-66.6666666666667,4,2,1,70,0,0
65580,-66.6666666666667,4,2,1,60,0,0
65877,-83.3333333333333,4,2,1,80,0,1
76966,-66.6666666666667,4,2,1,80,0,1
77758,-58.8235294117647,4,2,1,80,0,1
78253,-58.8235294117647,4,2,1,70,0,1
78550,-83.3333333333333,4,2,1,80,0,1
84590,-83.3333333333333,4,2,1,70,0,1
84887,-100,4,2,1,80,0,1
85481,-66.6666666666667,4,2,1,80,0,1
86471,-100,4,2,1,80,0,1
87065,-66.6666666666667,4,2,1,80,0,1
88055,-83.3333333333333,4,2,1,80,0,1
88847,-66.6666666666667,4,2,1,80,0,1
89441,-50,4,2,1,80,0,1
90035,-83.3333333333333,4,2,1,80,0,0
91224,-83.3333333333333,4,2,1,80,0,1
97263,-83.3333333333333,4,2,1,70,0,1
97560,-83.3333333333333,4,2,1,80,0,1
103600,-83.3333333333333,4,2,1,70,0,1
103897,-83.3333333333333,4,2,1,70,0,0
105481,-83.3333333333333,4,2,1,40,0,0
110233,-83.3333333333333,4,2,1,30,0,0

[Colours]
Combo1 : 255,224,130
Combo2 : 100,249,179
Combo3 : 117,180,255
Combo4 : 245,90,114

[HitObjects]
127,166,927,6,0,P|183:156|220:118,1,105.000004005432,6|0,0:1|0:0,0:0:0:0:
217,123,1719,2,0,P|230:171|241:226,1,105.000004005432,2|0,0:0|0:0,0:0:0:0:
241,225,2511,6,0,P|279:221|332:220,2,78.7500030040742,10|8|8,0:1|0:1|0:3,0:0:0:0:
188,315,3303,1,10,0:1:0:0:
319,219,3600,1,8,0:1:0:0:
127,166,3897,1,8,0:1:0:0:
313,115,4095,6,0,P|320:159|319:228,1,105.000004005432,14|0,0:1|0:0,0:0:0:0:
320,219,4887,2,0,P|371:207|423:199,1,105.000004005432,14|0,0:1|0:0,0:0:0:0:
423,199,5679,6,0,P|445:172|454:117,2,78.7500030040742,14|8|8,0:1|0:1|0:3,0:0:0:0:
351,121,6471,2,0,P|298:115|249:114,1,78.7500030040742,10|8,0:1|0:1,0:0:0:0:
200,152,6867,5,8,0:0:0:0:
189,190,6966,1,8,0:0:0:0:
192,229,7065,1,8,0:0:0:0:
210,263,7164,1,8,0:0:0:0:
239,287,7263,6,0,L|329:278,1,83.9999974365235,14|0,0:1|0:0,0:0:0:0:
189,190,7659,2,0,L|98:180,1,83.9999974365235,8|0,0:0|0:0,0:0:0:0:
272,113,8055,2,0,L|362:104,1,83.9999974365235,8|0,0:1|0:0,0:0:0:0:
222,16,8451,2,0,L|131:6,1,83.9999974365235,8|0,0:0|0:0,0:0:0:0:
355,104,8847,6,0,P|382:73|384:21,1,83.9999974365235,10|0,0:1|0:0,0:0:0:0:
314,44,9144,1,0,0:0:0:0:
314,44,9243,1,8,0:0:0:0:
274,201,9441,1,0,0:0:0:0:
421,177,9639,2,0,P|431:140|440:91,2,83.9999974365235,10|0|8,0:1|0:0|0:0,0:0:0:0:
314,44,10233,1,0,0:0:0:0:
314,44,10332,1,0,0:0:0:0:
314,44,10431,6,0,P|374:30|480:18,1,167.999994873047,10|8,0:1|0:0,0:0:0:0:
287,146,11026,1,0,0:0:0:0:
189,190,11224,2,0,P|121:172|14:157,1,167.999994873047,10|8,0:1|0:0,0:0:0:0:
314,44,11818,1,0,0:0:0:0:
314,44,11917,1,0,0:0:0:0:
314,44,12016,5,14,0:1:0:0:
189,190,12313,1,14,0:1:0:0:
421,177,12610,1,14,0:1:0:0:
222,16,12808,6,0,L|232:103,1,83.9999974365235,14|0,0:0|0:0,0:0:0:0:
388,314,13204,5,8,0:0:0:0:
400,280,13303,1,8,0:0:0:0:
410,247,13402,1,8,0:0:0:0:
417,212,13501,1,8,0:0:0:0:
421,177,13600,6,0,P|387:159|329:139,1,83.9999974365235,14|0,0:1|0:0,0:0:0:0:
300,52,13996,2,0,P|266:70|220:112,1,83.9999974365235,8|0,0:0|0:0,0:0:0:0:
186,263,14392,2,0,P|217:241|263:201,1,83.9999974365235,8|0,0:1|0:0,0:0:0:0:
353,226,14788,2,0,P|351:187|339:126,1,83.9999974365235,8|0,0:0|0:0,0:0:0:0:
186,263,15184,6,0,P|187:301|199:362,1,83.9999974365235,10|0,0:1|0:0,0:0:0:0:
271,362,15481,1,0,0:0:0:0:
271,362,15580,1,8,0:0:0:0:
353,226,15778,1,0,0:0:0:0:
461,350,15976,2,0,P|417:369|366:380,2,83.9999974365235,10|0|8,0:1|0:0|0:0,0:0:0:0:
353,226,16570,1,0,0:0:0:0:
353,226,16669,1,0,0:0:0:0:
353,226,16768,6,0,P|330:186|319:127,1,83.9999974365235,10|0,0:1|0:0,0:0:0:0:
458,236,17164,2,0,P|444:276|415:324,1,83.9999974365235,8|0,0:0|0:0,0:0:0:0:
414,136,17560,2,0,P|451:134|506:133,1,83.9999974365235,8|0,0:1|0:0,0:0:0:0:
317,325,17956,2,0,P|275:318|229:313,1,83.9999974365235,8|0,0:0|0:0,0:0:0:0:
266,107,18352,6,0,P|330:136|350:234,1,167.999994873047,10|8,0:1|0:0,0:0:0:0:
233,313,18946,1,0,0:0:0:0:
139,203,19144,2,0,P|148:166|151:110,1,83.9999974365235,10|8,0:1|0:0,0:0:0:0:
233,313,19540,1,8,0:0:0:0:
233,313,19639,1,8,0:0:0:0:
233,313,19738,1,8,0:1:0:0:
152,120,19936,6,0,P|178:93|220:84,1,78.7500030040742,14|0,0:1|0:0,0:0:0:0:
214,157,20332,1,8,0:0:0:0:
81,240,20530,6,0,P|75:147|62:31,1,210.000008010865,14|8,0:1|0:1,0:0:0:0:
214,157,21125,5,8,0:0:0:0:
81,240,21323,1,8,0:1:0:0:
275,200,21521,6,0,P|250:169|214:156,1,78.7500030040742,14|8,0:1|0:1,0:0:0:0:
208,229,21917,1,8,0:0:0:0:
388,240,22115,6,0,B|410:171|441:108|441:108|374:45,1,210.000008010865,14|8,0:1|0:1,0:0:0:0:
391,61,22709,5,8,0:0:0:0:
388,240,22907,1,8,0:1:0:0:
388,240,23006,1,0,0:0:0:0:
388,240,23105,6,0,B|428:252|428:252|468:240,1,83.9999974365235,14|0,0:1|0:0,0:0:0:0:
275,200,23501,2,0,B|235:188|235:188|172:206,1,83.9999974365235,8|0,0:0|0:0,0:0:0:0:
387,336,23897,6,0,P|405:287|387:239,1,105.000004005432,14|0,0:1|0:0,0:0:0:0:
276,104,24194,2,0,P|257:152|275:200,1,105.000004005432,12|0,0:0|0:0,0:0:0:0:
477,98,24491,6,0,B|404:87|404:87|353:115|353:115|276:104,1,210,14|0,0:1|0:0,0:0:0:0:
331,24,24887,5,8,0:0:0:0:
429,179,25085,1,8,0:0:0:0:
429,179,26273,6,0,P|489:157|497:76,1,125.999996154785,14|0,0:1|0:0,0:0:0:0:
506,101,26669,1,8,0:0:0:0:
388,242,26867,1,0,0:0:0:0:
388,242,26966,1,0,0:0:0:0:
388,242,27065,2,0,P|334:231|277:224,1,83.9999974365235,8|0,0:1|0:0,0:0:0:0:
204,234,27461,2,0,P|179:194|161:130,1,83.9999974365235,8|0,0:0|0:0,0:0:0:0:
312,101,27857,6,0,L|304:243,1,125.999996154785,10|2,0:1|0:0,0:0:0:0:
304,226,28253,1,8,0:0:0:0:
392,166,28451,1,2,0:0:0:0:
203,233,28649,2,0,P|231:302|276:328,1,125.999996154785,10|0,0:1|0:0,0:0:0:0:
274,327,29045,1,8,0:0:0:0:
312,101,29243,1,2,0:0:0:0:
312,101,29342,1,2,0:0:0:0:
312,101,29441,6,0,P|223:122|135:131,1,167.999994873047,10|8,0:1|0:0,0:0:0:0:
237,30,30035,1,2,0:0:0:0:
304,226,30233,2,0,P|346:237|411:242,1,83.9999974365235,10|0,0:1|0:0,0:0:0:0:
386,241,30530,1,0,0:0:0:0:
386,241,30629,1,8,0:0:0:0:
312,101,30827,1,2,0:0:0:0:
312,101,30926,1,2,0:0:0:0:
312,101,31026,6,0,P|261:165|306:227,1,167.999994873047,10|8,0:1|0:0,0:0:0:0:
434,330,31620,1,2,0:0:0:0:
434,330,31719,1,2,0:0:0:0:
434,330,31818,2,0,P|480:308|528:293,1,83.9999974365235,10|0,0:1|0:0,0:0:0:0:
460,91,32214,5,8,0:0:0:0:
425,69,32313,1,8,0:0:0:0:
383,62,32412,1,8,0:0:0:0:
343,74,32511,1,8,0:0:0:0:
312,101,32610,6,0,P|323:180|350:291,1,167.999994873047,14|8,0:1|0:0,0:0:0:0:
392,166,33204,1,0,0:0:0:0:
250,228,33402,2,0,P|179:200|165:100,1,167.999994873047,10|8,0:1|0:0,0:0:0:0:
312,101,33996,1,0,0:0:0:0:
343,265,34194,6,0,P|395:247|479:239,1,125.999996154785,10|0,0:1|0:0,0:0:0:0:
465,238,34590,2,0,P|468:196|475:155,1,83.9999974365235,10|0,0:0|0:0,0:0:0:0:
250,228,34986,2,0,P|259:275|267:339,1,83.9999974365235,10|0,0:1|0:0,0:0:0:0:
264,310,35283,1,2,0:0:0:0:
264,310,35382,1,8,0:0:0:0:
392,166,35580,1,2,0:0:0:0:
429,336,35778,6,0,P|341:320|242:308,1,167.999994873047,10|8,0:1|0:0,0:0:0:0:
315,182,36372,1,2,0:0:0:0:
446,253,36570,2,0,L|428:335,1,83.9999974365235,10|0,0:1|0:0,0:0:0:0:
428,335,36867,1,0,0:0:0:0:
428,335,36966,1,8,0:0:0:0:
392,166,37164,1,2,0:0:0:0:
392,166,37263,1,2,0:0:0:0:
392,166,37362,5,14,0:1:0:0:
343,265,37560,1,8,0:0:0:0:
500,149,37758,1,8,0:0:0:0:
312,101,37956,5,2,0:0:0:0:
312,101,38055,1,2,0:0:0:0:
312,101,38154,2,0,P|277:88|244:64,2,41.9999987182618,14|8|8,0:0|0:0|0:0,0:0:0:0:
343,265,38550,5,8,0:0:0:0:
336,297,38649,1,8,0:0:0:0:
315,323,38748,1,8,0:0:0:0:
284,337,38847,1,8,0:0:0:0:
256,338,38946,6,0,P|187:321|112:306,1,140,14|8,0:1|0:0,0:0:0:0:
250,228,39540,1,0,0:0:0:0:
343,265,39738,2,0,P|384:259|442:261,1,70,8|0,0:1|0:0,0:0:0:0:
412,258,40035,1,0,0:0:0:0:
412,258,40134,1,8,0:0:0:0:
358,365,40332,1,0,0:0:0:0:
250,228,40530,6,0,B|232:139|232:139|280:98,1,140,10|8,0:1|0:0,0:0:0:0:
412,258,41125,1,0,0:0:0:0:
342,190,41323,1,8,0:1:0:0:
316,313,41521,2,0,L|349:298,1,35
412,258,41719,1,8,0:0:0:0:
250,228,41917,1,0,0:0:0:0:
430,362,42115,6,0,P|486:327|510:242,1,140,10|8,0:1|0:0,0:0:0:0:
316,313,42709,2,0,P|285:309|228:303,1,70,0|8,0:0|0:1,0:0:0:0:
412,258,43105,1,0,0:0:0:0:
412,258,43204,1,0,0:0:0:0:
412,258,43303,1,8,0:0:0:0:
250,228,43501,1,0,0:0:0:0:
430,119,43699,6,0,P|419:189|410:279,1,140,10|8,0:1|0:0,0:0:0:0:
327,154,44293,2,0,P|320:122|315:84,1,70,0|8,0:0|0:1,0:0:0:0:
250,228,44689,2,0,L|247:275,1,35
299,325,44887,2,0,P|328:318|376:316,1,70,8|0,0:0|0:0,0:0:0:0:
250,228,45283,6,0,L|106:196,1,140,10|8,0:1|0:0,0:0:0:0:
194,323,45877,1,0,0:0:0:0:
250,228,46075,2,0,P|248:184|244:128,1,70,8|0,0:1|0:0,0:0:0:0:
246,158,46372,1,0,0:0:0:0:
246,158,46471,1,8,0:0:0:0:
113,197,46669,1,0,0:0:0:0:
194,323,46867,6,0,P|290:332|340:283,1,140,10|8,0:1|0:0,0:0:0:0:
161,150,47461,2,0,P|149:189|134:225,1,70,0|8,0:0|0:1,0:0:0:0:
250,228,47857,2,0,L|292:203,1,35
343,170,48055,1,8,0:0:0:0:
161,150,48253,1,0,0:0:0:0:
322,309,48451,6,0,P|334:241|346:155,1,140,10|8,0:1|0:0,0:0:0:0:
432,306,49045,1,0,0:0:0:0:
250,228,49243,2,0,P|240:193|231:135,1,70,8|0,0:1|0:0,0:0:0:0:
233,160,49540,1,0,0:0:0:0:
233,160,49639,1,8,0:0:0:0:
322,309,49837,1,0,0:0:0:0:
134,179,50035,6,0,P|138:120|225:61,1,140,10|8,0:1|0:0,0:0:0:0:
250,228,50629,1,8,0:1:0:0:
250,228,50728,1,8,0:1:0:0:
250,228,50827,1,6,0:0:0:0:
134,179,51026,6,8,L|85:176,1,35,8|8,0:1|0:1,0:0:0:0:
182,248,51224,1,8,0:0:0:0:
216,238,51323,1,8,0:0:0:0:
250,228,51422,1,8,0:1:0:0:
94,363,51620,5,14,0:1:0:0:
47,269,51917,1,8,0:1:0:0:
0,176,52214,1,8,0:1:0:0:
0,176,52610,5,8,0:1:0:0:
250,228,52808,1,8,0:0:0:0:
250,228,53204,5,10,0:1:0:0:
149,249,53501,1,8,0:1:0:0:
47,269,53798,1,8,0:1:0:0:
47,269,54194,5,8,0:1:0:0:
84,116,54392,1,8,0:0:0:0:
220,328,54590,1,8,0:1:0:0:
220,328,54788,5,10,0:1:0:0:
250,228,55085,1,8,0:1:0:0:
280,129,55382,1,8,0:1:0:0:
280,129,55778,5,8,0:1:0:0:
47,269,55976,1,8,0:0:0:0:
47,269,56372,5,10,0:1:0:0:
99,176,56669,1,8,0:1:0:0:
149,84,56966,1,8,0:1:0:0:
149,84,57065,1,8,0:1:0:0:
149,84,57164,2,0,L|182:82,1,26.2500010013581,8|0,0:0|0:0,0:0:0:0:
248,112,57362,6,0,P|253:86|252:60,1,52.5000020027161,8|0,0:0|0:0,0:0:0:0:
149,84,57560,6,0,P|161:115|176:178,1,70,14|0,0:3|0:0,0:0:0:0:
252,192,57758,1,8,0:1:0:0:
252,192,57857,1,8,0:1:0:0:
252,192,57956,6,0,P|341:173|370:84,1,167.999994873047,14|8,0:1|0:0,0:0:0:0:
233,22,58550,2,0,P|196:32|172:35,1,41.9999987182618
276,95,58748,2,0,P|221:78|233:22,1,125.999996154785,8|0,0:1|0:0,0:0:0:0:
252,122,59144,6,0,B|252:216,1,70,14|0,0:0|0:0,0:0:0:0:
194,247,59342,1,8,0:1:0:0:
194,247,59441,1,8,0:1:0:0:
194,247,59540,6,0,P|105:228|76:139,1,167.999994873047,14|8,0:1|0:0,0:0:0:0:
213,77,60134,2,0,P|250:87|274:90,1,41.9999987182618
170,150,60332,2,0,P|225:133|213:77,1,125.999996154785,8|0,0:1|0:0,0:0:0:0:
194,177,60728,6,0,B|194:270,1,70,14|0,0:0|0:0,0:0:0:0:
277,259,60926,1,8,0:1:0:0:
277,259,61026,1,8,0:1:0:0:
277,259,61125,6,0,P|232:254|163:239,1,83.9999974365235,14|0,0:1|0:0,0:0:0:0:
354,334,61521,2,0,P|397:326|464:322,1,83.9999974365235,8|0,0:0|0:0,0:0:0:0:
234,340,61917,6,0,B|192:318|192:318|194:245,1,119.000002269745,14|0,0:1|0:0,0:0:0:0:
316,240,62214,2,0,B|356:260|356:260|354:333,1,119.000002269745,12|0,0:0|0:0,0:0:0:0:
194,247,62511,6,0,P|170:142|271:179,1,262.5,14|0,0:1|0:0,0:0:0:0:
286,344,62907,6,0,P|245:342|210:334,1,52.5000020027161,10|0,0:0|0:0,0:0:0:0:
142,250,63105,2,0,P|181:248|230:241,1,52.5000020027161,10|0,0:1|0:0,0:0:0:0:
323,184,63303,2,0,P|283:181|233:164,1,52.5000020027161,10|0,0:0|0:0,0:0:0:0:
152,101,63501,1,8,0:1:0:0:
152,101,63699,6,0,P|167:138|179:189,1,52.5000020027161,10|0,0:0|0:0,0:0:0:0:
249,226,63897,2,0,P|264:194|276:165,1,52.5000020027161,10|0,0:0|0:0,0:0:0:0:
382,81,64095,6,0,B|393:116|425:134|425:134|393:150|378:174|378:174|453:208|453:282|393:335|393:335|351:286|359:239,1,420.000016021729,14|8,0:1|0:1,0:0:0:0:
469,56,65085,5,8,0:0:0:0:
357,256,65283,1,8,0:1:0:0:
276,75,65481,5,8,0:0:0:0:
238,55,65580,1,8,0:0:0:0:
196,56,65679,1,8,0:0:0:0:
158,75,65778,1,8,0:0:0:0:
136,100,65877,6,0,P|158:176|170:243,1,125.999996154785,14|0,0:1|0:0,0:0:0:0:
61,272,66273,2,0,P|69:225|95:175,1,83.9999974365235,8|0,0:0|0:0,0:0:0:0:
133,372,66669,2,0,P|88:377|22:390,1,83.9999974365235,8|0,0:1|0:0,0:0:0:0:
166,221,67065,2,0,P|206:233|247:242,1,83.9999974365235,8|0,0:0|0:0,0:0:0:0:
61,272,67461,6,0,P|10:230|8:161,1,125.999996154785,10|0,0:1|0:0,0:0:0:0:
83,192,67857,1,8,0:0:0:0:
133,372,68055,1,0,0:0:0:0:
247,242,68253,2,0,P|304:229|395:223,1,125.999996154785,10|0,0:1|0:0,0:0:0:0:
281,322,68649,2,0,P|234:317|178:314,1,83.9999974365235,8|0,0:0|0:0,0:0:0:0:
323,117,69045,6,0,P|367:160|370:222,1,125.999996154785,10|0,0:1|0:0,0:0:0:0:
449,197,69441,2,0,P|412:216|370:221,1,83.9999974365235,8|0,0:0|0:0,0:0:0:0:
204,257,69837,2,0,P|189:221|194:147,1,83.9999974365235,8|0,0:1|0:0,0:0:0:0:
292,194,70233,2,0,P|313:152|326:100,1,83.9999974365235,8|0,0:0|0:0,0:0:0:0:
76,123,70629,6,0,P|83:179|91:262,1,125.999996154785,10|0,0:1|0:0,0:0:0:0:
5,218,71026,1,8,0:0:0:0:
186,176,71224,1,0,0:0:0:0:
123,356,71422,2,0,P|68:340|0:328,1,125.999996154785,10|0,0:1|0:0,0:0:0:0:
89,248,71818,2,0,P|111:210|125:161,1,83.9999974365235,8|0,0:0|0:0,0:0:0:0:
288,68,72214,6,0,P|311:120|325:206,1,125.999996154785,14|0,0:1|0:0,0:0:0:0:
405,168,72610,2,0,P|354:176|300:201,1,83.9999974365235,8|0,0:0|0:0,0:0:0:0:
123,171,73006,2,0,P|168:172|211:169,1,83.9999974365235,8|0,0:1|0:0,0:0:0:0:
249,274,73402,2,0,P|218:314|161:328,1,83.9999974365235,8|0,0:0|0:0,0:0:0:0:
367,384,73798,6,0,P|377:310|381:227,1,125.999996154785,10|0,0:1|0:0,0:0:0:0:
323,186,74194,1,8,0:0:0:0:
269,365,74392,1,0,0:0:0:0:
197,185,74590,2,0,P|256:183|335:188,1,125.999996154785,10|0,0:1|0:0,0:0:0:0:
380,258,74986,1,8,0:0:0:0:
146,277,75184,1,0,0:0:0:0:
146,277,75283,1,0,0:0:0:0:
146,277,75382,6,0,P|103:230|97:156,1,125.999996154785,10|0,0:1|0:0,0:0:0:0:
25,218,75778,2,0,P|52:194|115:162,1,83.9999974365235,8|0,0:0|0:0,0:0:0:0:
80,347,76174,2,0,P|36:329|-20:319,2,83.9999974365235,10|0|8,0:1|0:0|0:0,0:0:0:0:
322,185,76768,1,0,0:0:0:0:
322,185,76867,1,0,0:0:0:0:
322,185,76966,6,0,B|356:157|356:157|343:62,1,105.000004005432,14|0,0:1|0:0,0:0:0:0:
197,185,77263,2,0,L|213:297,1,105.000004005432,14|0,0:1|0:0,0:0:0:0:
244,93,77560,2,0,L|232:12,1,52.5000020027161,14|0,0:1|0:0,0:0:0:0:
197,185,77758,6,0,P|111:139|172:89,1,178.500003404617,14|0,0:0|0:0,0:0:0:0:
244,93,78154,5,8,0:0:0:0:
281,111,78253,1,8,0:0:0:0:
320,98,78352,1,8,0:0:0:0:
358,113,78451,1,8,0:0:0:0:
376,136,78550,6,0,P|354:197|336:255,1,125.999996154785,14|0,0:1|0:0,0:0:0:0:
272,203,78946,2,0,P|230:222|159:235,1,83.9999974365235,8|0,0:0|0:0,0:0:0:0:
377,352,79342,2,0,P|331:347|265:352,1,83.9999974365235,8|0,0:1|0:0,0:0:0:0:
510,239,79738,2,0,P|456:250|400:250,1,83.9999974365235,8|0,0:0|0:0,0:0:0:0:
272,203,80134,6,0,P|283:135|302:49,1,125.999996154785,10|0,0:1|0:0,0:0:0:0:
376,136,80530,1,8,0:0:0:0:
193,231,80728,1,0,0:0:0:0:
377,352,80927,2,0,P|423:316|426:248,1,125.999996154785,10|0,0:1|0:0,0:0:0:0:
354,277,81323,1,8,0:0:0:0:
208,371,81521,1,0,0:0:0:0:
208,371,81620,1,0,0:0:0:0:
208,371,81719,6,0,P|145:345|82:330,1,125.999996154785,10|0,0:1|0:0,0:0:0:0:
134,260,82115,2,0,P|115:294|65:356,1,83.9999974365235,8|0,0:0|0:0,0:0:0:0:
214,184,82511,2,0,P|235:231|247:287,1,83.9999974365235,8|0,0:1|0:0,0:0:0:0:
309,146,82907,2,0,P|324:106|325:34,1,83.9999974365235,8|0,0:0|0:0,0:0:0:0:
214,184,83303,6,0,P|148:174|52:168,1,125.999996154785,10|0,0:1|0:0,0:0:0:0:
134,260,83699,1,8,0:0:0:0:
220,80,83897,1,0,0:0:0:0:
307,249,84095,2,0,P|342:238|422:223,1,83.9999974365235,10|8,0:1|0:0,0:0:0:0:
273,348,84491,1,8,0:0:0:0:
273,348,84590,1,8,0:0:0:0:
273,348,84689,1,8,0:1:0:0:
187,302,84887,6,0,P|238:310|273:348,1,105,14|0,0:1|0:0,0:0:0:0:
203,379,85283,1,8,0:0:0:0:
52,335,85481,6,0,B|31:195|31:195|102:135,1,210.000008010865,14|8,0:1|0:1,0:0:0:0:
187,302,86075,5,8,0:0:0:0:
52,335,86273,1,8,0:1:0:0:
203,379,86471,6,0,P|248:353|264:290,1,105,14|0,0:1|0:0,0:0:0:0:
187,302,86867,1,8,0:0:0:0:
399,299,87065,6,0,B|448:249|448:249|304:248,1,210.000008010865,14|8,0:1|0:1,0:0:0:0:
504,342,87659,1,8,0:0:0:0:
465,165,87857,1,8,0:1:0:0:
465,165,87956,1,0,0:0:0:0:
465,165,88055,6,0,L|350:165,1,83.9999974365235,14|0,0:1|0:0,0:0:0:0:
215,165,88451,2,0,L|298:165,1,83.9999974365235,8|0,0:0|0:0,0:0:0:0:
427,247,88847,6,0,B|465:227|465:227|465:134,1,105.000004005432,14|0,0:1|0:0,0:0:0:0:
299,165,89144,2,0,L|299:283,1,105.000004005432,12|0,0:0|0:0,0:0:0:0:
380,95,89441,6,0,B|426:48|426:48|239:46,1,210,14|0,0:1|0:0,0:0:0:0:
202,48,89837,5,8,0:0:0:0:
500,202,90035,1,8,0:0:0:0:
500,202,91224,6,0,P|479:273|468:346,1,125.999996154785,14|0,0:1|0:0,0:0:0:0:
470,324,91620,1,8,0:0:0:0:
406,175,91818,1,0,0:0:0:0:
406,175,91917,1,0,0:0:0:0:
406,175,92016,2,0,P|391:136|375:66,1,83.9999974365235,8|0,0:1|0:0,0:0:0:0:
274,291,92412,2,0,P|291:250|302:212,1,83.9999974365235,8|0,0:0|0:0,0:0:0:0:
148,107,92808,6,0,P|167:177|183:261,1,125.999996154785,10|2,0:1|0:0,0:0:0:0:
274,291,93204,1,8,0:0:0:0:
255,119,93402,1,2,0:0:0:0:
71,242,93600,2,0,P|13:200|5:126,1,125.999996154785,10|0,0:1|0:0,0:0:0:0:
83,157,93996,1,8,0:0:0:0:
137,339,94194,1,2,0:0:0:0:
137,339,94293,1,2,0:0:0:0:
137,339,94392,6,0,P|201:323|321:314,1,167.999994873047,10|8,0:1|0:0,0:0:0:0:
177,229,94986,1,2,0:0:0:0:
301,139,95184,2,0,P|299:181|273:218,1,83.9999974365235,10|0,0:1|0:0,0:0:0:0:
222,156,95481,1,0,0:0:0:0:
222,156,95580,1,8,0:0:0:0:
302,313,95778,1,2,0:0:0:0:
302,313,95877,1,2,0:0:0:0:
302,313,95976,6,0,P|382:293|402:190,1,167.999994873047,10|8,0:1|0:0,0:0:0:0:
222,156,96570,1,2,0:0:0:0:
222,156,96669,1,2,0:0:0:0:
222,156,96768,2,0,P|219:203|214:265,1,83.9999974365235,10|0,0:1|0:0,0:0:0:0:
40,178,97164,5,8,0:0:0:0:
31,141,97263,1,8,0:0:0:0:
39,104,97362,1,8,0:0:0:0:
61,73,97461,1,8,0:0:0:0:
94,55,97560,6,0,P|181:70|296:76,1,167.999994873047,14|8,0:1|0:0,0:0:0:0:
329,160,98154,1,0,0:0:0:0:
215,332,98352,2,0,B|183:230|183:230|236:162,1,167.999994873047,10|8,0:1|0:0,0:0:0:0:
294,262,98946,1,0,0:0:0:0:
109,281,99144,6,0,P|60:254|60:176,1,125.999996154785,10|0,0:1|0:0,0:0:0:0:
52,189,99540,2,0,P|17:235|-15:260,1,83.9999974365235,10|0,0:0|0:0,0:0:0:0:
25,77,99936,2,0,P|74:82|127:83,1,83.9999974365235,10|0,0:1|0:0,0:0:0:0:
109,83,100233,1,2,0:0:0:0:
109,83,100332,1,8,0:0:0:0:
220,181,100530,1,2,0:0:0:0:
88,352,100728,6,0,P|68:280|51:180,1,167.999994873047,10|8,0:1|0:0,0:0:0:0:
220,181,101323,1,2,0:0:0:0:
268,302,101521,2,0,P|220:296|145:281,1,83.9999974365235,10|0,0:1|0:0,0:0:0:0:
185,289,101818,1,0,0:0:0:0:
185,289,101917,1,8,0:0:0:0:
340,203,102115,1,2,0:0:0:0:
340,203,102214,1,2,0:0:0:0:
340,203,102313,5,14,0:1:0:0:
260,75,102511,1,8,0:0:0:0:
268,302,102709,1,8,0:0:0:0:
220,181,102907,5,2,0:0:0:0:
220,181,103006,1,2,0:0:0:0:
220,181,103105,2,0,L|143:182,2,41.9999987182618,14|8|8,0:0|0:0|0:0,0:0:0:0:
451,173,103501,5,8,0:0:0:0:
459,214,103600,1,8,0:0:0:0:
449,254,103699,1,8,0:0:0:0:
423,287,103798,1,8,0:0:0:0:
384,306,103897,6,0,P|327:297|276:294,1,83.9999974365235,14|8,0:1|0:0,0:0:0:0:
178,181,104293,1,10,0:1:0:0:
360,209,104491,1,10,0:0:0:0:
360,209,104887,5,10,0:0:0:0:
260,75,105085,1,10,0:1:0:0:
184,289,105283,1,14,0:0:0:0:
256,192,105481,12,0,110233,0:0:0:0:
