osu file format v14

[General]
AudioFilename: optc.mp3
AudioLeadIn: 0
PreviewTime: 65481
Countdown: 0
SampleSet: Soft
StackLeniency: 0.7
Mode: 0
LetterboxInBreaks: 0
WidescreenStoryboard: 1

[Editor]
Bookmarks: 926,7263,19936,26273,38946,51620,57956,65877,78550,84887,91224,103897
DistanceSpacing: 1
BeatDivisor: 2
GridSize: 16
TimelineZoom: 2.6

[Metadata]
Title:Escalation heart (Short Ver.)
TitleUnicode:Escalation heart (Short Ver.)
Artist:NANA
ArtistUnicode:NANA
Creator:Shad0w1and
Version:Easy
Source:超昂天使エスカレイヤー・リブート
Tags:Choukou Tenshi Escalayer Reboot Beat Angel アリスソフト AliceSoft Alice Soft Japanese Video Game Jpop Pop Misure
BeatmapID:1391267
BeatmapSetID:654622

[Difficulty]
HPDrainRate:3
CircleSize:3
OverallDifficulty:4
ApproachRate:5
SliderMultiplier:0.8
SliderTickRate:1

[Events]
//Background and Video events
Video,0,"optc.flv"
0,0,"BG0.jpg",0,0
//Break Periods
//Storyboard Layer 0 (Background)
//Storyboard Layer 1 (Fail)
//Storyboard Layer 2 (Pass)
//Storyboard Layer 3 (Foreground)
//Storyboard Layer 4 (Overlay)
//Storyboard Sound Samples

[TimingPoints]
927,396.039603960396,4,2,1,70,1,0
927,-100,4,2,1,70,0,0
7263,-100,4,2,1,80,0,0
19936,-100,4,2,1,80,0,0
26273,-100,4,2,1,80,0,1
38154,-100,4,2,1,80,0,0
38946,-100,4,2,1,60,0,0
51620,-100,4,2,1,50,0,0
57956,-100,4,2,1,70,0,0
65877,-100,4,2,1,80,0,1
90035,-100,4,2,1,80,0,0
91224,-100,4,2,1,80,0,1
103897,-100,4,2,1,80,0,0
105481,-100,4,2,1,40,0,0
110233,-100,4,2,1,30,0,0

[Colours]
Combo1 : 255,224,130
Combo2 : 100,249,179
Combo3 : 117,180,255
Combo4 : 245,90,114

[HitObjects]
0,51,927,6,0,P|41:51|88:48,1,80,6|0,0:1|0:0,0:0:0:0:
136,104,1719,1,2,0:0:0:0:
215,104,2115,1,0,0:0:0:0:
281,150,2511,2,0,P|339:127|373:72,1,120,10|8,0:1|0:3,0:0:0:0:
405,60,3303,2,0,P|468:56|514:89,1,120,10|8,0:1|0:1,0:0:0:0:
511,127,4095,6,0,P|490:165|477:203,1,80,14|0,0:1|0:0,0:0:0:0:
433,265,4887,1,14,0:1:0:0:
353,256,5283,1,0,0:0:0:0:
274,247,5679,2,0,P|289:312|296:367,1,120,14|8,0:1|0:3,0:0:0:0:
256,356,6471,2,0,P|211:360|158:353,1,80,10|8,0:1|0:0,0:0:0:0:
100,330,7263,6,0,P|97:297|96:237,1,80,14|8,0:1|0:0,0:0:0:0:
45,188,8055,1,8,0:1:0:0:
64,110,8451,1,8,0:0:0:0:
134,72,8847,2,0,P|189:76|249:138,1,120,10|0,0:1|0:0,0:0:0:0:
256,150,9639,2,0,P|231:195|217:221,1,80,10|8,0:1|0:0,0:0:0:0:
234,298,10431,6,0,P|275:346|360:339,1,120,10|0,0:1|0:0,0:0:0:0:
367,363,11224,1,10,0:1:0:0:
441,334,11620,1,8,0:0:0:0:
508,290,12016,2,0,B|518:258|535:220|535:220|501:162,1,120,14|14,0:1|0:1,0:0:0:0:
486,150,12808,1,14,0:0:0:0:
407,166,13204,1,8,0:0:0:0:
351,222,13600,6,0,P|289:211|242:209,1,80,14|8,0:1|0:0,0:0:0:0:
202,170,14392,1,8,0:1:0:0:
125,192,14788,1,8,0:0:0:0:
80,259,15184,2,0,P|87:334|148:364,1,120,10|0,0:1|0:0,0:0:0:0:
156,371,15976,2,0,P|189:366|235:363,1,80,10|8,0:1|0:0,0:0:0:0:
294,309,16768,6,0,P|289:271|287:213,1,80,10|8,0:1|0:0,0:0:0:0:
237,167,17561,1,8,0:1:0:0:
250,88,17957,1,8,0:0:0:0:
329,72,18353,2,0,B|366:90|366:90|462:79,1,120,10|0,0:1|0:0,0:0:0:0:
477,102,19145,2,0,P|457:143|439:191,1,80,10|8,0:1|0:0,0:0:0:0:
467,251,19936,6,0,P|427:271|396:289,1,80,14|8,0:1|0:0,0:0:0:0:
360,272,20530,2,0,P|309:275|266:274,1,80,14|8,0:1|0:1,0:0:0:0:
176,335,21521,2,0,P|162:296|168:235,1,80,14|8,0:1|0:0,0:0:0:0:
175,220,22115,2,0,P|184:180|176:128,1,80,14|8,0:1|0:1,0:0:0:0:
117,39,23105,6,0,P|80:74|64:107,1,80,14|8,0:1|0:0,0:0:0:0:
60,179,23897,2,0,L|0:173,1,60,14|12,0:1|0:0,0:0:0:0:
9,233,24491,2,0,P|18:273|25:318,1,80,14|8,0:1|0:0,0:0:0:0:
59,330,25085,1,8,0:0:0:0:
253,189,26273,6,0,L|306:109,1,80,14|8,0:1|0:0,0:0:0:0:
224,88,27065,2,0,L|175:164,1,80,8|8,0:1|0:0,0:0:0:0:
100,149,27857,1,10,0:1:0:0:
133,221,28253,1,8,0:0:0:0:
191,276,28649,2,0,P|228:271|276:268,1,80,10|8,0:1|0:0,0:0:0:0:
348,251,29441,6,0,B|373:289|373:289|355:372,1,120,10|2,0:1|0:0,0:0:0:0:
393,378,30233,1,10,0:1:0:0:
472,374,30629,1,8,0:0:0:0:
512,304,31026,2,0,B|502:266|486:239|486:239|499:188,1,120,10|2,0:1|0:0,0:0:0:0:
477,156,31818,1,10,0:1:0:0:
398,139,32214,1,8,0:0:0:0:
318,145,32610,6,0,L|346:314,1,160,14|10,0:1|0:1,0:0:0:0:
271,335,33798,1,8,0:0:0:0:
211,282,34194,2,0,P|170:277|124:278,1,80,10|10,0:1|0:0,0:0:0:0:
70,329,34986,2,0,P|11:292|-1:239,1,120,10|2,0:1|0:0,0:0:0:0:
14,209,35778,6,0,P|90:200|141:185,1,120,10|2,0:1|0:0,0:0:0:0:
165,209,36570,1,10,0:1:0:0:
170,288,36966,1,8,0:0:0:0:
227,345,37362,2,0,P|265:354|312:348,1,80,14|8,0:1|0:0,0:0:0:0:
363,294,38154,1,14,0:0:0:0:
348,215,38550,1,8,0:0:0:0:
359,136,38946,6,0,P|431:106|497:156,1,160,14|8,0:1|0:1,0:0:0:0:
423,186,40134,1,8,0:0:0:0:
348,215,40530,2,0,B|267:216|267:216|199:172,1,160,10|8,0:1|0:1,0:0:0:0:
122,192,41719,1,8,0:0:0:0:
103,270,42115,6,0,P|142:269|177:250,1,80,10|8,0:1|0:0,0:0:0:0:
210,272,42709,2,0,B|258:305|258:305|329:305,1,120,2|8,0:0|0:0,0:0:0:0:
386,348,43699,2,0,P|398:311|387:264,1,80,10|8,0:1|0:0,0:0:0:0:
366,239,44293,2,0,B|366:177|366:177|415:124,1,120,2|8,0:0|0:0,0:0:0:0:
379,58,45283,6,0,P|444:64|481:157,1,160,10|8,0:1|0:1,0:0:0:0:
405,134,46471,1,8,0:0:0:0:
326,119,46867,2,0,B|245:118|245:118|175:52,1,160,10|8,0:1|0:1,0:0:0:0:
107,63,48056,1,8,0:0:0:0:
39,106,48452,6,0,P|87:140|145:133,1,120,10|0,0:1|0:0,0:0:0:0:
174,160,49244,1,8,0:1:0:0:
174,240,49640,1,8,0:0:0:0:
175,318,50036,2,0,P|221:303|253:236,1,120,10|8,0:1|0:1,0:0:0:0:
290,227,50827,2,0,L|370:227,1,80,6|8,0:0|0:0,0:0:0:0:
450,231,51620,6,0,P|514:158|441:126,1,200,14|8,0:1|0:1,0:0:0:0:
426,89,52808,1,8,0:0:0:0:
346,88,53204,6,0,P|273:152|241:79,1,200,10|8,0:1|0:1,0:0:0:0:
207,64,54392,1,8,0:0:0:0:
127,65,54788,6,0,P|63:138|136:170,1,200,10|8,0:1|0:1,0:0:0:0:
151,207,55976,1,8,0:0:0:0:
151,286,56372,6,0,P|224:350|256:277,1,200,10|8,0:1|0:0,0:0:0:0:
293,262,57560,1,14,0:3:0:0:
363,299,57956,6,0,P|410:287|481:277,1,120,14|0,0:1|0:0,0:0:0:0:
493,239,58748,1,8,0:1:0:0:
435,184,59144,1,14,0:0:0:0:
362,218,59540,6,0,P|315:206|244:196,1,120,14|0,0:1|0:0,0:0:0:0:
232,158,60332,1,8,0:1:0:0:
289,103,60728,1,14,0:0:0:0:
369,113,61125,6,0,P|372:76|402:37,1,80,14|8,0:1|0:0,0:0:0:0:
448,101,61917,2,0,P|473:107|523:113,2,60,14|12|14,0:1|0:0|0:1,0:0:0:0:
326,307,63699,2,0,L|378:295,1,40,10|10,0:0|0:0,0:0:0:0:
404,299,64095,6,0,P|498:299|478:220,1,200,14|8,0:1|0:0,0:0:0:0:
400,219,65481,1,8,0:0:0:0:
332,261,65877,6,0,P|290:242|243:226,1,80,14|8,0:1|0:0,0:0:0:0:
300,162,66669,1,8,0:1:0:0:
375,134,67065,1,8,0:0:0:0:
345,60,67461,2,0,P|311:12|237:2,1,120,10|0,0:1|0:0,0:0:0:0:
218,16,68253,2,0,P|210:61|200:101,1,80,10|8,0:1|0:0,0:0:0:0:
134,136,69045,6,0,P|87:128|37:124,1,80,10|8,0:1|0:0,0:0:0:0:
2,185,69837,1,8,0:1:0:0:
18,263,70233,1,8,0:0:0:0:
89,299,70629,2,0,P|151:294|193:247,1,120,10|0,0:1|0:0,0:0:0:0:
228,266,71421,2,0,P|249:301|269:338,1,80,10|8,0:1|0:0,0:0:0:0:
343,362,72214,6,0,P|381:353|430:349,1,80,14|8,0:1|0:0,0:0:0:0:
437,270,73006,1,8,0:1:0:0:
511,243,73402,1,8,0:0:0:0:
509,163,73798,2,0,P|498:129|423:94,1,120,10|0,0:1|0:0,0:0:0:0:
399,64,74590,2,0,P|358:68|314:71,1,80,10|8,0:1|0:0,0:0:0:0:
260,124,75382,6,0,P|288:194|310:281,1,160,10|10,0:1|0:1,0:0:0:0:
241,318,76570,1,8,0:0:0:0:
162,332,76966,2,0,P|166:291|226:239,1,120,14|14,0:1|0:1,0:0:0:0:
208,202,77758,1,14,0:0:0:0:
132,176,78154,1,8,0:0:0:0:
115,98,78550,6,0,P|116:58|139:21,1,80,14|8,0:1|0:0,0:0:0:0:
193,79,79342,1,8,0:1:0:0:
272,79,79738,1,8,0:0:0:0:
351,64,80134,2,0,P|394:96|404:165,1,120,10|0,0:1|0:0,0:0:0:0:
388,194,80926,2,0,P|335:201|301:210,1,80,10|8,0:1|0:0,0:0:0:0:
249,260,81718,6,0,P|205:252|165:247,1,80,10|8,0:1|0:0,0:0:0:0:
92,265,82510,1,8,0:1:0:0:
21,230,82906,1,8,0:0:0:0:
4,152,83302,2,0,P|25:109|51:35,1,120,10|0,0:1|0:0,0:0:0:0:
86,25,84094,2,0,P|112:54|149:79,1,80,10|8,0:1|0:0,0:0:0:0:
203,132,84887,6,0,P|248:128|297:127,1,80,14|8,0:1|0:0,0:0:0:0:
318,145,85481,2,0,P|355:171|368:244,1,120,14|8,0:1|0:0,0:0:0:0:
291,221,86471,2,0,P|243:231|201:251,1,80,14|8,0:1|0:0,0:0:0:0:
184,269,87065,2,0,P|129:238|74:215,1,120,14|8,0:1|0:0,0:0:0:0:
12,264,88055,6,0,P|24:309|30:355,1,80,14|8,0:1|0:0,0:0:0:0:
106,361,88847,2,0,P|137:352|172:345,1,60,14|12,0:1|0:0,0:0:0:0:
219,368,89441,2,0,P|262:357|302:353,1,80,14|8,0:1|0:0,0:0:0:0:
332,373,90035,1,8,0:0:0:0:
264,142,91224,6,0,P|260:104|279:64,1,80,14|8,0:1|0:0,0:0:0:0:
339,116,92016,2,0,P|379:119|437:115,1,80,8|8,0:1|0:0,0:0:0:0:
492,148,92808,1,10,0:1:0:0:
474,226,93204,1,8,0:0:0:0:
395,220,93600,2,0,P|364:234|312:239,1,80,10|8,0:1|0:0,0:0:0:0:
238,241,94392,6,0,P|228:182|214:116,1,120,10|2,0:1|0:0,0:0:0:0:
175,119,95184,1,10,0:1:0:0:
97,136,95580,1,8,0:0:0:0:
52,203,95977,2,0,P|64:259|71:330,1,120,10|2,0:1|0:0,0:0:0:0:
107,337,96769,1,10,0:1:0:0:
182,311,97165,1,8,0:0:0:0:
234,371,97560,6,0,P|317:351|341:282,1,160,14|10,0:1|0:1,0:0:0:0:
261,294,98749,1,8,0:0:0:0:
206,235,99145,2,0,P|202:200|193:151,1,80,10|10,0:1|0:0,0:0:0:0:
251,100,99937,2,0,P|272:69|359:54,1,120,10|2,0:1|0:0,0:0:0:0:
385,66,100729,6,0,P|437:66|519:58,1,120,10|2,0:1|0:0,0:0:0:0:
499,99,101521,1,10,0:1:0:0:
454,164,101917,1,8,0:0:0:0:
380,194,102313,2,0,P|408:251|429:314,1,120,14|2,0:1|0:0,0:0:0:0:
397,332,103105,1,14,0:0:0:0:
317,335,103501,1,8,0:0:0:0:
239,355,103897,6,0,P|207:327|186:276,1,80,14|10,0:1|0:1,0:0:0:0:
150,287,104491,1,10,0:0:0:0:
78,251,104887,2,0,B|38:251|38:251|0:269,1,80,10|14,0:0|0:0,0:0:0:0:
256,192,105481,12,0,110233,0:0:0:0:
