osu file format v14

[General]
AudioFilename: run!_run!_run!.mp3
AudioLeadIn: 1700
PreviewTime: 241
Countdown: 0
SampleSet: None
StackLeniency: 0.4
Mode: 0
LetterboxInBreaks: 0
WidescreenStoryboard: 1

[Editor]
DistanceSpacing: 0.7
BeatDivisor: 4
GridSize: 4
TimelineZoom: 2.1

[Metadata]
Title:RUN!RUN!RUN!
TitleUnicode:RUN!RUN!RUN!
Artist:NAMCO
ArtistUnicode:ナムコ
Creator:DT-sama
Version:ababa
Source:風のクロノア2~世界が望んだ忘れもの~
Tags:
BeatmapID:1355564
BeatmapSetID:639120

[Difficulty]
HPDrainRate:5
CircleSize:5
OverallDifficulty:9
ApproachRate:9
SliderMultiplier:2.59999990463257
SliderTickRate:1

[Events]
//Background and Video events
0,0,"Klonoa 2_03.jpg",0,0
//Break Periods
//Storyboard Layer 0 (Background)
//Storyboard Layer 1 (Fail)
//Storyboard Layer 2 (Pass)
//Storyboard Layer 3 (Foreground)
//Storyboard Sound Samples

[TimingPoints]
324,333.333333333333,4,2,1,70,1,0
27001,333.333333333333,4,2,1,70,1,0

[Colours]
Combo1 : 241,82,14
Combo2 : 0,179,0
Combo3 : 20,228,252
Combo4 : 181,167,38

[HitObjects]
80,136,324,5,0,0:0:0:0:
144,180,490,5,0,0:0:0:0:
152,160,573,1,0,0:0:0:0:
160,140,657,1,0,0:0:0:0:
256,80,823,5,0,0:0:0:0:
244,108,907,1,0,0:0:0:0:
232,136,990,1,0,0:0:0:0:
352,208,1157,5,0,0:0:0:0:
332,172,1240,1,0,0:0:0:0:
312,140,1323,1,0,0:0:0:0:
400,112,1490,5,0,0:0:0:0:
396,120,1573,1,0,0:0:0:0:
392,128,1657,1,0,0:0:0:0:
496,184,1823,5,0,0:0:0:0:
480,160,1907,1,0,0:0:0:0:
464,136,1990,1,0,0:0:0:0:
212,284,2157,5,0,0:0:0:0:
240,244,2241,1,0,0:0:0:0:
268,204,2324,1,0,0:0:0:0:
256,192,2407,12,0,2657,0:0:0:0:
56,316,2990,5,0,0:0:0:0:
156,344,3157,1,0,0:0:0:0:
240,264,3323,1,0,0:0:0:0:
224,136,3490,1,0,0:0:0:0:
64,76,3657,1,0,0:0:0:0:
12,264,3823,1,0,0:0:0:0:
188,128,3990,1,0,0:0:0:0:
236,340,4157,1,0,0:0:0:0:
16,160,4323,6,0,P|88:160|152:240,1,129.999995231628
352,373,4657,2,0,P|280:373|216:293,1,129.999995231628
436,24,5073,5,0,0:0:0:0:
372,20,5156,1,0,0:0:0:0:
348,80,5240,1,0,0:0:0:0:
396,124,5323,5,0,0:0:0:0:
456,96,5406,1,0,0:0:0:0:
500,144,5490,1,0,0:0:0:0:
476,204,5573,1,0,0:0:0:0:
412,192,5656,5,0,0:0:0:0:
280,128,5823,1,0,0:0:0:0:
436,24,5990,1,0,0:0:0:0:
44,20,6323,5,0,0:0:0:0:
200,124,6490,1,0,0:0:0:0:
68,188,6657,1,0,0:0:0:0:
176,228,6823,1,0,0:0:0:0:
500,368,6990,5,0,0:0:0:0:
336,360,7157,1,0,0:0:0:0:
336,360,7240,1,0,0:0:0:0:
336,360,7323,1,0,0:0:0:0:
424,252,7490,1,0,0:0:0:0:
500,368,7657,5,0,0:0:0:0:
136,288,7823,1,0,0:0:0:0:
404,32,7990,1,0,0:0:0:0:
24,264,8323,5,0,0:0:0:0:
60,140,8490,1,0,0:0:0:0:
136,276,8657,1,0,0:0:0:0:
180,100,8823,1,0,0:0:0:0:
256,296,8990,1,0,0:0:0:0:
308,68,9157,1,0,0:0:0:0:
384,316,9323,1,0,0:0:0:0:
464,40,9490,1,0,0:0:0:0:
384,316,9657,6,0,P|344:252|360:180,1,129.999995231629
128,68,9990,2,0,P|168:132|152:204,1,129.999995231629
408,24,10323,5,0,0:0:0:0:
344,24,10407,1,0,0:0:0:0:
320,84,10490,1,0,0:0:0:0:
372,124,10573,1,0,0:0:0:0:
428,92,10657,5,0,0:0:0:0:
472,140,10740,1,0,0:0:0:0:
452,200,10823,1,0,0:0:0:0:
388,192,10907,1,0,0:0:0:0:
372,128,10990,5,0,0:0:0:0:
456,32,11157,1,0,0:0:0:0:
512,188,11323,1,0,0:0:0:0:
192,264,11657,5,0,0:0:0:0:
91,379,11824,1,0,0:0:0:0:
0,188,11990,1,0,0:0:0:0:
500,16,12323,5,0,0:0:0:0:
336,24,12490,1,0,0:0:0:0:
336,24,12573,1,0,0:0:0:0:
336,24,12656,1,0,0:0:0:0:
424,132,12823,1,0,0:0:0:0:
12,368,12990,5,0,0:0:0:0:
176,360,13157,1,0,0:0:0:0:
176,360,13240,1,0,0:0:0:0:
176,360,13323,1,0,0:0:0:0:
88,252,13490,1,0,0:0:0:0:
500,16,13657,5,0,0:0:0:0:
336,24,13824,1,0,0:0:0:0:
336,24,13907,1,0,0:0:0:0:
336,24,13990,1,0,0:0:0:0:
424,132,14157,1,0,0:0:0:0:
500,16,14324,5,0,0:0:0:0:
136,96,14490,1,0,0:0:0:0:
404,352,14657,1,0,0:0:0:0:
136,96,14990,5,0,0:0:0:0:
288,52,15157,1,0,0:0:0:0:
260,88,15240,1,0,0:0:0:0:
232,124,15323,1,0,0:0:0:0:
392,148,15490,1,0,0:0:0:0:
356,120,15574,1,0,0:0:0:0:
320,92,15657,1,0,0:0:0:0:
480,120,15823,1,0,0:0:0:0:
320,92,15990,5,0,0:0:0:0:
344,128,16073,1,0,0:0:0:0:
316,164,16157,1,0,0:0:0:0:
340,204,16240,1,0,0:0:0:0:
316,244,16323,5,0,0:0:0:0:
149,262,16490,1,0,0:0:0:0:
189,238,16573,1,0,0:0:0:0:
229,218,16657,1,0,0:0:0:0:
316,164,16823,1,0,0:0:0:0:
271,152,16906,1,0,0:0:0:0:
229,138,16990,1,0,0:0:0:0:
146,92,17157,1,0,0:0:0:0:
191,80,17240,1,0,0:0:0:0:
233,66,17324,5,0,0:0:0:0:
257,102,17407,1,0,0:0:0:0:
229,138,17491,1,0,0:0:0:0:
253,178,17574,1,0,0:0:0:0:
229,218,17657,5,0,0:0:0:0:
52,248,17823,1,0,0:0:0:0:
52,248,17907,1,0,0:0:0:0:
52,248,17990,1,0,0:0:0:0:
116,76,18157,1,0,0:0:0:0:
288,248,18323,5,0,0:0:0:0:
439,218,18489,1,0,0:0:0:0:
439,218,18573,1,0,0:0:0:0:
439,218,18656,1,0,0:0:0:0:
392,368,18823,1,0,0:0:0:0:
229,218,18990,5,0,0:0:0:0:
52,248,19156,1,0,0:0:0:0:
52,248,19240,1,0,0:0:0:0:
52,248,19323,1,0,0:0:0:0:
116,76,19490,1,0,0:0:0:0:
440,224,19657,5,0,0:0:0:0:
142,350,19823,1,0,0:0:0:0:
180,26,19990,1,0,0:0:0:0:
440,224,20323,5,0,0:0:0:0:
192,264,20490,1,0,0:0:0:0:
208,284,20573,1,0,0:0:0:0:
224,304,20657,1,0,0:0:0:0:
440,224,20823,1,0,0:0:0:0:
424,204,20906,1,0,0:0:0:0:
408,184,20989,1,0,0:0:0:0:
132,140,21157,5,0,0:0:0:0:
140,84,21240,1,0,0:0:0:0:
192,60,21323,1,0,0:0:0:0:
240,92,21407,1,0,0:0:0:0:
264,144,21490,1,0,0:0:0:0:
320,156,21573,1,0,0:0:0:0:
360,112,21657,5,0,0:0:0:0:
132,140,21823,1,0,0:0:0:0:
148,160,21906,1,0,0:0:0:0:
164,180,21990,1,0,0:0:0:0:
360,112,22157,1,0,0:0:0:0:
344,92,22240,1,0,0:0:0:0:
328,72,22323,1,0,0:0:0:0:
168,0,22490,1,0,0:0:0:0:
184,20,22573,1,0,0:0:0:0:
200,40,22656,5,0,0:0:0:0:
176,76,22739,1,0,0:0:0:0:
204,112,22823,1,0,0:0:0:0:
180,152,22906,1,0,0:0:0:0:
204,192,22989,5,0,0:0:0:0:
340,264,23157,1,0,0:0:0:0:
496,172,23323,1,0,0:0:0:0:
496,172,23379,1,0,0:0:0:0:
496,172,23435,1,0,0:0:0:0:
496,172,23490,2,0,L|520:120,3,43.3333317438762
104,72,23823,5,0,0:0:0:0:
40,184,23990,1,0,0:0:0:0:
96,204,24101,1,0,0:0:0:0:
156,192,24212,1,0,0:0:0:0:
196,144,24323,5,0,0:0:0:0:
40,184,24490,1,0,0:0:0:0:
40,184,24573,1,0,0:0:0:0:
40,184,24657,1,0,0:0:0:0:
160,312,24823,1,0,0:0:0:0:
336,92,24990,5,0,0:0:0:0:
416,268,25157,1,0,0:0:0:0:
416,268,25240,1,0,0:0:0:0:
416,268,25323,1,0,0:0:0:0:
440,32,25490,1,0,0:0:0:0:
224,288,25657,5,0,0:0:0:0:
168,48,25823,1,0,0:0:0:0:
168,48,25907,1,0,0:0:0:0:
168,48,25990,1,0,0:0:0:0:
72,340,26157,1,0,0:0:0:0:
440,340,26323,5,0,0:0:0:0:
440,44,26490,1,0,0:0:0:0:
72,44,26657,1,0,0:0:0:0:
352,300,26823,5,0,0:0:0:0:
432,248,27001,5,0,0:0:0:0:
368,204,27167,5,0,0:0:0:0:
360,224,27250,1,0,0:0:0:0:
352,244,27334,1,0,0:0:0:0:
256,304,27500,5,0,0:0:0:0:
268,276,27584,1,0,0:0:0:0:
280,248,27667,1,0,0:0:0:0:
160,176,27834,5,0,0:0:0:0:
180,212,27917,1,0,0:0:0:0:
200,244,28000,1,0,0:0:0:0:
112,272,28167,5,0,0:0:0:0:
116,264,28250,1,0,0:0:0:0:
120,256,28334,1,0,0:0:0:0:
16,200,28500,5,0,0:0:0:0:
32,224,28584,1,0,0:0:0:0:
48,248,28667,1,0,0:0:0:0:
300,100,28834,5,0,0:0:0:0:
272,140,28918,1,0,0:0:0:0:
244,180,29001,1,0,0:0:0:0:
256,192,29084,12,0,29334,0:0:0:0:
456,68,29667,5,0,0:0:0:0:
356,40,29834,1,0,0:0:0:0:
272,120,30000,1,0,0:0:0:0:
288,248,30167,1,0,0:0:0:0:
448,308,30334,1,0,0:0:0:0:
500,120,30500,1,0,0:0:0:0:
324,256,30667,1,0,0:0:0:0:
276,44,30834,1,0,0:0:0:0:
496,224,31000,6,0,P|424:224|360:144,1,129.999995231628
160,11,31334,2,0,P|232:11|296:91,1,129.999995231628
76,360,31750,5,0,0:0:0:0:
140,364,31833,1,0,0:0:0:0:
164,304,31917,1,0,0:0:0:0:
116,260,32000,5,0,0:0:0:0:
56,288,32083,1,0,0:0:0:0:
12,240,32167,1,0,0:0:0:0:
36,180,32250,1,0,0:0:0:0:
100,192,32333,5,0,0:0:0:0:
232,256,32500,1,0,0:0:0:0:
76,360,32667,1,0,0:0:0:0:
468,364,33000,5,0,0:0:0:0:
312,260,33167,1,0,0:0:0:0:
444,196,33334,1,0,0:0:0:0:
336,156,33500,1,0,0:0:0:0:
12,16,33667,5,0,0:0:0:0:
176,24,33834,1,0,0:0:0:0:
176,24,33917,1,0,0:0:0:0:
176,24,34000,1,0,0:0:0:0:
88,132,34167,1,0,0:0:0:0:
12,16,34334,5,0,0:0:0:0:
376,96,34500,1,0,0:0:0:0:
108,352,34667,1,0,0:0:0:0:
488,120,35000,5,0,0:0:0:0:
452,244,35167,1,0,0:0:0:0:
376,108,35334,1,0,0:0:0:0:
332,284,35500,1,0,0:0:0:0:
256,88,35667,1,0,0:0:0:0:
204,316,35834,1,0,0:0:0:0:
128,68,36000,1,0,0:0:0:0:
48,344,36167,1,0,0:0:0:0:
128,68,36334,6,0,P|168:132|152:204,1,129.999995231629
384,316,36667,2,0,P|344:252|360:180,1,129.999995231629
104,360,37000,5,0,0:0:0:0:
168,360,37084,1,0,0:0:0:0:
192,300,37167,1,0,0:0:0:0:
140,260,37250,1,0,0:0:0:0:
84,292,37334,5,0,0:0:0:0:
40,244,37417,1,0,0:0:0:0:
60,184,37500,1,0,0:0:0:0:
124,192,37584,1,0,0:0:0:0:
140,256,37667,5,0,0:0:0:0:
56,352,37834,1,0,0:0:0:0:
0,196,38000,1,0,0:0:0:0:
320,120,38334,5,0,0:0:0:0:
421,5,38501,1,0,0:0:0:0:
512,196,38667,1,0,0:0:0:0:
12,368,39000,5,0,0:0:0:0:
176,360,39167,1,0,0:0:0:0:
176,360,39250,1,0,0:0:0:0:
176,360,39333,1,0,0:0:0:0:
88,252,39500,1,0,0:0:0:0:
500,16,39667,5,0,0:0:0:0:
336,24,39834,1,0,0:0:0:0:
336,24,39917,1,0,0:0:0:0:
336,24,40000,1,0,0:0:0:0:
424,132,40167,1,0,0:0:0:0:
12,368,40334,5,0,0:0:0:0:
176,360,40501,1,0,0:0:0:0:
176,360,40584,1,0,0:0:0:0:
176,360,40667,1,0,0:0:0:0:
88,252,40834,1,0,0:0:0:0:
12,368,41001,5,0,0:0:0:0:
376,288,41167,1,0,0:0:0:0:
108,32,41334,1,0,0:0:0:0:
376,288,41667,5,0,0:0:0:0:
224,332,41834,1,0,0:0:0:0:
252,296,41917,1,0,0:0:0:0:
280,260,42000,1,0,0:0:0:0:
120,236,42167,1,0,0:0:0:0:
156,264,42251,1,0,0:0:0:0:
192,292,42334,1,0,0:0:0:0:
32,264,42500,1,0,0:0:0:0:
192,292,42667,5,0,0:0:0:0:
168,256,42750,1,0,0:0:0:0:
196,220,42834,1,0,0:0:0:0:
172,180,42917,1,0,0:0:0:0:
196,140,43000,5,0,0:0:0:0:
363,122,43167,1,0,0:0:0:0:
323,146,43250,1,0,0:0:0:0:
283,166,43334,1,0,0:0:0:0:
196,220,43500,1,0,0:0:0:0:
241,232,43583,1,0,0:0:0:0:
283,246,43667,1,0,0:0:0:0:
366,292,43834,1,0,0:0:0:0:
321,304,43917,1,0,0:0:0:0:
279,318,44001,5,0,0:0:0:0:
255,282,44084,1,0,0:0:0:0:
283,246,44168,1,0,0:0:0:0:
259,206,44251,1,0,0:0:0:0:
283,166,44334,5,0,0:0:0:0:
460,136,44500,1,0,0:0:0:0:
460,136,44584,1,0,0:0:0:0:
460,136,44667,1,0,0:0:0:0:
396,308,44834,1,0,0:0:0:0:
224,136,45000,5,0,0:0:0:0:
73,166,45166,1,0,0:0:0:0:
73,166,45250,1,0,0:0:0:0:
73,166,45333,1,0,0:0:0:0:
120,16,45500,1,0,0:0:0:0:
283,166,45667,5,0,0:0:0:0:
460,136,45833,1,0,0:0:0:0:
460,136,45917,1,0,0:0:0:0:
460,136,46000,1,0,0:0:0:0:
396,308,46167,1,0,0:0:0:0:
72,160,46334,5,0,0:0:0:0:
370,34,46500,1,0,0:0:0:0:
332,358,46667,1,0,0:0:0:0:
72,160,47000,5,0,0:0:0:0:
320,120,47167,1,0,0:0:0:0:
304,100,47250,1,0,0:0:0:0:
288,80,47334,1,0,0:0:0:0:
72,160,47500,1,0,0:0:0:0:
88,180,47583,1,0,0:0:0:0:
104,200,47666,1,0,0:0:0:0:
380,244,47834,5,0,0:0:0:0:
372,300,47917,1,0,0:0:0:0:
320,324,48000,1,0,0:0:0:0:
272,292,48084,1,0,0:0:0:0:
248,240,48167,1,0,0:0:0:0:
192,228,48250,1,0,0:0:0:0:
152,272,48334,5,0,0:0:0:0:
380,244,48500,1,0,0:0:0:0:
364,224,48583,1,0,0:0:0:0:
348,204,48667,1,0,0:0:0:0:
152,272,48834,1,0,0:0:0:0:
168,292,48917,1,0,0:0:0:0:
184,312,49000,1,0,0:0:0:0:
344,384,49167,1,0,0:0:0:0:
328,364,49250,1,0,0:0:0:0:
312,344,49333,5,0,0:0:0:0:
336,308,49416,1,0,0:0:0:0:
308,272,49500,1,0,0:0:0:0:
332,232,49583,1,0,0:0:0:0:
308,192,49666,5,0,0:0:0:0:
172,120,49834,1,0,0:0:0:0:
16,212,50000,1,0,0:0:0:0:
16,212,50056,1,0,0:0:0:0:
16,212,50112,1,0,0:0:0:0:
16,212,50167,2,0,L|-8:264,3,43.3333317438762
408,312,50500,5,0,0:0:0:0:
472,200,50667,1,0,0:0:0:0:
416,180,50778,1,0,0:0:0:0:
356,192,50889,1,0,0:0:0:0:
316,240,51000,5,0,0:0:0:0:
472,200,51167,1,0,0:0:0:0:
472,200,51250,1,0,0:0:0:0:
472,200,51334,1,0,0:0:0:0:
352,72,51500,1,0,0:0:0:0:
176,292,51667,5,0,0:0:0:0:
96,116,51834,1,0,0:0:0:0:
96,116,51917,1,0,0:0:0:0:
96,116,52000,1,0,0:0:0:0:
72,352,52167,1,0,0:0:0:0:
288,96,52334,5,0,0:0:0:0:
344,336,52500,1,0,0:0:0:0:
344,336,52584,1,0,0:0:0:0:
344,336,52667,1,0,0:0:0:0:
440,44,52834,1,0,0:0:0:0:
72,44,53000,5,0,0:0:0:0:
72,340,53167,1,0,0:0:0:0:
440,340,53334,1,0,0:0:0:0:
72,44,53500,5,0,0:0:0:0:
