osu file format v14

[General]
AudioFilename: audio.mp3
AudioLeadIn: 0
PreviewTime: 20603
Countdown: 0
SampleSet: Soft
StackLeniency: 0.6
Mode: 0
LetterboxInBreaks: 0
WidescreenStoryboard: 1

[Editor]
Bookmarks: 40300
DistanceSpacing: 1.7
BeatDivisor: 2
GridSize: 4
TimelineZoom: 1.800006

[Metadata]
Title:Sounding Beat
TitleUnicode:Sounding Beat
Artist:NAGI
ArtistUnicode:NAGI☆
Creator:6th
Version:Intermediate
Source:
Tags:NAGI☆ EDM FELT Increase Beat
BeatmapID:1762658
BeatmapSetID:840230

[Difficulty]
HPDrainRate:6
CircleSize:3.8
OverallDifficulty:5.5
ApproachRate:6
SliderMultiplier:1.8
SliderTickRate:1

[Events]
//Background and Video events
0,0,"Nagi.jpg",0,0
//Break Periods
2,18379,19553
//Storyboard Layer 0 (Background)
//Storyboard Layer 1 (Fail)
//Storyboard Layer 2 (Pass)
//Storyboard Layer 3 (Foreground)
//Storyboard Sound Samples

[TimingPoints]
1210,606.060606060606,4,2,1,45,1,0
1210,-200,4,2,1,45,0,0
20603,-100,4,2,1,65,0,0
29391,-100,4,2,1,65,0,0
29694,-100,4,2,1,65,0,0
30300,-100,4,2,1,65,0,0
30452,-100,4,2,1,65,0,0
31058,-100,4,2,1,65,0,0
31209,-100,4,2,1,65,0,0
32119,-100,4,2,1,65,0,0
32876,-100,4,2,1,65,0,0
33028,-100,4,2,1,65,0,0
33482,-100,4,2,1,85,0,0
33937,-100,4,2,1,65,0,0
34391,-100,4,2,1,65,0,0
34543,-100,4,2,1,65,0,0
36210,-100,4,2,1,65,0,0
38331,-100,4,2,1,65,0,0
39088,-100,4,2,1,65,0,0
39240,-100,4,2,1,85,0,0
39997,-100,4,2,1,65,0,1
40149,-100,4,2,1,65,0,1
41058,-100,4,2,1,45,0,1
41664,-100,4,2,1,65,0,1
41816,-100,4,2,1,65,0,1
41967,-100,4,2,1,65,0,1
42422,-100,4,2,1,65,0,1
44240,-100,4,2,1,65,0,1
44543,-100,4,2,1,65,0,1
45755,-100,4,2,1,65,0,1
45906,-100,4,2,1,45,0,1
46664,-100,4,2,1,45,0,1
47270,-100,4,2,1,65,0,1
48179,-100,4,2,1,65,0,1
49694,-100,4,2,1,65,0,1
50603,-100,4,2,1,65,0,1
56361,-100,4,2,1,65,0,1
56437,-100,4,2,1,65,0,1
57573,-100,4,2,1,45,0,1
58785,-80,4,2,1,45,0,1
59391,-100,4,2,1,45,0,0
69088,-100,4,2,1,25,0,0

[Colours]
Combo1 : 255,192,0
Combo2 : 0,202,0
Combo3 : 18,124,255
Combo4 : 242,24,57
SliderBorder : 255,217,255
SliderTrackOverride : 0,0,0

[HitObjects]
100,338,1210,6,0,B|75:288|124:264|124:264|191:297|269:229|187:158|187:158|206:194|184:237,1,360,4|2,0:0|0:1,0:0:0:0:
189,225,4846,1,2,0:0:0:0:
188,225,6058,6,0,B|154:185|174:110|259:122|259:122|356:137|392:35|320:-3,1,360,4|2,0:0|1:0,0:0:0:0:
334,6,9694,1,2,0:0:0:0:
334,6,10906,2,0,B|247:37|251:105|251:105|327:90|423:168|363:253,1,360,4|2,0:0|0:1,0:0:0:0:
372,236,14543,1,2,0:0:0:0:
372,236,15755,6,0,B|299:263|228:236|228:236|213:251|213:251|173:204|80:210|74:303|129:323,1,360,4|2,0:0|1:0,0:0:0:0:
447,324,20603,6,0,P|464:275|445:223,1,90,4|2,0:0|0:0,0:0:0:0:
394,192,21058,2,0,L|333:185,1,45,0|4,0:0|0:3,0:0:0:0:
324,117,21361,1,4,0:3:0:0:
324,117,21513,1,8,0:0:0:0:
190,286,21967,5,0,0:0:0:0:
110,274,22119,2,0,L|49:265,1,45,4|4,0:3|0:3,0:0:0:0:
14,210,22422,2,0,L|23:149,1,45,8|4,0:0|0:3,0:0:0:0:
85,124,22725,2,0,L|129:130,1,45,2|2,0:0|0:0,0:0:0:0:
199,98,23028,6,0,B|249:105|249:105|288:89,1,90,4|0,0:2|0:0,0:0:0:0:
351,53,23482,2,0,B|386:37|386:37|437:45,1,90,2|2,0:0|0:1,0:0:0:0:
395,117,23937,2,0,P|389:139|393:166,1,45,8|4,0:0|0:3,0:0:0:0:
332,210,24240,2,0,P|348:226|373:236,1,45,0|4,0:0|0:3,0:0:0:0:
446,217,24543,5,2,0:1:0:0:
446,217,24694,1,0,0:0:0:0:
425,290,24846,2,0,L|414:339,1,45,2|4,0:0|0:3,0:0:0:0:
338,331,25149,2,0,L|327:380,1,45,4|2,0:3|0:0,0:0:0:0:
253,357,25452,6,0,L|148:364,1,90,4|0,0:0|0:0,0:0:0:0:
97,323,25906,2,0,B|80:301|80:301|91:221,1,90,0|2,0:0|0:1,0:0:0:0:
140,182,26361,2,0,B|157:160|157:160|146:80,1,90,2|0,0:0|0:0,0:0:0:0:
90,47,26816,5,0,0:0:0:0:
90,47,26967,2,0,P|110:30|144:20,1,45,4|4,1:3|0:3,0:0:0:0:
201,39,27270,2,0,P|223:65|228:97,1,45,8|0,0:0|0:0,0:0:0:0:
239,150,27573,1,2,0:0:0:0:
429,137,27876,6,0,B|446:96|446:96|423:43,1,90,4|2,0:0|0:0,0:0:0:0:
365,98,28331,2,0,L|380:230,1,90,0|0,0:0|0:0,0:0:0:0:
431,250,28785,2,0,L|416:382,1,90,2|0,0:1|0:0,0:0:0:0:
496,325,29240,5,2,0:0:0:0:
420,339,29391,2,0,L|337:355,1,45,6|4,0:3|0:3,0:0:0:0:
307,313,29694,2,0,L|224:329,1,45,2|2,0:0|0:1,0:0:0:0:
203,370,29997,2,0,L|120:386,1,45,4|4,0:3|0:3,0:0:0:0:
85,356,30300,5,4,0:0:0:0:
85,356,30452,1,0,0:0:0:0:
141,305,30603,2,0,P|160:256|143:211,1,90,0|8,0:0|0:0,0:0:0:0:
105,159,31058,1,4,0:3:0:0:
105,159,31209,6,0,L|93:76,1,45,4|0,0:3|0:0,0:0:0:0:
172,92,31513,2,0,L|189:9,1,45,0|2,0:0|0:0,0:0:0:0:
216,168,31816,2,0,L|239:129,1,45,4|4,0:3|0:3,0:0:0:0:
321,87,32119,2,0,P|353:75|428:109,1,90,8|0,0:0|0:0,0:0:0:0:
456,145,32573,1,0,0:0:0:0:
456,145,32725,6,0,L|462:203,1,45,4|0,0:0|0:3,0:0:0:0:
421,255,33028,2,0,L|427:313,1,45,2|0,0:1|0:0,0:0:0:0:
361,341,33331,1,8,0:0:0:0:
285,329,33482,1,4,0:1:0:0:
209,317,33634,1,0,0:0:0:0:
46,339,33937,6,0,L|-13:347,1,45,2|4,0:1|0:3,0:0:0:0:
53,257,34240,1,4,0:3:0:0:
53,257,34391,1,4,0:3:0:0:
131,300,34543,2,0,L|244:281,1,90,2|0,0:0|0:0,0:0:0:0:
53,257,35149,6,0,P|34:216|50:153,1,90,4|2,0:0|0:0,0:0:0:0:
101,128,35603,1,4,0:3:0:0:
101,128,35755,2,0,L|114:34,1,90,2|4,0:0|0:3,0:0:0:0:
189,68,36210,1,0,0:0:0:0:
189,68,36361,6,0,L|181:120,1,45,2|0,0:0|0:0,0:0:0:0:
266,75,36664,2,0,L|258:127,1,45,2|2,0:1|0:0,0:0:0:0:
338,108,36967,1,4,0:0:0:0:
338,108,37119,1,0,0:0:0:0:
413,116,37270,1,2,0:0:0:0:
413,116,37422,1,2,0:1:0:0:
365,175,37573,6,0,P|355:229|384:278,1,90,4|2,0:0|0:0,0:0:0:0:
282,243,38028,1,0,0:0:0:0:
282,243,38179,2,0,P|278:218|280:194,2,45,4|4|0,0:3|0:3|0:0,0:0:0:0:
432,216,38785,5,0,0:0:0:0:
367,260,38937,1,2,0:1:0:0:
313,315,39088,2,0,L|296:370,1,45,4|2,0:1|0:0,0:0:0:0:
226,334,39391,6,0,L|221:300,6,22.5,2|0|0|0|4|0|4,3:1|3:0|3:0|3:0|3:0|0:0|3:0,0:0:0:0:
152,355,39997,6,0,L|28:361,1,90,4|2,0:0|0:0,0:0:0:0:
17,297,40452,1,0,0:0:0:0:
17,297,40603,2,0,L|73:186,1,90,4|2,0:1|0:1,0:0:0:0:
139,240,41058,1,2,0:0:0:0:
139,240,41209,6,0,L|184:313,1,45,2|0,0:0|0:0,0:0:0:0:
236,256,41513,1,0,0:0:0:0:
309,236,41664,1,4,0:1:0:0:
251,180,41816,2,0,B|237:148|237:148|258:94|258:94|239:54,1,135,6|0,0:1|0:0,0:0:0:0:
172,19,42422,6,0,P|128:10|59:46,1,90,4|2,0:0|0:0,0:0:0:0:
55,92,42876,1,0,0:0:0:0:
55,92,43028,2,0,P|69:134|134:176,1,90,0|4,0:0|0:1,0:0:0:0:
173,195,43482,1,0,0:0:0:0:
173,195,43634,6,0,L|178:259,1,45,4|0,0:3|0:3,0:0:0:0:
117,288,43937,1,2,0:0:0:0:
184,322,44088,1,4,0:3:0:0:
247,279,44240,2,0,P|291:276|348:328,1,90,4|4,0:3|0:1,0:0:0:0:
369,366,44694,1,4,0:1:0:0:
434,323,44846,6,0,L|481:318,1,45,4|0,0:0|0:0,0:0:0:0:
398,249,45149,2,0,L|445:244,1,45,2|0,0:0|0:0,0:0:0:0:
362,175,45452,2,0,L|409:170,1,45,8|0,0:0|0:0,0:0:0:0:
469,119,45755,6,0,P|496:62|481:17,1,90,4|2,0:1|0:0,0:0:0:0:
418,59,46210,1,2,0:3:0:0:
357,13,46361,2,0,L|301:9,1,45,2|2,0:1|0:3,0:0:0:0:
254,61,46664,2,0,B|229:75|229:75|134:68,1,90,0|0,0:0|0:0,0:0:0:0:
103,29,47119,1,0,0:0:0:0:
103,29,47270,6,0,P|92:48|88:82,1,45,4|0,0:0|0:0,0:0:0:0:
127,136,47573,2,0,L|139:221,1,45,2|0,0:0|0:0,0:0:0:0:
114,255,47876,1,0,0:0:0:0:
103,298,48027,1,2,0:0:0:0:
93,342,48179,1,4,0:1:0:0:
243,315,48482,5,8,0:0:0:0:
310,351,48634,2,0,P|319:296|289:253,1,90,4|4,0:1|0:1,0:0:0:0:
370,229,49088,2,0,P|413:264|465:259,1,90,4|6,0:3|0:3,0:0:0:0:
499,211,49543,1,4,0:3:0:0:
499,211,49694,6,0,L|492:108,1,90,4|2,0:0|0:0,0:0:0:0:
512,45,50149,1,4,0:1:0:0:
363,81,50452,1,2,0:0:0:0:
293,48,50604,6,0,L|286:137,1,90,4|0,0:1|0:0,0:0:0:0:
245,201,51058,2,0,L|164:240,1,90,4|4,0:1|0:1,0:0:0:0:
86,226,51513,2,0,L|20:211,1,45,2|0,0:0|0:3,0:0:0:0:
112,305,51816,2,0,L|99:353,1,45,2|2,0:0|0:0,0:0:0:0:
198,348,52119,5,4,0:3:0:0:
277,306,52270,2,0,P|333:314|362:339,1,90,4|2,0:1|0:0,0:0:0:0:
439,335,52725,2,0,L|491:327,1,45,0|0,0:0|0:0,0:0:0:0:
402,264,53028,2,0,P|394:208|369:179,1,90,6|0,0:1|0:0,0:0:0:0:
331,119,53482,5,4,0:3:0:0:
273,170,53634,1,4,0:3:0:0:
197,176,53785,1,4,0:3:0:0:
126,145,53937,2,0,P|79:128|28:139,1,90,8|2,0:0|0:0,0:0:0:0:
242,244,54543,6,0,L|250:337,1,90,4|4,0:0|0:3,0:0:0:0:
173,324,54997,1,2,0:0:0:0:
173,324,55149,2,0,P|136:318|106:330,1,45,2|2,0:0|0:1,0:0:0:0:
57,291,55452,2,0,P|33:320|28:352,1,45,4|0,0:1|0:0,0:0:0:0:
124,241,55755,6,0,P|134:187|98:132,1,90,8|2,0:0|0:0,0:0:0:0:
88,86,56210,1,4,0:1:0:0:
88,86,56361,2,0,L|78:32,1,45,6|0,0:1|0:0,0:0:0:0:
177,94,56664,2,0,L|167:40,1,45,0|2,0:0|0:0,0:0:0:0:
265,106,56967,5,4,0:0:0:0:
265,106,57119,1,0,0:0:0:0:
335,76,57270,1,2,0:0:0:0:
335,76,57422,1,2,0:1:0:0:
402,121,57573,5,2,0:3:0:0:
402,121,57725,1,2,0:3:0:0:
472,91,57876,1,2,0:3:0:0:
472,91,58028,1,2,0:3:0:0:
511,156,58179,6,0,P|514:185|502:214,1,45,2|4,0:0|0:1,0:0:0:0:
456,255,58482,1,8,0:0:0:0:
491,322,58634,1,0,0:0:0:0:
406,326,58785,6,0,P|395:339|371:355,2,37.5,2|2|2,0:3|0:3|0:3,0:0:0:0:
343,278,59088,6,0,P|332:265|308:249,2,37.5,2|2|2,0:3|0:3|0:3,0:0:0:0:
273,324,59391,5,6,0:3:0:0:
256,192,59467,12,0,69088,0:0:0:0:
