osu file format v14

[General]
AudioFilename: audio.mp3
AudioLeadIn: 0
PreviewTime: 20603
Countdown: 0
SampleSet: Soft
StackLeniency: 0.3
Mode: 0
LetterboxInBreaks: 0
WidescreenStoryboard: 1

[Editor]
DistanceSpacing: 1.9
BeatDivisor: 4
GridSize: 4
TimelineZoom: 3.300005

[Metadata]
Title:Sounding Beat
TitleUnicode:Sounding Beat
Artist:NAGI
ArtistUnicode:NAGI☆
Creator:6th
Version:Expert
Source:
Tags:NAGI☆ EDM FELT Increase Beat
BeatmapID:1758825
BeatmapSetID:840230

[Difficulty]
HPDrainRate:8
CircleSize:5.5
OverallDifficulty:9
ApproachRate:9
SliderMultiplier:2.7
SliderTickRate:1

[Events]
//Background and Video events
0,0,"Nagi.jpg",0,0
//Break Periods
//Storyboard Layer 0 (Background)
//Storyboard Layer 1 (Fail)
//Storyboard Layer 2 (Pass)
//Storyboard Layer 3 (Foreground)
//Storyboard Sound Samples

[TimingPoints]
1210,606.060606060606,4,2,1,45,1,0
1210,-200,4,2,1,45,0,0
20603,-100,4,2,1,65,0,0
29391,-100,4,2,1,65,0,0
29543,-100,4,2,1,65,0,0
30300,-100,4,2,1,65,0,0
30452,-100,4,2,1,65,0,0
31058,-100,4,2,1,65,0,0
31209,-100,4,2,1,65,0,0
32119,-100,4,2,1,65,0,0
32876,-100,4,2,1,65,0,0
33028,-100,4,2,1,65,0,0
33482,-100,4,2,1,85,0,0
33937,-100,4,2,1,65,0,0
34391,-100,4,2,1,65,0,0
34543,-100,4,2,1,65,0,0
36210,-100,4,2,1,65,0,0
38331,-100,4,2,1,65,0,0
39088,-100,4,2,1,65,0,0
39240,-100,4,2,1,85,0,0
39997,-100,4,2,1,65,0,1
40149,-100,4,2,1,65,0,1
41058,-100,4,2,1,45,0,1
41664,-100,4,2,1,65,0,1
41816,-80,4,2,1,65,0,1
41967,-100,4,2,1,65,0,1
42422,-100,4,2,1,65,0,1
44240,-80,4,2,1,65,0,1
44543,-100,4,2,1,65,0,1
45755,-100,4,2,1,65,0,1
45906,-100,4,2,1,45,0,1
46664,-80,4,2,1,45,0,1
47270,-100,4,2,1,65,0,1
50603,-100,4,2,1,65,0,1
57573,-100,4,2,1,45,0,1
59391,-200,4,2,1,45,0,0
69088,-100,4,2,1,25,0,0

[Colours]
Combo1 : 255,192,0
Combo2 : 0,202,0
Combo3 : 18,124,255
Combo4 : 242,24,57
SliderBorder : 255,217,255
SliderTrackOverride : 0,0,0

[HitObjects]
249,140,1210,6,0,B|311:181|364:129|342:79|275:70|233:122|233:122|207:158|152:185|85:146|68:62|148:35|148:35|143:75|179:96,1,540,4|2,0:0|0:1,0:0:0:0:
170,90,4846,5,2,0:0:0:0:
249,140,5452,1,2,0:0:0:0:
95,198,6058,6,0,B|58:227|57:268|57:268|44:229|47:174|74:148|147:125|210:158|210:158|263:185|330:156|330:156|278:164|247:138,1,540,4|2,0:0|1:0,0:0:0:0:
249,140,9694,5,2,0:0:0:0:
95,198,10300,1,2,0:0:0:0:
348,361,10906,6,0,B|359:314|413:294|413:294|524:239|482:163|452:109|378:102|304:136|300:199|300:263|374:282,1,540,4|2,0:0|0:1,0:0:0:0:
348,361,14543,5,2,0:0:0:0:
370,280,15149,1,2,0:0:0:0:
212,238,15755,6,0,B|170:200|91:204|91:204|109:167|162:143|227:167|227:167|295:190|327:300|206:354|152:276,1,540,4|2,0:0|1:0,0:0:0:0:
256,192,18255,12,0,20300,0:0:0:0:
223,174,20603,6,0,B|190:182|190:182|158:170,1,67.5,4|0,0:0|0:0,0:0:0:0:
6,99,20906,1,2,0:0:0:0:
73,47,21058,1,0,0:0:0:0:
73,47,21134,1,0,0:0:0:0:
73,47,21209,1,4,0:3:0:0:
85,132,21361,1,4,0:3:0:0:
97,217,21513,1,8,0:0:0:0:
88,239,22119,5,4,0:3:0:0:
163,283,22270,1,4,0:3:0:0:
241,242,22422,1,8,0:0:0:0:
265,157,22573,1,4,0:3:0:0:
340,113,22724,1,2,0:0:0:0:
418,154,22876,1,2,0:0:0:0:
454,234,23028,6,0,L|441:376,1,135,4|0,0:2|0:0,0:0:0:0:
358,283,23482,1,2,0:0:0:0:
338,278,23558,1,2,0:0:0:0:
318,274,23634,1,4,0:3:0:0:
242,318,23785,1,2,0:1:0:0:
156,296,23937,1,8,0:0:0:0:
123,214,24088,1,4,0:3:0:0:
135,206,24391,5,4,0:3:0:0:
214,168,24543,2,0,B|228:136|228:136|218:94,1,67.5,2|0,0:1|0:0,0:0:0:0:
220,104,24770,1,0,0:0:0:0:
220,104,24846,1,2,0:0:0:0:
135,206,24997,1,4,0:3:0:0:
230,278,25149,1,4,0:3:0:0:
55,355,25300,5,2,0:0:0:0:
38,368,25376,1,2,0:0:0:0:
20,380,25452,2,0,L|155:358,1,135,4|0,0:0|0:0,0:0:0:0:
255,195,25906,1,0,0:0:0:0:
326,276,26058,2,0,P|348:302|340:363,1,67.5,8|2,0:0|0:1,0:0:0:0:
454,172,26361,1,2,0:0:0:0:
255,195,26513,6,0,P|252:233|341:270,1,135,4|0,0:3|0:0,0:0:0:0:
326,276,26891,1,2,0:1:0:0:
326,276,26967,1,4,1:3:0:0:
408,307,27119,1,4,0:3:0:0:
490,336,27270,5,8,0:0:0:0:
474,250,27422,1,0,0:0:0:0:
408,307,27573,1,4,0:3:0:0:
338,361,27725,1,2,0:0:0:0:
216,294,27876,6,0,B|184:287|184:287|149:298,1,67.5,4|0,0:0|0:0,0:0:0:0:
2,260,28179,2,0,B|34:267|34:267|68:257,1,67.5,2|0,0:0|0:0,0:0:0:0:
162,116,28482,1,2,0:1:0:0:
79,90,28633,1,2,0:0:0:0:
97,176,28785,1,8,0:0:0:0:
97,176,29088,5,0,0:0:0:0:
237,167,29240,1,2,0:0:0:0:
428,333,29391,5,6,0:3:0:0:
496,153,29543,1,4,0:3:0:0:
302,53,29694,5,2,0:0:0:0:
449,259,29846,1,2,0:1:0:0:
449,259,29922,1,0,0:0:0:0:
449,259,29997,1,4,0:3:0:0:
512,33,30149,1,4,0:3:0:0:
302,53,30300,6,0,L|226:62,1,67.5,4|0,0:0|0:0,0:0:0:0:
0,43,30603,2,0,L|67:35,1,67.5
135,273,30906,1,8,0:0:0:0:
2,222,31058,1,4,0:3:0:0:
96,136,31209,2,0,B|144:128|144:128|180:135|180:135|229:127,1,135,4|0,0:3|0:0,0:0:0:0:
422,342,31664,5,2,0:0:0:0:
422,342,31740,1,2,0:0:0:0:
422,342,31816,1,4,0:3:0:0:
492,232,31967,1,4,0:3:0:0:
335,249,32119,2,0,L|262:240,1,67.5,8|0,0:0|0:0,0:0:0:0:
171,317,32422,2,0,P|162:356|184:402,1,67.5
307,310,32725,5,4,0:0:0:0:
199,183,32876,1,0,0:3:0:0:
64,264,33028,2,0,B|36:282|36:282|-10:274,1,67.5,2|0,0:1|0:0,0:0:0:0:
13,79,33331,1,8,0:0:0:0:
179,44,33482,5,4,0:1:0:0:
343,22,33634,1,2,0:0:0:0:
369,160,33785,1,0,0:0:0:0:
369,160,33861,1,2,0:0:0:0:
369,160,33937,1,2,0:1:0:0:
474,289,34088,1,4,0:3:0:0:
256,356,34240,1,4,0:3:0:0:
77,220,34391,5,4,0:3:0:0:
269,139,34543,2,0,P|290:106|289:67,1,67.5,2|0,0:0|0:0,0:0:0:0:
163,6,34846,2,0,P|166:39|185:66,1,67.5,2|0,0:0|0:0,0:0:0:0:
450,279,35149,5,4,0:0:0:0:
362,366,35300,1,0,0:3:0:0:
238,317,35452,1,2,0:0:0:0:
238,207,35603,1,4,0:3:0:0:
133,140,35755,1,2,0:0:0:0:
45,227,35906,1,2,0:0:0:0:
86,338,36058,6,0,P|53:365|2:364,1,67.5,4|0,0:3|0:0,0:0:0:0:
76,108,36361,2,0,P|108:116|132:139,1,67.5,2|0,0:0|0:0,0:0:0:0:
287,280,36664,1,2,0:1:0:0:
453,243,36816,1,2,0:0:0:0:
453,243,36891,1,2,0:0:0:0:
453,243,36967,5,4,0:0:0:0:
311,368,37119,1,0,0:0:0:0:
90,299,37270,1,2,0:0:0:0:
307,373,37422,1,2,0:1:0:0:
511,248,37573,6,0,L|444:254,1,67.5,4|0,0:0|0:0,0:0:0:0:
201,357,37876,2,0,L|229:295,1,67.5,2|0,0:0|0:0,0:0:0:0:
176,127,38179,1,4,0:3:0:0:
100,0,38331,1,4,0:3:0:0:
251,97,38482,6,0,B|279:102|311:71|311:71|282:34|255:38,1,135
28,51,38937,1,4,0:1:0:0:
234,226,39088,1,4,0:1:0:0:
255,37,39240,1,2,0:0:0:0:
111,68,39391,5,2,0:3:0:0:
95,97,39466,1,2,0:3:0:0:
89,130,39542,1,2,0:3:0:0:
94,163,39618,1,2,0:3:0:0:
110,193,39694,1,2,0:3:0:0:
336,289,39846,1,4,3:0:0:0:
288,191,39997,6,0,B|254:195|254:195|213:233,1,67.5,14|0,0:3|0:0,0:0:0:0:
133,353,40300,2,0,B|140:319|140:319|127:288,1,67.5,2|0,0:0|0:0,0:0:0:0:
6,229,40603,6,0,L|137:197,1,135,4|2,0:1|0:1,0:0:0:0:
212,28,41058,1,2,0:0:0:0:
212,28,41134,1,2,0:0:0:0:
212,28,41210,1,2,0:0:0:0:
311,214,41361,5,6,0:1:0:0:
376,36,41512,1,2,0:1:0:0:
506,257,41664,1,4,0:1:0:0:
311,214,41816,6,0,P|270:313|377:311,1,253.125,14|0,0:3|0:0,0:0:0:0:
412,226,42422,6,0,P|412:186|388:157,1,67.5,4|0,0:0|0:0,0:0:0:0:
102,179,42725,1,4,0:1:0:0:
0,241,42877,1,0,0:0:0:0:
59,344,43028,1,2,0:0:0:0:
163,279,43180,1,0,0:0:0:0:
216,384,43331,5,0,0:0:0:0:
82,270,43482,1,0,0:0:0:0:
82,270,43558,1,2,0:0:0:0:
82,270,43634,1,6,0:1:0:0:
203,184,43785,1,2,0:2:0:0:
224,26,43937,1,12,0:3:0:0:
324,149,44088,1,4,0:3:0:0:
483,181,44240,2,0,B|517:168|517:168|485:243|485:243|495:292,1,168.75,12|4,0:3|0:1,0:0:0:0:
308,366,44694,1,0,0:0:0:0:
367,229,44846,6,0,P|402:212|436:217,1,67.5,4|0,0:0|0:0,0:0:0:0:
440,370,45149,2,0,P|412:355|396:325,1,67.5,2|0,0:0|0:0,0:0:0:0:
398,91,45452,1,0,0:0:0:0:
512,170,45603,1,8,0:0:0:0:
314,274,45755,5,14,0:3:0:0:
197,120,45906,1,2,0:0:0:0:
197,120,45982,1,2,0:0:0:0:
197,120,46058,1,2,0:0:0:0:
54,310,46210,1,2,0:3:0:0:
214,208,46361,1,0,0:1:0:0:
114,37,46513,1,0,0:1:0:0:
0,164,46664,6,0,B|-16:164|-32:157|-32:157|-7:189|52:196|93:174,1,168.75
244,127,47119,1,0,0:0:0:0:
346,265,47270,6,0,P|357:295|352:333,1,67.5,4|0,0:0|0:0,0:0:0:0:
158,329,47573,2,0,P|154:296|166:265,1,67.5,2|0,0:0|0:0,0:0:0:0:
244,127,47876,1,0,0:0:0:0:
343,163,48028,1,2,0:0:0:0:
343,163,48103,1,2,0:0:0:0:
343,163,48179,5,4,0:1:0:0:
503,211,48331,1,4,0:3:0:0:
467,41,48483,1,8,0:0:0:0:
383,297,48634,5,4,0:1:0:0:
153,346,48786,1,4,0:3:0:0:
288,374,48938,1,4,0:1:0:0:
43,284,49088,6,0,P|22:242|41:198,1,67.5,12|0,0:3|0:0,0:0:0:0:
121,103,49391,1,6,0:3:0:0:
264,179,49543,1,4,0:3:0:0:
121,103,49694,5,4,0:0:0:0:
224,92,49846,1,2,0:0:0:0:
328,82,49997,1,2,0:0:0:0:
383,274,50149,5,4,0:1:0:0:
510,220,50300,1,0,0:0:0:0:
416,130,50452,1,2,0:0:0:0:
281,179,50603,2,0,L|162:169,1,67.5,4|0,0:1|0:0,0:0:0:0:
198,179,50831,1,0,0:0:0:0:
183,188,50906,2,0,P|176:214|182:239,1,33.75
353,281,51058,5,4,0:1:0:0:
210,367,51210,1,8,0:0:0:0:
61,292,51361,1,4,0:1:0:0:
58,124,51513,2,0,B|64:77|64:77|95:46,1,67.5,2|0,0:0|0:3,0:0:0:0:
203,42,51816,2,0,B|208:78|208:78|230:100,1,67.5,2|2,0:0|0:0,0:0:0:0:
234,104,52043,1,2,0:0:0:0:
238,108,52119,5,4,0:3:0:0:
444,175,52270,2,0,L|511:178,1,67.5,4|0,0:1|0:0,0:0:0:0:
398,32,52573,1,2,0:0:0:0:
309,186,52725,1,0,0:0:0:0:
294,211,52800,1,0,0:0:0:0:
297,241,52876,1,0,0:0:0:0:
444,175,53028,6,0,L|293:188,1,135,6|0,0:1|0:0,0:0:0:0:
56,130,53482,5,4,0:3:0:0:
239,103,53634,1,4,0:3:0:0:
87,311,53785,1,4,0:3:0:0:
270,284,53937,2,0,P|299:299|315:328,1,67.5,8|0,0:0|0:0,0:0:0:0:
462,240,54240,2,0,P|491:223|507:194,1,67.5,2|0,0:0|0:0,0:0:0:0:
411,3,54543,5,4,0:0:0:0:
319,91,54694,1,0,0:0:0:0:
137,110,54846,1,4,0:3:0:0:
298,197,54997,1,2,0:0:0:0:
298,197,55073,1,2,0:0:0:0:
298,197,55149,1,2,0:0:0:0:
387,285,55300,1,2,0:1:0:0:
280,364,55452,6,0,B|246:375|246:375|206:365,1,67.5,4|0,0:1|0:0,0:0:0:0:
21,242,55755,2,0,B|55:231|55:231|95:241,1,67.5,8|0,0:0|0:0,0:0:0:0:
91,242,55982,1,2,0:0:0:0:
96,245,56058,1,2,0:0:0:0:
215,367,56210,5,4,0:1:0:0:
362,279,56361,1,6,0:1:0:0:
330,169,56513,1,0,0:0:0:0:
295,59,56664,1,0,0:0:0:0:
487,198,56816,1,2,0:0:0:0:
278,257,56967,6,0,P|260:293|274:341,1,67.5,4|0,0:0|0:0,0:0:0:0:
462,371,57270,2,0,P|480:335|466:287,1,67.5,2|2,0:0|0:1,0:0:0:0:
409,119,57573,1,2,0:3:0:0:
278,257,57725,1,2,0:3:0:0:
126,130,57876,1,2,0:3:0:0:
0,291,58028,1,2,0:3:0:0:
133,369,58179,5,2,0:0:0:0:
133,369,58255,1,2,0:0:0:0:
133,369,58331,2,0,L|221:377,1,67.5,4|8,0:1|0:0,0:0:0:0:
415,282,58634,2,0,L|443:279,2,22.5
365,370,58785,5,2,0:3:0:0:
304,301,58886,5,2,0:3:0:0:
333,214,58987,5,2,0:3:0:0:
424,186,59088,5,2,0:3:0:0:
457,101,59189,5,2,0:3:0:0:
400,29,59290,5,2,0:3:0:0:
306,55,59391,5,6,0:3:0:0:
256,192,59467,12,0,69088,0:0:0:0:
