osu file format v14

[General]
AudioFilename: audio.mp3
AudioLeadIn: 0
PreviewTime: 54199
Countdown: 0
SampleSet: Normal
StackLeniency: 0.7
Mode: 1
LetterboxInBreaks: 0
WidescreenStoryboard: 0

[Editor]
DistanceSpacing: 0.3
BeatDivisor: 4
GridSize: 32
TimelineZoom: 1.5

[Metadata]
Title:My dream girls (TV Size)
TitleUnicode:My dream girls (TV Size)
Artist:NACHERRY
ArtistUnicode:NACHERRY
Creator:Sammu
Version:Oni
Source:魔法少女にあこがれて
Tags:ナチェリ japanese pop jpop j-pop anime opening op mahoako まほあこ mahou shoujo ni akogarete gushing over looking up to i admire magical girls, and... 田中ちえ美 tanaka chiemi 村上奈津実 murakami natsumi motokiyo ler1211 rinze
BeatmapID:4468175
BeatmapSetID:2114543

[Difficulty]
HPDrainRate:5
CircleSize:2
OverallDifficulty:6
ApproachRate:10
SliderMultiplier:1.4
SliderTickRate:1

[Events]
//Background and Video events
0,0,"tres magia.jpg",0,50
//Break Periods
//Storyboard Layer 0 (Background)
//Storyboard Layer 1 (Fail)
//Storyboard Layer 2 (Pass)
//Storyboard Layer 3 (Foreground)
//Storyboard Layer 4 (Overlay)
//Storyboard Sound Samples

[TimingPoints]
572,335.195530726257,4,1,0,75,1,0
572,-90.909090909091,4,1,0,75,0,0
650,-100,4,1,0,75,0,0
1740,-90.909090909091,4,1,0,75,0,0
1907,-100,4,1,0,75,0,0
2075,-90.909090909091,4,1,0,75,0,0
2159,-100,4,1,0,75,0,0
3248,-90.909090909091,4,1,0,75,0,0
3332,-100,4,1,0,75,0,0
4421,-90.909090909091,4,1,0,75,0,0
4504,-100,4,1,0,75,0,0
5930,-90.909090909091,4,1,0,75,0,0
6013,-100,4,1,0,75,0,0
7103,-90.909090909091,4,1,0,75,0,0
7270,-100,4,1,0,75,0,0
7438,-90.909090909091,4,1,0,75,0,0
7522,-100,4,1,0,75,0,0
8611,-90.909090909091,4,1,0,75,0,0
8695,-100,4,1,0,75,0,0
9784,-90.909090909091,4,1,0,75,0,0
9868,-100,4,1,0,75,0,0
11297,-100,4,1,0,75,0,0
13136,-90.909090909091,4,1,0,75,0,0
13891,-100,4,1,0,75,0,0
16661,-100,4,1,0,75,0,0
16828,-101.261043570188,4,1,0,75,0,0
16912,-101.907439775059,4,1,0,75,0,0
16996,-102.562141491396,4,1,0,75,0,0
17164,-103.897110095297,4,1,0,75,0,0
17331,-105.259026687598,4,1,0,75,0,0
17499,-106.665606108813,4,1,0,75,0,0
17583,-107.383087764254,4,1,0,75,0,0
17666,-108.101571946796,4,1,0,75,0,0
17834,-109.585682765384,4,1,0,75,0,0
17918,-110.343125154283,4,1,0,75,0,0
18002,-111.111111111111,4,1,0,75,0,0
18332,-90.909090909091,4,1,0,75,0,0
18416,-100,4,1,0,75,0,0
19342,-111.111111111111,4,1,0,75,0,0
29733,-107.158074137196,4,1,0,75,0,0
29817,-105.274173294265,4,1,0,75,0,0
29901,-103.455368161251,4,1,0,75,0,0
29984,-101.718907987867,4,1,0,75,0,0
30068,-100.01988466892,4,1,0,75,0,0
38108,-90.925524222704,4,1,0,75,0,0
38527,-100,4,1,0,75,0,0
39789,-101.444261869757,4,1,0,75,0,0
39957,-102.939885914875,4,1,0,75,0,0
40124,-104.470965443534,4,1,0,75,0,0
40292,-106.057866184448,4,1,0,75,0,0
40375,-106.859797758951,4,1,0,75,0,0
40459,-107.683833654641,4,1,0,75,0,0
40627,-109.370629370629,4,1,0,75,0,0
40794,-111.10058723243,4,1,0,75,0,0
45153,-111.111111111111,4,1,0,75,0,0
45320,-109.09683022145,4,1,0,75,0,0
45488,-107.142857142857,4,1,0,75,0,0
45655,-105.268670786635,4,1,0,75,0,0
45823,-103.448275862069,4,1,0,75,0,0
45990,-101.700060716454,4,1,0,75,0,0
46074,-100.842865743528,4,1,0,75,0,0
46158,-100,4,1,0,75,0,0
46991,-90.925524222704,4,1,0,75,0,0
47242,-100,4,1,0,75,0,0
48332,-90.909090909091,4,1,0,75,0,0
48583,-100,4,1,0,75,0,0
51516,-90.909090909091,4,1,0,75,0,0
51600,-100,4,1,0,75,0,0
52689,-90.909090909091,4,1,0,75,0,0
52773,-100,4,1,0,75,0,0
53030,-100,4,1,0,75,0,0
53197,-99.971151046106,4,1,0,75,0,0
53365,-99.767603317466,4,1,0,75,0,0
53532,-99.222274580747,4,1,0,76,0,0
53700,-98.170587005494,4,1,0,77,0,0
53784,-97.412765033425,4,1,0,78,0,0
53868,-96.482090018715,4,1,0,79,0,0
54035,-94.082823915512,4,1,0,81,0,0
54203,-90.909090909091,4,1,0,85,0,1
60398,-84.745762711864,4,1,0,85,0,1
60482,-84.033613445378,4,1,0,85,0,1
60566,-83.41527368076,4,1,0,85,0,1
60650,-90.909090909091,4,1,0,85,0,1
61739,-84.745762711864,4,1,0,85,0,1
61823,-84.033613445378,4,1,0,85,0,1
61907,-83.392628433186,4,1,0,85,0,1
61991,-90.909090909091,4,1,0,85,0,1
67270,-88.495575221239,4,1,0,85,0,1
67438,-85.470085470085,4,1,0,85,0,1
67606,-83.333333333333,4,1,0,85,0,1
67941,-88.495575221239,4,1,0,85,0,1
68108,-85.470085470085,4,1,0,85,0,1
68276,-83.333333333333,4,1,0,85,0,1
68611,-88.495575221239,4,1,0,85,0,1
68779,-85.470085470085,4,1,0,85,0,1
68946,-83.333333333333,4,1,0,85,0,1
69030,-90.909090909091,4,1,0,85,0,1
74812,-92.30345334313,4,1,0,83,0,1
74979,-93.741255479899,4,1,0,82,0,1
75063,-94.481526746263,4,1,0,81,0,1
75147,-95.233582867431,4,1,0,80,0,1
75315,-96.774193548387,4,1,0,78,0,1
75398,-97.553873034362,4,1,0,78,0,1
75482,-98.355842630652,4,1,0,77,0,1
75655,-100,4,1,0,75,0,0
76823,-90.909090909091,4,1,0,75,0,0
76991,-100,4,1,0,75,0,0
77159,-90.909090909091,4,1,0,75,0,0
77242,-100,4,1,0,75,0,0
78332,-90.909090909091,4,1,0,75,0,0
78416,-100,4,1,0,75,0,0
79505,-90.909090909091,4,1,0,75,0,0
79589,-100,4,1,0,75,0,0
81013,-90.909090909091,4,1,0,75,0,0
81097,-100,4,1,0,75,0,0
82187,-90.909090909091,4,1,0,75,0,0
82354,-100,4,1,0,75,0,0
82522,-90.909090909091,4,1,0,75,0,0
82606,-100,4,1,0,75,0,0
83695,-90.909090909091,4,1,0,75,0,0
83778,-100,4,1,0,75,0,0
84868,-90.909090909091,4,1,0,75,0,0
84952,-100,4,1,0,75,0,0
86209,-90.909090909091,4,1,0,75,0,0
86298,-90.909090909091,4,1,0,65,0,0
87717,-111.111111111111,4,1,0,65,0,0
89063,-142.857142857143,4,1,0,65,0,0

[HitObjects]
256,192,572,5,4,0:0:0:0:
256,192,907,1,8,0:0:0:0:
256,192,1074,1,0,0:0:0:0:
256,192,1242,1,8,0:0:0:0:
256,192,1409,1,8,0:0:0:0:
256,192,1577,1,0,0:0:0:0:
256,192,1745,1,12,0:0:0:0:
256,192,2080,1,12,0:0:0:0:
256,192,2415,1,0,0:0:0:0:
256,192,2583,1,0,0:0:0:0:
256,192,2750,1,8,0:0:0:0:
256,192,2918,1,8,0:0:0:0:
256,192,3253,1,4,0:0:0:0:
256,192,3588,1,8,0:0:0:0:
256,192,3756,1,8,0:0:0:0:
256,192,3923,1,0,0:0:0:0:
256,192,4091,1,8,0:0:0:0:
256,192,4259,1,0,0:0:0:0:
256,192,4426,1,12,0:0:0:0:
256,192,4761,1,8,0:0:0:0:
256,192,5097,1,0,0:0:0:0:
256,192,5264,1,8,0:0:0:0:
256,192,5432,1,8,0:0:0:0:
256,192,5516,1,8,0:0:0:0:
256,192,5599,1,0,0:0:0:0:
256,192,5683,1,0,0:0:0:0:
256,192,5767,1,8,0:0:0:0:
256,192,5935,1,4,0:0:0:0:
256,192,6270,1,8,0:0:0:0:
256,192,6437,1,0,0:0:0:0:
256,192,6605,1,8,0:0:0:0:
256,192,6773,1,8,0:0:0:0:
256,192,6940,1,0,0:0:0:0:
256,192,7108,1,12,0:0:0:0:
256,192,7443,1,12,0:0:0:0:
256,192,7778,1,0,0:0:0:0:
256,192,7946,1,0,0:0:0:0:
256,192,8113,1,8,0:0:0:0:
256,192,8281,1,8,0:0:0:0:
256,192,8616,1,4,0:0:0:0:
256,192,8951,1,8,0:0:0:0:
256,192,9119,1,8,0:0:0:0:
256,192,9287,1,0,0:0:0:0:
256,192,9454,1,0,0:0:0:0:
256,192,9622,1,0,0:0:0:0:
256,192,9789,1,12,0:0:0:0:
256,192,10125,1,8,0:0:0:0:
256,192,10292,1,0,0:0:0:0:
256,192,10460,1,0,0:0:0:0:
256,192,10627,1,8,0:0:0:0:
256,192,10795,1,0,0:0:0:0:
256,192,10963,1,0,0:0:0:0:
256,192,11046,1,0,0:0:0:0:
256,192,11130,1,0,0:0:0:0:
256,192,11214,1,0,0:0:0:0:
256,192,11298,1,8,0:0:0:0:
256,192,11465,1,0,0:0:0:0:
256,192,11633,1,8,0:0:0:0:
256,192,11717,1,8,0:0:0:0:
256,192,11801,1,0,0:0:0:0:
256,192,11968,1,8,0:0:0:0:
256,192,12136,1,8,0:0:0:0:
256,192,12303,1,0,0:0:0:0:
256,192,12471,1,8,0:0:0:0:
256,192,12806,1,0,0:0:0:0:
256,192,12974,1,8,0:0:0:0:
256,192,13141,1,4,0:0:0:0:
256,192,13477,1,4,0:0:0:0:
256,192,13812,1,12,0:0:0:0:
256,192,14147,1,0,0:0:0:0:
256,192,14315,1,8,0:0:0:0:
256,192,14482,1,0,0:0:0:0:
256,192,14650,1,8,0:0:0:0:
256,192,14817,1,0,0:0:0:0:
256,192,14901,1,0,0:0:0:0:
256,192,14985,1,0,0:0:0:0:
256,192,15153,1,8,0:0:0:0:
256,192,15488,1,0,0:0:0:0:
256,192,15655,1,8,0:0:0:0:
256,192,15823,1,8,0:0:0:0:
256,192,16158,1,0,0:0:0:0:
256,192,16326,1,8,0:0:0:0:
256,192,16409,1,8,0:0:0:0:
256,192,16493,1,0,0:0:0:0:
256,192,16577,1,0,0:0:0:0:
256,192,16661,1,8,0:0:0:0:
256,192,16828,1,0,0:0:0:0:
256,192,16912,1,0,0:0:0:0:
256,192,16996,1,8,0:0:0:0:
256,192,17164,1,0,0:0:0:0:
256,192,17331,1,8,0:0:0:0:
256,192,17499,1,0,0:0:0:0:
256,192,17583,1,0,0:0:0:0:
256,192,17666,1,0,0:0:0:0:
256,192,17834,1,8,0:0:0:0:
256,192,17918,1,8,0:0:0:0:
256,192,18002,1,0,0:0:0:0:
256,192,18337,1,12,0:0:0:0:
256,192,19342,5,8,0:0:0:0:
256,192,19510,1,0,0:0:0:0:
256,192,19678,1,8,0:0:0:0:
256,192,20013,1,8,0:0:0:0:
256,192,20180,1,0,0:0:0:0:
256,192,20348,1,0,0:0:0:0:
256,192,20516,1,8,0:0:0:0:
256,192,20851,1,8,0:0:0:0:
256,192,21186,1,0,0:0:0:0:
256,192,21521,1,8,0:0:0:0:
256,192,21689,1,0,0:0:0:0:
256,192,22024,1,8,0:0:0:0:
256,192,22192,1,0,0:0:0:0:
256,192,22359,1,8,0:0:0:0:
256,192,22694,1,0,0:0:0:0:
256,192,22862,1,0,0:0:0:0:
256,192,23030,1,0,0:0:0:0:
256,192,23197,1,8,0:0:0:0:
256,192,23532,1,8,0:0:0:0:
256,192,23868,1,0,0:0:0:0:
256,192,24203,1,8,0:0:0:0:
256,192,24370,1,8,0:0:0:0:
256,192,24538,1,0,0:0:0:0:
256,192,24706,1,8,0:0:0:0:
256,192,24873,1,0,0:0:0:0:
256,192,25041,1,8,0:0:0:0:
256,192,25376,1,8,0:0:0:0:
256,192,25544,1,0,0:0:0:0:
256,192,25711,1,0,0:0:0:0:
256,192,25879,1,8,0:0:0:0:
256,192,26214,1,8,0:0:0:0:
256,192,26549,1,0,0:0:0:0:
256,192,26884,1,8,0:0:0:0:
256,192,27052,1,0,0:0:0:0:
256,192,27387,1,8,0:0:0:0:
256,192,27555,1,0,0:0:0:0:
256,192,27722,1,8,0:0:0:0:
256,192,28058,1,0,0:0:0:0:
256,192,28225,1,8,0:0:0:0:
256,192,28309,1,8,0:0:0:0:
256,192,28393,1,8,0:0:0:0:
256,192,28560,1,4,0:0:0:0:
256,192,28896,1,0,0:0:0:0:
256,192,29063,1,0,0:0:0:0:
256,192,29231,1,8,0:0:0:0:
256,192,29566,1,0,0:0:0:0:
256,192,29734,1,8,0:0:0:0:
256,192,29817,1,8,0:0:0:0:
256,192,29901,1,8,0:0:0:0:
256,192,29985,1,8,0:0:0:0:
256,192,30069,1,4,0:0:0:0:
256,192,30236,1,0,0:0:0:0:
256,192,30404,1,8,0:0:0:0:
256,192,30739,1,0,0:0:0:0:
256,192,30907,1,8,0:0:0:0:
256,192,30990,1,8,0:0:0:0:
256,192,31074,1,0,0:0:0:0:
256,192,31242,1,8,0:0:0:0:
256,192,31577,1,0,0:0:0:0:
256,192,31745,1,8,0:0:0:0:
256,192,31912,1,8,0:0:0:0:
256,192,32080,1,0,0:0:0:0:
256,192,32247,1,0,0:0:0:0:
256,192,32415,1,8,0:0:0:0:
256,192,32750,1,0,0:0:0:0:
256,192,32918,1,0,0:0:0:0:
256,192,33085,1,8,0:0:0:0:
256,192,33421,1,0,0:0:0:0:
256,192,33588,1,8,0:0:0:0:
256,192,33672,1,0,0:0:0:0:
256,192,33756,1,0,0:0:0:0:
256,192,33923,1,8,0:0:0:0:
256,192,34259,1,0,0:0:0:0:
256,192,34426,1,8,0:0:0:0:
256,192,34594,1,0,0:0:0:0:
256,192,34678,1,0,0:0:0:0:
256,192,34761,1,8,0:0:0:0:
256,192,34929,1,0,0:0:0:0:
256,192,35097,1,8,0:0:0:0:
256,192,35264,1,8,0:0:0:0:
256,192,35432,1,4,0:0:0:0:
256,192,35767,1,8,0:0:0:0:
256,192,35935,1,0,0:0:0:0:
256,192,36102,1,0,0:0:0:0:
256,192,36437,1,8,0:0:0:0:
256,192,36605,1,0,0:0:0:0:
256,192,36940,1,0,0:0:0:0:
256,192,37108,1,8,0:0:0:0:
256,192,37275,1,0,0:0:0:0:
256,192,37443,1,8,0:0:0:0:
256,192,37611,1,8,0:0:0:0:
256,192,37778,1,0,0:0:0:0:
256,192,38113,1,12,0:0:0:0:
256,192,38281,1,12,0:0:0:0:
256,192,38449,1,12,0:0:0:0:
256,192,38784,1,0,0:0:0:0:
256,192,38951,1,8,0:0:0:0:
256,192,39035,1,8,0:0:0:0:
256,192,39119,1,0,0:0:0:0:
256,192,39287,1,8,0:0:0:0:
256,192,39622,1,8,0:0:0:0:
256,192,39789,1,0,0:0:0:0:
256,192,39957,1,8,0:0:0:0:
256,192,40125,1,8,0:0:0:0:
256,192,40292,1,0,0:0:0:0:
256,192,40376,1,0,0:0:0:0:
256,192,40460,1,0,0:0:0:0:
256,192,40627,1,0,0:0:0:0:
256,192,40795,1,8,0:0:0:0:
256,192,41130,1,8,0:0:0:0:
256,192,41298,1,0,0:0:0:0:
256,192,41465,1,0,0:0:0:0:
256,192,41633,1,8,0:0:0:0:
256,192,41801,1,8,0:0:0:0:
256,192,41968,1,0,0:0:0:0:
256,192,42136,1,8,0:0:0:0:
256,192,42471,1,8,0:0:0:0:
256,192,42639,1,0,0:0:0:0:
256,192,42806,1,0,0:0:0:0:
256,192,42974,1,0,0:0:0:0:
256,192,43141,1,8,0:0:0:0:
256,192,43477,1,0,0:0:0:0:
256,192,43812,1,8,0:0:0:0:
256,192,43979,1,0,0:0:0:0:
256,192,44147,1,0,0:0:0:0:
256,192,44315,1,0,0:0:0:0:
256,192,44482,1,8,0:0:0:0:
256,192,44650,1,8,0:0:0:0:
256,192,44817,1,0,0:0:0:0:
256,192,45153,1,8,0:0:0:0:
256,192,45320,1,8,0:0:0:0:
256,192,45488,1,0,0:0:0:0:
256,192,45655,1,0,0:0:0:0:
256,192,45823,1,8,0:0:0:0:
256,192,45990,1,0,0:0:0:0:
256,192,46074,1,0,0:0:0:0:
256,192,46158,1,12,0:0:0:0:
256,192,46493,1,0,0:0:0:0:
256,192,46661,1,8,0:0:0:0:
256,192,46828,1,0,0:0:0:0:
256,192,46996,1,12,0:0:0:0:
256,192,47164,1,12,0:0:0:0:
256,192,47499,1,0,0:0:0:0:
256,192,47834,1,8,0:0:0:0:
256,192,48002,1,0,0:0:0:0:
256,192,48169,1,0,0:0:0:0:
256,192,48337,1,12,0:0:0:0:
256,192,48504,1,12,0:0:0:0:
256,192,48840,1,0,0:0:0:0:
256,192,49175,1,0,0:0:0:0:
256,192,49342,1,8,0:0:0:0:
256,192,49510,1,0,0:0:0:0:
256,192,49678,1,0,0:0:0:0:
256,192,49845,1,8,0:0:0:0:
256,192,50013,1,8,0:0:0:0:
256,192,50180,1,0,0:0:0:0:
256,192,50516,1,8,0:0:0:0:
256,192,50683,1,0,0:0:0:0:
256,192,50851,1,8,0:0:0:0:
256,192,51018,1,8,0:0:0:0:
256,192,51186,1,0,0:0:0:0:
256,192,51354,1,0,0:0:0:0:
256,192,51521,1,12,0:0:0:0:
256,192,52024,1,0,0:0:0:0:
256,192,52527,1,0,0:0:0:0:
256,192,52694,1,12,0:0:0:0:
256,192,53030,1,0,0:0:0:0:
256,192,53197,1,0,0:0:0:0:
256,192,53365,1,8,0:0:0:0:
256,192,53532,1,8,0:0:0:0:
256,192,53700,1,0,0:0:0:0:
256,192,53784,1,0,0:0:0:0:
256,192,53868,1,8,0:0:0:0:
256,192,54035,1,8,0:0:0:0:
256,192,54203,5,0,0:0:0:0:
256,192,54370,1,8,0:0:0:0:
256,192,54454,1,8,0:0:0:0:
256,192,54538,1,0,0:0:0:0:
256,192,54706,1,0,0:0:0:0:
256,192,54873,1,8,0:0:0:0:
256,192,55208,1,0,0:0:0:0:
256,192,55376,1,8,0:0:0:0:
256,192,55544,1,0,0:0:0:0:
256,192,55711,1,0,0:0:0:0:
256,192,55879,1,8,0:0:0:0:
256,192,56214,1,8,0:0:0:0:
256,192,56382,1,0,0:0:0:0:
256,192,56465,1,0,0:0:0:0:
256,192,56549,1,8,0:0:0:0:
256,192,56717,1,0,0:0:0:0:
256,192,56884,1,8,0:0:0:0:
256,192,57052,1,0,0:0:0:0:
256,192,57136,1,8,0:0:0:0:
256,192,57220,1,8,0:0:0:0:
256,192,57387,1,0,0:0:0:0:
256,192,57555,1,8,0:0:0:0:
256,192,57890,1,0,0:0:0:0:
256,192,58058,1,8,0:0:0:0:
256,192,58225,1,8,0:0:0:0:
256,192,58393,1,0,0:0:0:0:
256,192,58560,1,8,0:0:0:0:
256,192,58896,1,8,0:0:0:0:
256,192,59063,1,0,0:0:0:0:
256,192,59231,1,8,0:0:0:0:
256,192,59398,1,8,0:0:0:0:
256,192,59482,1,8,0:0:0:0:
256,192,59566,1,0,0:0:0:0:
256,192,59901,1,0,0:0:0:0:
256,192,60069,1,8,0:0:0:0:
256,192,60236,1,8,0:0:0:0:
256,192,60404,1,0,0:0:0:0:
256,192,60488,1,0,0:0:0:0:
256,192,60572,1,8,0:0:0:0:
256,192,60907,1,8,0:0:0:0:
256,192,61242,1,0,0:0:0:0:
256,192,61409,1,0,0:0:0:0:
256,192,61577,1,8,0:0:0:0:
256,192,61745,1,0,0:0:0:0:
256,192,61828,1,0,0:0:0:0:
256,192,61912,1,8,0:0:0:0:
256,192,62247,1,0,0:0:0:0:
256,192,62415,1,0,0:0:0:0:
256,192,62499,1,0,0:0:0:0:
256,192,62583,1,8,0:0:0:0:
256,192,62750,1,0,0:0:0:0:
256,192,62918,1,8,0:0:0:0:
256,192,63002,1,8,0:0:0:0:
256,192,63085,1,0,0:0:0:0:
256,192,63253,1,8,0:0:0:0:
256,192,63421,1,0,0:0:0:0:
256,192,63756,1,8,0:0:0:0:
256,192,63923,1,0,0:0:0:0:
256,192,64091,1,8,0:0:0:0:
256,192,64175,1,8,0:0:0:0:
256,192,64259,1,8,0:0:0:0:
256,192,64342,1,8,0:0:0:0:
256,192,64426,1,0,0:0:0:0:
256,192,64594,1,0,0:0:0:0:
256,192,64678,1,0,0:0:0:0:
256,192,64761,1,0,0:0:0:0:
256,192,64929,1,8,0:0:0:0:
256,192,65097,1,0,0:0:0:0:
256,192,65180,1,0,0:0:0:0:
256,192,65264,1,8,0:0:0:0:
256,192,65432,1,0,0:0:0:0:
256,192,65599,1,8,0:0:0:0:
256,192,65935,1,0,0:0:0:0:
256,192,66102,1,8,0:0:0:0:
256,192,66270,1,0,0:0:0:0:
256,192,66437,1,0,0:0:0:0:
256,192,66605,1,8,0:0:0:0:
256,192,66773,1,0,0:0:0:0:
256,192,66940,1,8,0:0:0:0:
256,192,67275,1,0,0:0:0:0:
256,192,67443,1,0,0:0:0:0:
256,192,67611,1,12,0:0:0:0:
256,192,67946,1,0,0:0:0:0:
256,192,68113,1,8,0:0:0:0:
256,192,68281,1,4,0:0:0:0:
256,192,68616,1,0,0:0:0:0:
256,192,68784,1,0,0:0:0:0:
256,192,68951,1,12,0:0:0:0:
256,192,69287,1,0,0:0:0:0:
256,192,69454,1,8,0:0:0:0:
256,192,69622,1,0,0:0:0:0:
256,192,69789,1,8,0:0:0:0:
256,192,69873,1,8,0:0:0:0:
256,192,69957,1,0,0:0:0:0:
256,192,70125,1,0,0:0:0:0:
256,192,70292,1,8,0:0:0:0:
256,192,70627,1,8,0:0:0:0:
256,192,70795,1,8,0:0:0:0:
256,192,70963,1,0,0:0:0:0:
256,192,71130,1,8,0:0:0:0:
256,192,71298,1,8,0:0:0:0:
256,192,71465,1,8,0:0:0:0:
256,192,71633,1,0,0:0:0:0:
256,192,71968,1,0,0:0:0:0:
256,192,72136,1,8,0:0:0:0:
256,192,72303,1,0,0:0:0:0:
256,192,72471,1,0,0:0:0:0:
256,192,72555,1,0,0:0:0:0:
256,192,72639,1,8,0:0:0:0:
256,192,72806,1,0,0:0:0:0:
256,192,72974,1,8,0:0:0:0:
256,192,73309,1,8,0:0:0:0:
256,192,73477,1,0,0:0:0:0:
256,192,73644,1,8,0:0:0:0:
256,192,73812,1,0,0:0:0:0:
256,192,73896,1,8,0:0:0:0:
256,192,73979,1,0,0:0:0:0:
256,192,74147,1,0,0:0:0:0:
256,192,74315,1,8,0:0:0:0:
256,192,74650,1,8,0:0:0:0:
256,192,74817,1,0,0:0:0:0:
256,192,74985,1,8,0:0:0:0:
256,192,75069,1,8,0:0:0:0:
256,192,75153,1,0,0:0:0:0:
256,192,75320,1,8,0:0:0:0:
256,192,75404,1,0,0:0:0:0:
256,192,75488,1,0,0:0:0:0:
256,192,75655,1,12,0:0:0:0:
256,192,75990,1,8,0:0:0:0:
256,192,76158,1,0,0:0:0:0:
256,192,76326,1,8,0:0:0:0:
256,192,76493,1,8,0:0:0:0:
256,192,76661,1,0,0:0:0:0:
256,192,76828,1,12,0:0:0:0:
256,192,77164,1,12,0:0:0:0:
256,192,77499,1,0,0:0:0:0:
256,192,77666,1,0,0:0:0:0:
256,192,77834,1,8,0:0:0:0:
256,192,78002,1,8,0:0:0:0:
256,192,78337,1,4,0:0:0:0:
256,192,78672,1,8,0:0:0:0:
256,192,78840,1,8,0:0:0:0:
256,192,79007,1,0,0:0:0:0:
256,192,79175,1,8,0:0:0:0:
256,192,79342,1,0,0:0:0:0:
256,192,79510,1,12,0:0:0:0:
256,192,79845,1,8,0:0:0:0:
256,192,80180,1,0,0:0:0:0:
256,192,80348,1,8,0:0:0:0:
256,192,80516,1,8,0:0:0:0:
256,192,80599,1,8,0:0:0:0:
256,192,80683,1,0,0:0:0:0:
256,192,80767,1,0,0:0:0:0:
256,192,80851,1,8,0:0:0:0:
256,192,81018,1,4,0:0:0:0:
256,192,81354,1,8,0:0:0:0:
256,192,81521,1,0,0:0:0:0:
256,192,81689,1,8,0:0:0:0:
256,192,81856,1,8,0:0:0:0:
256,192,82024,1,0,0:0:0:0:
256,192,82192,1,12,0:0:0:0:
256,192,82527,1,12,0:0:0:0:
256,192,82862,1,0,0:0:0:0:
256,192,83030,1,0,0:0:0:0:
256,192,83197,1,8,0:0:0:0:
256,192,83365,1,8,0:0:0:0:
256,192,83700,1,4,0:0:0:0:
256,192,84035,1,8,0:0:0:0:
256,192,84203,1,8,0:0:0:0:
256,192,84370,1,0,0:0:0:0:
256,192,84538,1,0,0:0:0:0:
256,192,84706,1,0,0:0:0:0:
256,192,84873,1,12,0:0:0:0:
256,192,85208,1,8,0:0:0:0:
256,192,85376,1,0,0:0:0:0:
256,192,85544,1,0,0:0:0:0:
256,192,85711,1,8,0:0:0:0:
256,192,85879,1,0,0:0:0:0:
256,192,86046,1,0,0:0:0:0:
256,192,86214,1,12,0:0:0:0:
256,192,86382,12,0,89063,0:0:0:0:
