osu file format v14

[General]
AudioFilename: audio.mp3
AudioLeadIn: 0
PreviewTime: 54199
Countdown: 0
SampleSet: Normal
StackLeniency: 0.7
Mode: 1
LetterboxInBreaks: 0
WidescreenStoryboard: 1

[Editor]
DistanceSpacing: 0.3
BeatDivisor: 4
GridSize: 32
TimelineZoom: 1.3

[Metadata]
Title:My dream girls (TV Size)
TitleUnicode:My dream girls (TV Size)
Artist:NACHERRY
ArtistUnicode:NACHERRY
Creator:Sammu
Version:Futsuu
Source:魔法少女にあこがれて
Tags:ナチェリ japanese pop jpop j-pop anime opening op mahoako まほあこ mahou shoujo ni akogarete gushing over looking up to i admire magical girls, and... 田中ちえ美 tanaka chiemi 村上奈津実 murakami natsumi motokiyo ler1211 rinze
BeatmapID:4468172
BeatmapSetID:2114543

[Difficulty]
HPDrainRate:7
CircleSize:2
OverallDifficulty:4
ApproachRate:10
SliderMultiplier:1.4
SliderTickRate:1

[Events]
//Background and Video events
0,0,"kiwi.jpg",0,20
//Break Periods
//Storyboard Layer 0 (Background)
//Storyboard Layer 1 (Fail)
//Storyboard Layer 2 (Pass)
//Storyboard Layer 3 (Foreground)
//Storyboard Layer 4 (Overlay)
//Storyboard Sound Samples

[TimingPoints]
572,335.195530726257,4,1,0,75,1,0
11297,-100,4,1,0,75,0,0
54203,-100,4,1,0,85,0,1
75655,-100,4,1,0,75,0,0
86298,-100,4,1,0,65,0,0

[HitObjects]
256,192,572,5,4,0:0:0:0:
256,192,1074,1,0,0:0:0:0:
256,192,1242,1,8,0:0:0:0:
256,192,1409,1,8,0:0:0:0:
256,192,1745,1,4,0:0:0:0:
256,192,2080,1,4,0:0:0:0:
256,192,2415,1,8,0:0:0:0:
256,192,2583,1,8,0:0:0:0:
256,192,2750,1,0,0:0:0:0:
256,192,2918,1,8,0:0:0:0:
256,192,3253,1,4,0:0:0:0:
256,192,3756,1,8,0:0:0:0:
256,192,3923,1,8,0:0:0:0:
256,192,4091,1,0,0:0:0:0:
256,192,4426,1,4,0:0:0:0:
256,192,5264,1,8,0:0:0:0:
256,192,5599,1,0,0:0:0:0:
256,192,5935,1,12,0:0:0:0:
256,192,6437,1,0,0:0:0:0:
256,192,6605,1,8,0:0:0:0:
256,192,6773,1,8,0:0:0:0:
256,192,7108,1,4,0:0:0:0:
256,192,7443,1,4,0:0:0:0:
256,192,7778,1,8,0:0:0:0:
256,192,7946,1,8,0:0:0:0:
256,192,8113,1,0,0:0:0:0:
256,192,8281,1,8,0:0:0:0:
256,192,8616,1,4,0:0:0:0:
256,192,9119,1,8,0:0:0:0:
256,192,9287,1,8,0:0:0:0:
256,192,9454,1,0,0:0:0:0:
256,192,9789,1,12,0:0:0:0:
256,192,10125,1,8,0:0:0:0:
256,192,10292,1,0,0:0:0:0:
256,192,10460,1,0,0:0:0:0:
256,192,10627,1,8,0:0:0:0:
256,192,11298,1,8,0:0:0:0:
256,192,11633,1,0,0:0:0:0:
256,192,11801,1,0,0:0:0:0:
256,192,11968,1,8,0:0:0:0:
256,192,12303,1,0,0:0:0:0:
256,192,12471,1,8,0:0:0:0:
256,192,12806,1,0,0:0:0:0:
256,192,12974,1,8,0:0:0:0:
256,192,13141,1,4,0:0:0:0:
256,192,13477,1,4,0:0:0:0:
256,192,13812,1,12,0:0:0:0:
256,192,14315,1,8,0:0:0:0:
256,192,14650,1,8,0:0:0:0:
256,192,14985,1,0,0:0:0:0:
256,192,15153,1,8,0:0:0:0:
256,192,15488,1,0,0:0:0:0:
256,192,15655,1,8,0:0:0:0:
256,192,15823,1,0,0:0:0:0:
256,192,16158,1,0,0:0:0:0:
256,192,16326,1,8,0:0:0:0:
256,192,16661,1,8,0:0:0:0:
256,192,16828,1,0,0:0:0:0:
256,192,16996,1,8,0:0:0:0:
256,192,17331,1,0,0:0:0:0:
256,192,17499,1,8,0:0:0:0:
256,192,17666,1,0,0:0:0:0:
256,192,18002,1,0,0:0:0:0:
256,192,18337,1,12,0:0:0:0:
256,192,19342,5,8,0:0:0:0:
256,192,19678,1,0,0:0:0:0:
256,192,20348,1,8,0:0:0:0:
256,192,20516,1,0,0:0:0:0:
256,192,20851,1,0,0:0:0:0:
256,192,21186,1,8,0:0:0:0:
256,192,21521,1,8,0:0:0:0:
256,192,22024,1,0,0:0:0:0:
256,192,22359,1,0,0:0:0:0:
256,192,23030,1,0,0:0:0:0:
256,192,23197,1,8,0:0:0:0:
256,192,23532,1,8,0:0:0:0:
256,192,23868,1,0,0:0:0:0:
256,192,24203,1,8,0:0:0:0:
256,192,24370,1,0,0:0:0:0:
256,192,24706,1,8,0:0:0:0:
256,192,25041,1,0,0:0:0:0:
256,192,25711,1,0,0:0:0:0:
256,192,25879,1,8,0:0:0:0:
256,192,26214,1,8,0:0:0:0:
256,192,26549,1,0,0:0:0:0:
256,192,26884,1,0,0:0:0:0:
256,192,27387,1,8,0:0:0:0:
256,192,27722,1,0,0:0:0:0:
256,192,28225,1,8,0:0:0:0:
256,192,28393,1,8,0:0:0:0:
256,192,28560,1,4,0:0:0:0:
256,192,28896,1,0,0:0:0:0:
256,192,29063,1,0,0:0:0:0:
256,192,29231,1,8,0:0:0:0:
256,192,29566,1,0,0:0:0:0:
256,192,29734,1,8,0:0:0:0:
256,192,30069,1,4,0:0:0:0:
256,192,30739,1,8,0:0:0:0:
256,192,30907,1,0,0:0:0:0:
256,192,31074,1,0,0:0:0:0:
256,192,31242,1,8,0:0:0:0:
256,192,31577,1,0,0:0:0:0:
256,192,31912,1,8,0:0:0:0:
256,192,32247,1,0,0:0:0:0:
256,192,32415,1,8,0:0:0:0:
256,192,32750,1,0,0:0:0:0:
256,192,33085,1,8,0:0:0:0:
256,192,33421,1,0,0:0:0:0:
256,192,33588,1,0,0:0:0:0:
256,192,33923,1,8,0:0:0:0:
256,192,34259,1,0,0:0:0:0:
256,192,34426,1,8,0:0:0:0:
256,192,34594,1,8,0:0:0:0:
256,192,34929,1,0,0:0:0:0:
256,192,35097,1,8,0:0:0:0:
256,192,35432,1,4,0:0:0:0:
256,192,36102,1,8,0:0:0:0:
256,192,36437,1,8,0:0:0:0:
256,192,36605,1,0,0:0:0:0:
256,192,36940,1,0,0:0:0:0:
256,192,37108,1,8,0:0:0:0:
256,192,37443,1,0,0:0:0:0:
256,192,37778,1,8,0:0:0:0:
256,192,38113,1,4,0:0:0:0:
256,192,38281,1,4,0:0:0:0:
256,192,38449,1,4,0:0:0:0:
256,192,38784,1,0,0:0:0:0:
256,192,38951,1,8,0:0:0:0:
256,192,39287,1,8,0:0:0:0:
256,192,39622,1,0,0:0:0:0:
256,192,39789,1,0,0:0:0:0:
256,192,39957,1,8,0:0:0:0:
256,192,40292,1,0,0:0:0:0:
256,192,40460,1,0,0:0:0:0:
256,192,40795,1,8,0:0:0:0:
256,192,41298,1,0,0:0:0:0:
256,192,41465,1,0,0:0:0:0:
256,192,41633,1,8,0:0:0:0:
256,192,41801,1,0,0:0:0:0:
256,192,42136,1,8,0:0:0:0:
256,192,42639,1,0,0:0:0:0:
256,192,42806,1,8,0:0:0:0:
256,192,43141,1,8,0:0:0:0:
256,192,43477,1,0,0:0:0:0:
256,192,43979,1,0,0:0:0:0:
256,192,44147,1,0,0:0:0:0:
256,192,44315,1,8,0:0:0:0:
256,192,44482,1,8,0:0:0:0:
256,192,44817,1,0,0:0:0:0:
256,192,45320,1,0,0:0:0:0:
256,192,45488,1,8,0:0:0:0:
256,192,45823,1,8,0:0:0:0:
256,192,46158,1,4,0:0:0:0:
256,192,46828,1,0,0:0:0:0:
256,192,46996,1,12,0:0:0:0:
256,192,47164,1,12,0:0:0:0:
256,192,47499,1,0,0:0:0:0:
256,192,48169,1,0,0:0:0:0:
256,192,48337,1,12,0:0:0:0:
256,192,48504,1,12,0:0:0:0:
256,192,48840,1,0,0:0:0:0:
256,192,49342,1,8,0:0:0:0:
256,192,49510,1,0,0:0:0:0:
256,192,49678,1,0,0:0:0:0:
256,192,49845,1,8,0:0:0:0:
256,192,50180,1,0,0:0:0:0:
256,192,50516,1,8,0:0:0:0:
256,192,50683,1,0,0:0:0:0:
256,192,50851,1,8,0:0:0:0:
256,192,51186,1,0,0:0:0:0:
256,192,51521,1,12,0:0:0:0:
256,192,52024,1,0,0:0:0:0:
256,192,52527,1,0,0:0:0:0:
256,192,52694,1,12,0:0:0:0:
256,192,53700,1,0,0:0:0:0:
256,192,53868,1,0,0:0:0:0:
256,192,54203,5,8,0:0:0:0:
256,192,54370,1,0,0:0:0:0:
256,192,54538,1,8,0:0:0:0:
256,192,54706,1,8,0:0:0:0:
256,192,54873,1,0,0:0:0:0:
256,192,55208,1,0,0:0:0:0:
256,192,55376,1,0,0:0:0:0:
256,192,55711,1,8,0:0:0:0:
256,192,55879,1,8,0:0:0:0:
256,192,56214,1,0,0:0:0:0:
256,192,56884,1,0,0:0:0:0:
256,192,57052,1,8,0:0:0:0:
256,192,57220,1,0,0:0:0:0:
256,192,57387,1,0,0:0:0:0:
256,192,57555,1,8,0:0:0:0:
256,192,57890,1,0,0:0:0:0:
256,192,58058,1,0,0:0:0:0:
256,192,58393,1,8,0:0:0:0:
256,192,58560,1,8,0:0:0:0:
256,192,58896,1,0,0:0:0:0:
256,192,59231,1,8,0:0:0:0:
256,192,59398,1,0,0:0:0:0:
256,192,59566,1,8,0:0:0:0:
256,192,59901,1,0,0:0:0:0:
256,192,60236,1,0,0:0:0:0:
256,192,60404,1,0,0:0:0:0:
256,192,60572,1,8,0:0:0:0:
256,192,60907,1,8,0:0:0:0:
256,192,61242,1,0,0:0:0:0:
256,192,61577,1,0,0:0:0:0:
256,192,61745,1,8,0:0:0:0:
256,192,61912,1,8,0:0:0:0:
256,192,62247,1,0,0:0:0:0:
256,192,62415,1,8,0:0:0:0:
256,192,62583,1,0,0:0:0:0:
256,192,62750,1,0,0:0:0:0:
256,192,62918,1,8,0:0:0:0:
256,192,63253,1,8,0:0:0:0:
256,192,63421,1,0,0:0:0:0:
256,192,63756,1,8,0:0:0:0:
256,192,63923,1,8,0:0:0:0:
256,192,64259,1,0,0:0:0:0:
256,192,64929,1,8,0:0:0:0:
256,192,65097,1,0,0:0:0:0:
256,192,65264,1,8,0:0:0:0:
256,192,65432,1,8,0:0:0:0:
256,192,65599,1,0,0:0:0:0:
256,192,65935,1,0,0:0:0:0:
256,192,66102,1,8,0:0:0:0:
256,192,66437,1,8,0:0:0:0:
256,192,66605,1,0,0:0:0:0:
256,192,66940,1,8,0:0:0:0:
256,192,67275,1,0,0:0:0:0:
256,192,67443,1,0,0:0:0:0:
256,192,67611,1,12,0:0:0:0:
256,192,67946,1,0,0:0:0:0:
256,192,68281,1,12,0:0:0:0:
256,192,68616,1,0,0:0:0:0:
256,192,68951,1,12,0:0:0:0:
256,192,69287,1,0,0:0:0:0:
256,192,69622,1,0,0:0:0:0:
256,192,69957,1,8,0:0:0:0:
256,192,70125,1,8,0:0:0:0:
256,192,70292,1,0,0:0:0:0:
256,192,71130,1,0,0:0:0:0:
256,192,71298,1,8,0:0:0:0:
256,192,71465,1,8,0:0:0:0:
256,192,71633,1,0,0:0:0:0:
256,192,71968,1,8,0:0:0:0:
256,192,72303,1,0,0:0:0:0:
256,192,72471,1,0,0:0:0:0:
256,192,72639,1,8,0:0:0:0:
256,192,72974,1,8,0:0:0:0:
256,192,73309,1,8,0:0:0:0:
256,192,73644,1,0,0:0:0:0:
256,192,73979,1,0,0:0:0:0:
256,192,74315,1,8,0:0:0:0:
256,192,74650,1,0,0:0:0:0:
256,192,74817,1,0,0:0:0:0:
256,192,74985,1,8,0:0:0:0:
256,192,75320,1,0,0:0:0:0:
256,192,75655,5,12,0:0:0:0:
256,192,76158,1,0,0:0:0:0:
256,192,76326,1,8,0:0:0:0:
256,192,76493,1,8,0:0:0:0:
256,192,76828,1,4,0:0:0:0:
256,192,77164,1,4,0:0:0:0:
256,192,77499,1,8,0:0:0:0:
256,192,77666,1,8,0:0:0:0:
256,192,77834,1,0,0:0:0:0:
256,192,78002,1,8,0:0:0:0:
256,192,78337,1,4,0:0:0:0:
256,192,78840,1,8,0:0:0:0:
256,192,79007,1,8,0:0:0:0:
256,192,79175,1,0,0:0:0:0:
256,192,79510,1,4,0:0:0:0:
256,192,80348,1,8,0:0:0:0:
256,192,80683,1,0,0:0:0:0:
256,192,81018,1,12,0:0:0:0:
256,192,81521,1,0,0:0:0:0:
256,192,81689,1,8,0:0:0:0:
256,192,81856,1,8,0:0:0:0:
256,192,82192,1,4,0:0:0:0:
256,192,82527,1,4,0:0:0:0:
256,192,82862,1,8,0:0:0:0:
256,192,83030,1,8,0:0:0:0:
256,192,83197,1,0,0:0:0:0:
256,192,83365,1,8,0:0:0:0:
256,192,83700,1,4,0:0:0:0:
256,192,84203,1,8,0:0:0:0:
256,192,84370,1,8,0:0:0:0:
256,192,84538,1,0,0:0:0:0:
256,192,84873,1,12,0:0:0:0:
256,192,85208,1,8,0:0:0:0:
256,192,85376,1,0,0:0:0:0:
256,192,85711,1,8,0:0:0:0:
256,192,85879,1,0,0:0:0:0:
256,192,86046,1,0,0:0:0:0:
256,192,86214,1,12,0:0:0:0:
256,192,86382,12,0,89063,0:0:0:0:
