osu file format v14

[General]
AudioFilename: audio.mp3
AudioLeadIn: 0
PreviewTime: 54121
Countdown: 0
SampleSet: Soft
StackLeniency: 0.4
Mode: 0
LetterboxInBreaks: 0
WidescreenStoryboard: 1

[Editor]
Bookmarks: 11300
DistanceSpacing: 1.2
BeatDivisor: 4
GridSize: 16
TimelineZoom: 1.4

[Metadata]
Title:My dream girls (TV Size)
TitleUnicode:My dream girls (TV Size)
Artist:NACHERRY
ArtistUnicode:NACHERRY
Creator:Kyss
Version:daki's Hard
Source:魔法少女にあこがれて
Tags:daki dakiwii amats kyutei anya melfissa shingyouji yuni mahou shoujo ni akogarete gushing over magical girls opening op anime japanese jpop pop j-pop chiemi tanaka 田中ちえ美 natsumi murakami 村上奈津実 duo まほあこ mahoako i admire
BeatmapID:4498039
BeatmapSetID:2129479

[Difficulty]
HPDrainRate:5
CircleSize:3.7
OverallDifficulty:6
ApproachRate:8
SliderMultiplier:1.4
SliderTickRate:1

[Events]
//Background and Video events
0,0,"bgg.jpg",0,0
//Break Periods
//Storyboard Layer 0 (Background)
//Storyboard Layer 1 (Fail)
//Storyboard Layer 2 (Pass)
//Storyboard Layer 3 (Foreground)
//Storyboard Layer 4 (Overlay)
//Storyboard Sound Samples

[TimingPoints]
574,335.195530726257,4,2,1,75,1,0
574,-111.111111111111,4,2,1,75,0,0
909,-111.111111111111,4,2,1,65,0,0
1747,-111.111111111111,4,2,1,75,0,0
1914,-111.111111111111,4,2,1,65,0,0
2082,-111.111111111111,4,2,1,75,0,0
2249,-111.111111111111,4,2,1,65,0,0
3255,-111.111111111111,4,2,1,75,0,0
3590,-111.111111111111,4,2,1,65,0,0
5099,-111.111111111111,4,2,2,65,0,0
5266,-111.111111111111,4,2,1,65,0,0
5937,-111.111111111111,4,2,1,75,0,0
6272,-111.111111111111,4,2,1,65,0,0
7110,-111.111111111111,4,2,1,75,0,0
7277,-111.111111111111,4,2,1,65,0,0
7445,-111.111111111111,4,2,1,75,0,0
7612,-111.111111111111,4,2,1,65,0,0
8618,-111.111111111111,4,2,1,75,0,0
8953,-111.111111111111,4,2,1,65,0,0
9791,-111.111111111111,4,2,1,75,0,0
10126,-111.111111111111,4,2,2,65,0,0
10294,-111.111111111111,4,2,1,65,0,0
11300,-100,4,2,1,65,0,0
12808,-100,4,2,1,65,0,0
13479,-100,4,2,1,65,0,0
13814,-100,4,2,1,65,0,0
16663,-100,4,2,1,65,0,0
18339,-133.333333333333,4,2,1,65,0,0
19344,-117.647058823529,4,2,1,55,0,0
22026,-117.647058823529,4,2,1,55,0,0
24205,-117.647058823529,4,2,1,55,0,0
27390,-117.647058823529,4,2,1,55,0,0
28064,-117.647058823529,4,2,1,55,0,0
28563,-117.647058823529,4,2,1,65,0,0
30071,-105.263157894737,4,2,1,65,0,0
31579,-105.263157894737,4,2,1,65,0,0
35434,-105.263157894737,4,2,1,60,0,0
38115,-105.263157894737,4,2,1,75,0,0
38451,-105.263157894737,4,2,1,60,0,0
38953,-105.263157894737,4,2,1,75,0,0
39120,-105.263157894737,4,2,1,60,0,0
39289,-105.263157894737,4,2,1,65,0,0
40797,-125,4,2,1,55,0,0
41807,-125,4,2,1,55,0,0
46160,-111.111111111111,4,2,1,65,0,0
46998,-111.111111111111,4,2,1,75,0,0
47166,-111.111111111111,4,2,1,75,0,0
47501,-111.111111111111,4,2,1,65,0,0
48339,-111.111111111111,4,2,1,75,0,0
48506,-111.111111111111,4,2,1,75,0,0
48842,-111.111111111111,4,2,1,65,0,0
51523,-100,4,2,1,75,0,0
51858,-100,4,2,1,65,0,0
52026,-100,4,2,1,75,0,0
52361,-100,4,2,1,65,0,0
52696,-100,4,2,1,75,0,0
53701,-100,4,2,1,65,0,0
54205,-90.9090909090909,4,2,1,85,0,1
64261,-100,4,2,1,85,0,0
64931,-90.9090909090909,4,2,1,85,0,1
68283,-90.9090909090909,4,2,1,85,0,1
68953,-90.9090909090909,4,2,1,85,0,1
73311,-90.9090909090909,4,2,1,85,0,1
73646,-90.9090909090909,4,2,1,85,0,1
74652,-90.9090909090909,4,2,1,85,0,1
75322,-90.9090909090909,4,2,1,85,0,1
75657,-111.111111111111,4,2,1,75,0,0
76160,-111.111111111111,4,2,1,65,0,0
76831,-111.111111111111,4,2,1,75,0,0
76998,-111.111111111111,4,2,1,65,0,0
77166,-111.111111111111,4,2,1,75,0,0
77333,-111.111111111111,4,2,1,65,0,0
78339,-111.111111111111,4,2,1,75,0,0
78674,-111.111111111111,4,2,1,65,0,0
81021,-111.111111111111,4,2,1,75,0,0
81356,-111.111111111111,4,2,1,65,0,0
82194,-111.111111111111,4,2,1,75,0,0
82361,-111.111111111111,4,2,1,65,0,0
82529,-111.111111111111,4,2,1,75,0,0
82696,-111.111111111111,4,2,1,65,0,0
83702,-111.111111111111,4,2,1,75,0,0
84205,-111.111111111111,4,2,1,65,0,0
85210,-111.111111111111,4,2,2,65,0,0
85378,-111.111111111111,4,2,1,65,0,0
86216,-111.111111111111,4,2,1,65,0,0
89065,-111.111111111111,4,2,1,5,0,0

[Colours]
Combo1 : 99,214,193
Combo2 : 101,91,213
Combo3 : 155,225,117
Combo4 : 233,221,152

[HitObjects]
30,315,574,6,0,B|119:341|75:351|146:370,1,125.999996154785,4|8,3:2|0:0,0:0:0:0:
208,319,1076,1,2,0:0:0:0:
208,319,1244,1,0,3:0:0:0:
179,242,1411,1,2,0:0:0:0:
179,242,1747,6,0,P|184:201|188:164,1,62.9999980773926,8|0,0:0|3:0,0:0:0:0:
245,122,2082,2,0,P|277:136|320:149,1,62.9999980773926,8|0,0:0|3:0,0:0:0:0:
322,224,2417,1,2,0:0:0:0:
396,190,2585,2,0,P|432:180|470:172,1,62.9999980773926,0|8,3:0|0:0,0:0:0:0:
507,82,2920,1,8,0:0:0:0:
507,82,3255,6,0,P|446:62|381:16,1,125.999996154785,4|8,3:2|0:0,0:0:0:0:
317,72,3758,1,2,0:0:0:0:
249,28,3925,1,0,3:0:0:0:
249,28,4093,1,2,0:0:0:0:
127,138,4428,6,0,P|120:192|167:267,1,125.999996154785,8|2,0:0|0:0,0:0:0:0:
220,295,4931,1,0,3:0:0:0:
297,262,5099,1,10,0:0:0:0:
297,262,5182,1,10,0:0:0:0:
297,262,5266,2,0,L|335:273,3,31.4999990386963,10|10|10|10,0:0|2:3|2:3|2:3,0:0:0:0:
366,283,5601,2,0,L|411:265,3,31.4999990386963,10|8|8|8,2:3|0:3|0:3|0:3,0:0:0:0:
433,286,5937,6,0,P|482:257|470:178,1,125.999996154785,4|8,3:2|0:0,0:0:0:0:
430,131,6439,1,2,0:0:0:0:
430,131,6607,1,0,3:0:0:0:
455,53,6774,1,2,0:0:0:0:
455,53,7110,6,0,P|423:46|386:35,1,62.9999980773926,8|0,0:0|3:0,0:0:0:0:
334,93,7445,2,0,P|311:54|292:26,1,62.9999980773926,8|0,0:0|3:0,0:0:0:0:
249,102,7780,1,2,0:0:0:0:
179,57,7948,2,0,P|167:83|171:126,1,62.9999980773926,0|8,3:0|0:0,0:0:0:0:
76,172,8283,1,8,0:0:0:0:
76,172,8618,6,0,P|137:192|202:238,1,125.999996154785,4|8,3:2|0:0,0:0:0:0:
254,274,9121,1,2,0:0:0:0:
183,311,9288,1,0,3:0:0:0:
183,311,9456,2,0,P|144:298|112:290,1,62.9999980773926,2|0,0:0|3:0,0:0:0:0:
215,384,9791,6,0,P|264:364|340:340,1,125.999996154785,8|8,0:0|0:0,0:0:0:0:
380,274,10294,2,0,P|390:249|391:211,2,62.9999980773926,8|8|8,0:3|0:3|0:0,0:0:0:0:
333,341,10797,1,8,0:0:0:0:
406,378,10965,1,0,3:0:0:0:
478,336,11132,1,8,0:0:0:0:
478,336,11216,1,8,0:0:0:0:
478,336,11300,6,0,L|491:254,1,70,4|2,3:2|0:0,0:0:0:0:
406,240,11635,1,8,0:0:0:0:
406,240,11803,1,2,0:0:0:0:
461,168,11970,2,0,P|488:121|513:21,1,140,0|8,3:0|0:0,0:0:0:0:
425,22,12473,2,0,P|389:36|338:46,1,70,4|0,3:2|0:0,0:0:0:0:
290,90,12808,1,2,0:0:0:0:
290,90,12976,1,8,0:0:0:0:
324,166,13143,5,0,3:0:0:0:
167,104,13479,1,0,3:0:0:0:
253,247,13814,6,0,P|310:288|306:367,1,140,4|0,0:0|3:0,0:0:0:0:
235,384,14317,2,0,P|197:370|161:360,1,70,8|0,0:0|0:0,0:0:0:0:
116,295,14652,2,0,P|129:254|137:212,1,70,0|0,3:0|3:0,0:0:0:0:
196,170,14987,1,8,0:0:0:0:
163,92,15155,6,0,P|196:117|288:155,1,140,4|0,3:0|3:0,0:0:0:0:
352,103,15657,1,8,0:0:0:0:
417,156,15825,2,0,P|464:195|445:278,1,140,0|0,3:0|3:0,0:0:0:0:
423,349,16328,1,8,0:0:0:0:
423,349,16411,1,10,0:0:0:0:
423,349,16495,1,10,0:0:0:0:
344,378,16663,5,4,3:2:0:0:
289,314,16830,2,0,L|251:302,2,35,2|2|2,0:0|0:0|0:0,0:0:0:0:
349,255,17166,2,0,L|391:270,2,35,2|2|0,0:0|0:0|3:0,0:0:0:0:
321,175,17501,2,0,L|263:157,2,35,2|2|2,0:0|0:0|0:0,0:0:0:0:
395,131,17836,1,2,0:0:0:0:
395,131,17920,1,2,0:0:0:0:
395,131,18004,1,10,0:0:0:0:
293,0,18339,6,0,B|232:7|206:41|205:84|206:87|207:90|191:141|146:160|106:165,1,262.500010013581,4|0,3:2|0:0,0:0:0:0:
45,212,19344,6,0,L|76:88,2,119.000002269745,0|0|0,3:0|3:0|3:0,0:0:0:0:
5,280,20182,1,0,0:0:0:0:
5,280,20350,1,0,3:0:0:0:
66,327,20518,2,0,P|95:315|128:304,1,59.5000011348725,8|0,0:0|3:0,0:0:0:0:
167,241,20853,2,0,P|195:253|225:262,1,59.5000011348725,8|0,0:0|3:0,0:0:0:0:
273,320,21188,2,0,P|324:301|395:277,2,119.000002269745,2|2|0,0:0|0:0|0:0,0:0:0:0:
222,261,22026,6,0,P|204:231|211:185,1,59.5000011348725,0|2,3:0|0:0,0:0:0:0:
230,134,22361,1,0,3:0:0:0:
79,314,22864,1,2,0:0:0:0:
79,314,23032,1,0,3:0:0:0:
132,369,23199,2,0,P|161:362|195:350,1,59.5000011348725,8|0,0:0|3:0,0:0:0:0:
214,279,23534,2,0,L|289:253,1,59.5000011348725,8|0,0:0|3:0,0:0:0:0:
286,183,23870,2,0,P|316:173|344:162,1,59.5000011348725,2|0,0:0|3:0,0:0:0:0:
361,87,24205,1,2,0:0:0:0:
320,21,24372,1,0,3:0:0:0:
174,75,24708,6,0,P|144:70|104:53,1,59.5000011348725,0|2,3:0|0:0,0:0:0:0:
56,10,25043,1,0,3:0:0:0:
4,239,25546,1,2,0:0:0:0:
4,239,25714,1,0,3:0:0:0:
65,191,25882,2,0,P|94:201|121:209,1,59.5000011348725,8|0,0:0|3:0,0:0:0:0:
169,269,26217,2,0,P|196:260|227:250,1,59.5000011348725,8|0,0:0|3:0,0:0:0:0:
263,317,26552,2,0,P|277:251|294:186,2,119.000002269745,2|2|0,0:0|0:0|0:0,0:0:0:0:
321,367,27390,6,0,P|356:347|373:306,1,59.5000011348725,0|2,3:0|0:0,0:0:0:0:
431,291,27724,2,0,L|394:100,1,178.500003404617,0|8,3:0|0:0,0:0:0:0:
397,115,28311,1,8,0:0:0:0:
397,115,28396,1,8,0:0:0:0:
328,150,28562,2,0,P|273:133|246:64,1,119.000002269745,4|0,3:2|3:0,0:0:0:0:
175,49,29065,1,8,0:0:0:0:
170,126,29233,2,0,L|198:252,1,119.000002269745,0|0,3:0|3:0,0:0:0:0:
149,304,29736,1,8,0:0:0:0:
308,370,30071,6,0,L|326:302,1,66.4999982242585,4|2,3:2|0:0,0:0:0:0:
392,262,30406,2,0,L|362:128,1,132.999996448517,8|0,0:0|3:0,0:0:0:0:
312,77,30909,1,0,3:0:0:0:
312,77,31076,1,2,0:0:0:0:
252,130,31244,2,0,P|212:121|185:91,1,66.4999982242585,8|0,0:0|0:0,0:0:0:0:
138,46,31579,2,0,P|105:47|60:68,1,66.4999982242585,0|8,3:0|0:0,0:0:0:0:
9,105,31914,2,0,P|22:145|45:238,2,132.999996448517,2|0|0,0:0|3:0|0:0,0:0:0:0:
73,58,32752,6,0,P|96:84|102:119,1,66.4999982242585,0|2,3:0|0:0,0:0:0:0:
180,131,33087,2,0,P|160:184|139:264,1,132.999996448517,8|0,0:0|3:0,0:0:0:0:
75,302,33590,1,0,3:0:0:0:
75,302,33758,1,2,0:0:0:0:
133,367,33925,2,0,P|202:343|271:325,1,132.999996448517,8|0,0:0|3:0,0:0:0:0:
311,263,34428,1,8,0:0:0:0:
258,202,34596,2,0,P|197:186|196:105,1,132.999996448517,0|0,0:0|3:0,0:0:0:0:
218,51,35099,1,8,0:0:0:0:
218,51,35434,6,0,L|366:86,1,132.999996448517,4|10,3:2|0:0,0:0:0:0:
417,42,35937,1,0,3:0:0:0:
452,113,36104,2,0,L|480:258,1,132.999996448517,0|8,3:0|3:2,0:0:0:0:
423,302,36607,2,0,P|355:260|286:249,1,132.999996448517,0|0,3:0|3:0,0:0:0:0:
249,190,37110,2,0,P|215:206|182:217,1,66.4999982242585,8|0,0:0|3:0,0:0:0:0:
280,118,37445,2,0,P|314:133|361:149,1,66.4999982242585,0|0,3:0|0:0,0:0:0:0:
236,51,37780,1,8,0:0:0:0:
236,51,38115,5,8,0:0:0:0:
153,35,38283,1,8,0:0:0:0:
71,17,38451,1,8,0:0:0:0:
71,17,38786,1,0,3:0:0:0:
26,82,38953,2,0,L|43:156,1,66.4999982242585,8|2,0:0|0:0,0:0:0:0:
104,236,39289,2,0,P|126:157|144:106,1,132.999996448517,4|0,3:2|3:0,0:0:0:0:
207,155,39791,1,8,0:0:0:0:
274,111,39959,2,0,P|326:132|414:161,1,132.999996448517,0|6,3:0|3:0,0:0:0:0:
463,109,40462,2,0,P|486:132|496:191,1,66.4999982242585,6|10,3:0|3:0,0:0:0:0:
448,225,40797,5,4,3:2:0:0:
283,367,41300,1,0,3:0:0:0:
283,367,41467,2,0,P|352:312|339:236,1,168,0|2,3:0|0:0,0:0:0:0:
316,167,42138,1,0,3:0:0:0:
141,297,42641,1,0,3:0:0:0:
141,297,42808,1,0,3:0:0:0:
71,169,43143,1,8,0:0:0:0:
71,169,43479,6,0,P|145:134|135:47,1,168,0|0,3:0|3:0,0:0:0:0:
200,1,44149,1,0,3:0:0:0:
308,196,44652,1,0,3:0:0:0:
308,196,44819,2,0,P|382:167|476:143,1,168,0|0,3:0|3:0,0:0:0:0:
489,74,45490,2,0,L|466:9,1,56,0|0,3:0|0:0,0:0:0:0:
404,75,45825,1,8,0:0:0:0:
340,28,45992,1,8,0:0:0:0:
340,28,46076,1,8,0:0:0:0:
340,28,46160,6,0,L|204:57,1,125.999996154785,4|2,3:2|0:0,0:0:0:0:
167,111,46663,2,0,L|104:85,1,62.9999980773926,0|0,3:0|3:0,0:0:0:0:
51,36,46998,1,8,0:0:0:0:
0,94,47166,1,8,0:0:0:0:
0,94,47501,6,0,L|38:237,1,125.999996154785,0|2,3:0|0:0,0:0:0:0:
90,263,48004,2,0,L|158:229,1,62.9999980773926,0|0,3:0|3:0,0:0:0:0:
64,332,48339,1,8,0:0:0:0:
123,382,48506,1,8,0:0:0:0:
123,382,48842,6,0,L|264:337,1,125.999996154785,0|0,3:0|3:0,0:0:0:0:
287,282,49344,1,8,0:0:0:0:
346,328,49512,2,0,L|417:352,1,62.9999980773926,0|8,3:0|0:3,0:0:0:0:
452,288,49847,2,0,L|541:261,1,62.9999980773926,0|2,3:0|0:0,0:0:0:0:
467,200,50182,2,0,L|503:65,2,125.999996154785,0|0|0,3:0|3:0|3:0,0:0:0:0:
396,235,51020,1,8,0:3:0:0:
452,288,51188,1,0,3:0:0:0:
452,288,51523,6,0,L|301:258,1,140,8|0,0:0|3:0,0:0:0:0:
268,192,52026,2,0,L|125:236,1,140,8|8,0:0|3:0,0:0:0:0:
71,289,52529,1,8,0:0:0:0:
11,230,52696,2,0,P|70:192|65:115,1,140,12|0,0:0|0:0,0:0:0:0:
21,66,53199,1,2,0:0:0:0:
21,66,53367,1,0,0:0:0:0:
88,17,53534,1,2,0:0:0:0:
88,17,53702,1,0,3:0:0:0:
166,46,53870,1,8,3:0:0:0:
345,0,54205,6,0,L|323:88,1,77.0000023498536,4|2,3:2|0:0,0:0:0:0:
263,131,54540,1,8,0:0:0:0:
263,131,54708,1,2,0:0:0:0:
205,192,54875,2,0,P|272:171|363:150,1,154.000004699707,0|8,3:0|0:0,0:0:0:0:
416,94,55378,2,0,P|462:126|446:238,1,154.000004699707,2|2,0:0|0:0,0:0:0:0:
412,284,55881,2,0,L|321:257,1,77.0000023498536,8|2,0:0|0:0,0:0:0:0:
291,191,56216,2,0,P|228:224|113:251,1,154.000004699707,0|8,3:0|0:0,0:0:0:0:
106,320,56719,1,2,0:0:0:0:
19,263,56886,6,0,P|5:228|9:182,1,77.0000023498536,4|2,3:2|0:0,0:0:0:0:
76,140,57222,1,8,0:0:0:0:
76,140,57389,1,2,0:0:0:0:
18,77,57557,2,0,P|83:101|171:134,1,154.000004699707,0|8,3:0|0:0,0:0:0:0:
222,201,58060,2,0,P|300:189|349:112,1,154.000004699707,2|2,0:0|0:0,0:0:0:0:
428,133,58562,2,0,L|410:49,1,77.0000023498536,8|0,0:0|0:0,0:0:0:0:
326,51,58898,2,0,L|161:10,1,154.000004699707,0|8,3:0|0:0,0:0:0:0:
100,64,59400,1,8,0:0:0:0:
100,64,59484,1,8,0:0:0:0:
100,64,59568,6,0,P|61:115|91:217,1,154.000004699707,4|8,3:2|0:0,0:0:0:0:
145,254,60071,1,2,0:0:0:0:
145,254,60238,1,0,3:0:0:0:
214,205,60406,2,0,L|236:146,2,38.5000011749268,2|2|8,0:0|0:0|0:0,0:0:0:0:
271,267,60741,1,2,0:0:0:0:
198,334,60909,6,0,L|39:267,1,154.000004699707,0|8,3:0|0:0,0:0:0:0:
18,204,61411,1,2,0:0:0:0:
18,204,61579,1,0,3:0:0:0:
75,141,61747,1,2,0:0:0:0:
75,141,61830,1,2,0:0:0:0:
75,141,61914,1,8,0:0:0:0:
218,231,62249,5,4,3:2:0:0:
218,231,62417,1,2,0:0:0:0:
279,172,62585,1,8,0:0:0:0:
279,172,62752,1,2,0:0:0:0:
202,128,62920,2,0,P|279:113|372:64,1,154.000004699707,0|8,3:0|0:0,0:0:0:0:
382,7,63423,6,0,P|390:79|415:175,1,154.000004699707,2|2,0:0|0:0,0:0:0:0:
484,211,63925,2,0,P|469:236|448:294,1,77.0000023498536,8|0,0:0|0:0,0:0:0:0:
355,315,64261,1,8,0:0:0:0:
309,248,64428,1,8,0:3:0:0:
309,248,64512,1,8,0:3:0:0:
309,248,64596,2,0,L|276:232,3,35,8|8|8|8,0:3|0:3|0:3|0:3,0:0:0:0:
247,197,64931,6,0,P|206:213|152:231,1,77.0000023498536,4|2,3:2|0:0,0:0:0:0:
97,253,65266,1,8,0:0:0:0:
97,253,65434,1,2,0:0:0:0:
15,213,65601,2,0,P|86:188|107:95,1,154.000004699707,0|8,3:0|0:0,0:0:0:0:
179,29,66104,2,0,L|325:79,1,154.000004699707,2|2,0:0|0:0,0:0:0:0:
398,24,66607,2,0,L|418:107,1,77.0000023498536,8|2,0:0|0:0,0:0:0:0:
494,132,66942,2,0,L|471:210,1,77.0000023498536,0|0,3:0|0:0,0:0:0:0:
399,284,67277,1,8,0:0:0:0:
277,160,67613,6,0,L|105:194,1,154.000004699707,4|8,3:2|0:0,0:0:0:0:
56,141,68115,1,0,0:0:0:0:
12,214,68283,2,0,L|53:383,1,154.000004699707,0|8,3:0|0:0,0:0:0:0:
115,311,68786,1,0,0:0:0:0:
198,377,68953,6,0,P|243:366|286:328,1,77.0000023498536,4|0,3:2|0:0,0:0:0:0:
346,383,69289,2,0,P|384:354|398:309,1,77.0000023498536,8|2,0:0|0:0,0:0:0:0:
480,322,69624,2,0,P|500:283|495:244,1,77.0000023498536,0|0,3:0|0:0,0:0:0:0:
448,181,69959,1,8,0:0:0:0:
274,116,70294,6,0,L|247:279,2,154.000004699707,4|8|0,3:2|0:0|3:0,0:0:0:0:
356,88,71132,1,2,0:0:0:0:
356,88,71300,2,0,L|326:-6,1,77.0000023498536,8|2,0:0|0:0,0:0:0:0:
247,8,71635,2,0,P|178:40|71:54,1,154.000004699707,0|8,3:0|0:0,0:0:0:0:
143,127,72138,1,2,0:0:0:0:
73,196,72305,6,0,P|77:240|91:277,1,77.0000023498536,0|8,3:0|0:0,0:0:0:0:
157,319,72641,2,0,P|196:304|252:280,1,77.0000023498536,8|8,0:0|0:3,0:0:0:0:
310,208,72976,5,12,3:2:0:0:
310,208,73143,1,0,0:0:0:0:
288,130,73311,1,8,0:0:0:0:
288,130,73479,1,0,0:0:0:0:
217,178,73646,2,0,P|181:166|140:155,1,77.0000023498536,0|0,3:0|3:0,0:0:0:0:
89,90,73981,2,0,P|86:52|114:11,1,77.0000023498536,8|0,0:0|3:0,0:0:0:0:
229,5,74317,6,0,P|257:20|302:41,1,77.0000023498536,12|0,3:2|0:0,0:0:0:0:
381,26,74652,1,8,0:0:0:0:
381,26,74820,1,0,3:0:0:0:
439,87,74988,2,0,P|437:125|426:162,1,77.0000023498536,8|8,0:0|0:3,0:0:0:0:
368,223,75322,1,8,0:0:0:0:
368,223,75490,1,8,0:3:0:0:
289,174,75657,5,4,3:2:0:0:
139,3,76160,1,2,0:0:0:0:
114,74,76328,1,0,3:0:0:0:
88,144,76495,1,2,0:0:0:0:
88,144,76831,6,0,L|102:218,1,62.9999980773926,8|0,0:0|3:0,0:0:0:0:
172,228,77166,2,0,L|142:312,1,62.9999980773926,8|0,0:0|3:0,0:0:0:0:
96,339,77501,1,2,0:0:0:0:
96,339,77669,2,0,L|19:308,1,62.9999980773926,0|8,3:0|0:0,0:0:0:0:
163,381,78004,1,8,0:0:0:0:
163,381,78339,6,0,P|224:361|289:315,1,125.999996154785,4|8,3:2|0:0,0:0:0:0:
288,252,78842,1,2,0:0:0:0:
358,279,79009,1,0,3:0:0:0:
429,303,79177,1,2,0:0:0:0:
429,303,79512,6,0,P|470:257|469:174,1,125.999996154785,8|2,0:0|0:0,0:0:0:0:
409,159,80015,1,0,3:0:0:0:
457,102,80183,1,10,0:0:0:0:
457,102,80266,1,10,0:0:0:0:
457,102,80350,2,0,L|464:65,3,31.4999990386963,10|10|10|10,0:0|2:3|2:3|2:3,0:0:0:0:
489,43,80685,2,0,L|475:9,3,31.4999990386963,10|8|8|8,2:3|0:3|0:3|0:3,0:0:0:0:
440,1,81021,6,0,L|293:38,1,125.999996154785,4|8,3:2|0:0,0:0:0:0:
258,78,81523,1,2,0:0:0:0:
185,56,81691,1,0,3:0:0:0:
113,32,81858,1,2,0:0:0:0:
113,32,82194,6,0,L|85:113,1,62.9999980773926,8|0,0:0|3:0,0:0:0:0:
16,96,82529,2,0,L|32:173,1,62.9999980773926,8|0,0:0|3:0,0:0:0:0:
87,213,82864,1,2,0:0:0:0:
87,213,83032,2,0,L|57:294,1,62.9999980773926,0|8,3:0|0:0,0:0:0:0:
141,358,83367,1,8,0:0:0:0:
141,358,83702,6,0,P|191:321|178:237,1,125.999996154785,4|8,3:2|0:0,0:0:0:0:
243,203,84205,1,2,0:0:0:0:
303,256,84372,1,0,3:0:0:0:
303,256,84540,2,0,P|342:269|374:277,1,62.9999980773926,2|0,0:0|3:0,0:0:0:0:
443,339,84875,6,0,P|489:310|472:229,1,125.999996154785,8|8,0:0|0:0,0:0:0:0:
433,186,85378,2,0,L|450:114,1,62.9999980773926,8|8,0:3|0:3,0:0:0:0:
387,68,85713,1,8,0:0:0:0:
387,68,85881,1,8,0:0:0:0:
322,118,86049,1,0,3:0:0:0:
252,75,86216,5,4,3:2:0:0:
256,192,86384,12,0,89065,0:0:0:0:
