osu file format v14

[General]
AudioFilename: audio.mp3
AudioLeadIn: 0
PreviewTime: 54121
Countdown: 0
SampleSet: Soft
StackLeniency: 0.4
Mode: 0
LetterboxInBreaks: 0
WidescreenStoryboard: 0

[Editor]
DistanceSpacing: 1.2
BeatDivisor: 4
GridSize: 32
TimelineZoom: 2

[Metadata]
Title:My dream girls (TV Size)
TitleUnicode:My dream girls (TV Size)
Artist:NACHERRY
ArtistUnicode:NACHERRY
Creator:Kyss
Version:Cute
Source:魔法少女にあこがれて
Tags:daki dakiwii amats kyutei anya melfissa shingyouji yuni mahou shoujo ni akogarete gushing over magical girls opening op anime japanese jpop pop j-pop chiemi tanaka 田中ちえ美 natsumi murakami 村上奈津実 duo まほあこ mahoako i admire
BeatmapID:4477849
BeatmapSetID:2129479

[Difficulty]
HPDrainRate:5.5
CircleSize:4
OverallDifficulty:9
ApproachRate:9.3
SliderMultiplier:1.8
SliderTickRate:1

[Events]
//Background and Video events
0,0,"bgg.jpg",0,0
//Break Periods
//Storyboard Layer 0 (Background)
//Storyboard Layer 1 (Fail)
//Storyboard Layer 2 (Pass)
//Storyboard Layer 3 (Foreground)
//Storyboard Layer 4 (Overlay)
//Storyboard Sound Samples

[TimingPoints]
574,335.195530726257,4,2,1,75,1,0
574,-83.3333333333333,4,2,1,75,0,0
909,-83.3333333333333,4,2,1,65,0,0
1244,-100,4,2,1,65,0,0
1747,-83.3333333333333,4,2,1,75,0,0
1914,-100,4,2,1,65,0,0
2082,-83.3333333333333,4,2,1,75,0,0
2249,-100,4,2,1,65,0,0
3171,-100,4,2,1,5,0,0
3255,-83.3333333333333,4,2,1,75,0,0
3590,-83.3333333333333,4,2,1,65,0,0
4093,-100,4,2,1,65,0,0
4428,-83.3333333333333,4,2,1,65,0,0
5266,-125,4,2,1,65,0,0
5937,-83.3333333333333,4,2,1,75,0,0
6272,-83.3333333333333,4,2,1,65,0,0
6775,-100,4,2,1,65,0,0
7110,-83.3333333333333,4,2,1,75,0,0
7277,-83.3333333333333,4,2,1,65,0,0
7445,-83.3333333333333,4,2,1,75,0,0
7613,-83.3333333333333,4,2,1,65,0,0
8283,-100,4,2,1,65,0,0
8534,-100,4,2,1,5,0,0
8618,-83.3333333333333,4,2,1,75,0,0
8953,-83.3333333333333,4,2,1,65,0,0
9456,-100,4,2,1,65,0,0
9791,-83.3333333333333,4,2,1,75,0,0
10127,-83.3333333333333,4,2,2,65,0,0
10294,-83.3333333333333,4,2,1,65,0,0
11300,-100,4,2,1,65,0,0
12724,-100,4,2,1,5,0,0
12808,-100,4,2,1,65,0,0
13227,-100,4,2,1,5,0,0
13479,-100,4,2,1,65,0,0
13562,-100,4,2,1,5,0,0
13814,-100,4,2,1,65,0,0
15406,-100,4,2,1,5,0,0
15490,-100,4,2,1,65,0,0
19261,-100,4,2,1,5,0,0
19344,-125,4,2,1,55,0,0
28562,-100,4,2,1,65,0,0
28814,-100,4,2,1,5,0,0
28898,-100,4,2,1,65,0,0
30071,-100,4,2,1,65,0,0
31495,-100,4,2,1,5,0,0
31579,-100,4,2,1,65,0,0
34177,-100,4,2,1,5,0,0
34261,-100,4,2,1,65,0,0
35434,-117.647058823529,4,2,1,60,0,0
36858,-117.647058823529,4,2,1,5,0,0
36942,-117.647058823529,4,2,1,60,0,0
38115,-117.647058823529,4,2,1,75,0,0
38451,-117.647058823529,4,2,1,60,0,0
38953,-117.647058823529,4,2,1,75,0,0
39121,-117.647058823529,4,2,1,60,0,0
39289,-100,4,2,1,65,0,0
40797,-133.333333333333,4,2,1,55,0,0
46160,-125,4,2,1,65,0,0
46998,-125,4,2,1,75,0,0
47333,-125,4,2,1,65,0,0
48339,-125,4,2,1,75,0,0
48674,-125,4,2,1,65,0,0
51523,-100,4,2,1,75,0,0
51858,-100,4,2,1,65,0,0
52026,-125,4,2,1,75,0,0
52361,-125,4,2,1,65,0,0
52696,-125,4,2,1,75,0,0
53618,-125,4,2,1,5,0,0
53702,-125,4,2,1,65,0,0
54121,-125,4,2,1,5,0,0
54205,-83.3333333333333,4,2,1,85,0,1
55127,-83.3333333333333,4,2,1,5,0,1
55210,-83.3333333333333,4,2,1,85,0,1
57808,-83.3333333333333,4,2,1,5,0,1
57892,-83.3333333333333,4,2,1,85,0,1
65853,-83.3333333333333,4,2,1,5,0,1
65937,-83.3333333333333,4,2,1,85,0,1
67529,-83.3333333333333,4,2,1,5,0,1
67613,-83.3333333333333,4,2,1,85,0,1
68199,-83.3333333333333,4,2,1,5,0,1
68283,-83.3333333333333,4,2,1,85,0,1
68870,-83.3333333333333,4,2,1,5,0,1
68953,-83.3333333333333,4,2,1,85,0,1
70210,-83.3333333333333,4,2,1,5,0,1
70294,-83.3333333333333,4,2,1,85,0,1
71886,-83.3333333333333,4,2,1,5,0,1
71970,-83.3333333333333,4,2,1,85,0,1
74568,-83.3333333333333,4,2,1,5,0,1
74652,-83.3333333333333,4,2,1,85,0,1
75657,-83.3333333333333,4,2,1,75,0,0
75992,-83.3333333333333,4,2,1,65,0,0
76495,-100,4,2,1,65,0,0
76830,-83.3333333333333,4,2,1,75,0,0
76998,-100,4,2,1,65,0,0
77166,-83.3333333333333,4,2,1,75,0,0
77333,-100,4,2,1,65,0,0
78255,-100,4,2,1,5,0,0
78339,-83.3333333333333,4,2,1,75,0,0
78674,-83.3333333333333,4,2,1,65,0,0
79177,-100,4,2,1,65,0,0
79512,-83.3333333333333,4,2,1,65,0,0
80182,-125,4,2,1,65,0,0
81020,-83.3333333333333,4,2,1,75,0,0
81356,-83.3333333333333,4,2,1,65,0,0
81858,-100,4,2,1,65,0,0
82194,-83.3333333333333,4,2,1,75,0,0
82361,-83.3333333333333,4,2,1,65,0,0
82529,-83.3333333333333,4,2,1,75,0,0
82696,-83.3333333333333,4,2,1,65,0,0
83367,-100,4,2,1,65,0,0
83618,-100,4,2,1,5,0,0
83702,-83.3333333333333,4,2,1,75,0,0
84205,-83.3333333333333,4,2,1,65,0,0
84540,-100,4,2,1,65,0,0
84875,-83.3333333333333,4,2,1,65,0,0
85210,-83.3333333333333,4,2,2,65,0,0
85378,-83.3333333333333,4,2,1,65,0,0
89065,-83.3333333333333,4,2,1,5,0,0

[Colours]
Combo1 : 99,214,193
Combo2 : 101,91,213
Combo3 : 155,225,117
Combo4 : 233,221,152

[HitObjects]
13,384,574,6,0,P|80:302|188:303,1,215.999993408203,4|8,3:2|0:0,0:0:0:0:
255,384,1076,1,2,0:0:0:0:
352,268,1244,1,0,3:0:0:0:
289,205,1411,2,0,P|266:244|270:299,1,90,2|0,0:0|3:0,0:0:0:0:
424,123,1747,6,0,P|376:101|328:68,1,107.999996704102,8|0,0:0|3:0,0:0:0:0:
190,104,2082,2,0,P|143:78|91:62,1,107.999996704102,8|0,0:0|3:0,0:0:0:0:
6,117,2417,5,2,0:0:0:0:
149,0,2585,1,0,3:0:0:0:
190,104,2752,1,8,0:0:0:0:
190,104,2920,2,0,P|164:160|137:232,1,135,8|0,0:0|0:0,0:0:0:0:
63,255,3255,6,0,B|121:226|166:283|134:297|177:359|238:332,1,215.999993408203,4|8,3:2|0:0,0:0:0:0:
326,242,3758,1,2,0:0:0:0:
404,384,3925,1,0,3:0:0:0:
502,300,4093,2,0,P|460:288|410:276,1,90,2|0,0:0|3:0,0:0:0:0:
283,119,4428,6,0,P|385:96|500:71,1,215.999993408203,8|2,0:0|0:0,0:0:0:0:
416,123,4931,1,0,3:0:0:0:
331,17,5099,1,10,0:0:0:0:
309,13,5182,1,10,0:0:0:0:
287,9,5266,2,0,L|246:2,1,36,10|0,0:0|0:0,0:0:0:0:
151,65,5434,5,10,2:3:0:0:
129,69,5518,5,10,2:3:0:0:
108,73,5601,5,10,2:3:0:0:
70,107,5685,5,8,0:3:0:0:
68,153,5769,5,8,0:3:0:0:
96,185,5853,5,8,0:3:0:0:
161,220,5937,6,0,P|265:200|375:181,1,215.999993408203,4|8,3:2|0:0,0:0:0:0:
500,279,6439,1,2,0:0:0:0:
343,378,6607,1,0,3:0:0:0:
426,250,6775,2,0,P|420:294|413:345,1,90,2|0,0:0|3:0,0:0:0:0:
227,191,7110,6,0,P|217:145|203:83,1,107.999996704102,8|0,0:0|3:0,0:0:0:0:
30,230,7445,2,0,P|20:274|3:342,1,107.999996704102,8|0,0:0|3:0,0:0:0:0:
109,378,7780,5,2,0:0:0:0:
14,221,7948,1,0,3:0:0:0:
129,296,8115,1,8,0:0:0:0:
129,296,8283,2,0,P|194:278|265:258,1,135,8|0,0:0|0:0,0:0:0:0:
319,204,8618,6,0,P|357:259|258:255,1,215.999993408203,4|8,3:2|0:0,0:0:0:0:
331,189,9121,1,2,0:0:0:0:
185,108,9289,1,0,3:0:0:0:
281,23,9456,2,0,P|273:67|265:116,1,90,2|0,0:0|3:0,0:0:0:0:
512,340,9791,6,0,P|493:228|473:117,1,215.999993408203,8|8,0:0|0:0,0:0:0:0:
475,127,10294,1,8,0:3:0:0:
380,89,10462,1,8,0:3:0:0:
479,17,10629,1,8,0:0:0:0:
382,203,10797,1,8,0:0:0:0:
238,33,10965,1,0,3:0:0:0:
325,0,11132,1,8,0:0:0:0:
325,0,11216,1,8,0:0:0:0:
325,0,11300,6,0,P|313:47|300:97,1,90,4|2,3:2|0:0,0:0:0:0:
382,203,11635,1,8,0:0:0:0:
268,264,11803,1,2,0:0:0:0:
405,124,11970,2,0,P|449:112|500:99,1,90,0|0,3:0|3:0,0:0:0:0:
446,247,12305,1,8,0:0:0:0:
272,159,12473,6,0,P|216:149|120:133,1,135,4|0,3:2|0:0,0:0:0:0:
138,136,12808,1,2,0:0:0:0:
36,0,12976,1,8,0:0:0:0:
124,27,13143,6,0,P|115:49|103:80,1,45,0|0,3:0|0:0,0:0:0:0:
0,192,13479,6,0,P|9:214|21:245,1,45,0|0,3:0|0:0,0:0:0:0:
0,379,13814,6,0,P|51:315|144:310,1,180,4|0,0:0|3:0,0:0:0:0:
249,378,14317,2,0,P|259:333|270:283,1,90,8|0,0:0|0:0,0:0:0:0:
113,209,14652,2,0,P|122:252|132:296,1,90,0|0,3:0|3:0,0:0:0:0:
235,187,14987,1,8,0:0:0:0:
343,303,15155,6,0,P|407:290|486:275,1,135,4|0,3:0|0:0,0:0:0:0:
475,276,15490,1,0,3:0:0:0:
337,199,15657,1,8,0:0:0:0:
444,115,15825,2,0,P|434:161|424:217,1,90,0|0,3:0|0:0,0:0:0:0:
321,120,16160,1,0,3:0:0:0:
492,19,16328,1,8,0:0:0:0:
470,24,16411,1,10,0:0:0:0:
443,29,16495,1,10,0:0:0:0:
412,36,16579,1,10,0:0:0:0:
376,43,16663,6,0,L|276:26,1,90,4|2,3:2|0:0,0:0:0:0:
287,27,16914,1,2,0:0:0:0:
287,27,16998,1,2,0:0:0:0:
154,139,17166,1,2,0:0:0:0:
154,139,17249,1,2,0:0:0:0:
154,139,17333,6,0,L|259:122,1,90,0|2,3:0|0:0,0:0:0:0:
242,124,17585,1,2,0:0:0:0:
242,124,17668,1,2,0:0:0:0:
123,32,17836,1,2,0:0:0:0:
123,32,17919,1,2,0:0:0:0:
123,32,18003,6,0,L|18:15,1,90,10|0,0:0|0:0,0:0:0:0:
207,211,18339,5,4,3:2:0:0:
256,192,18423,12,0,19261,0:0:0:0:
207,211,19344,5,0,3:0:0:0:
102,165,19512,1,0,0:0:0:0:
191,295,19680,2,0,P|260:279|339:261,1,144,0|0,3:0|3:0,0:0:0:0:
307,348,20182,1,0,0:0:0:0:
421,266,20350,1,0,3:0:0:0:
299,184,20518,6,0,P|308:220|318:257,1,72,8|0,0:0|3:0,0:0:0:0:
420,156,20853,2,0,P|429:121|438:86,1,72,8|0,0:0|3:0,0:0:0:0:
362,9,21188,2,0,P|296:9|271:76,1,144,2|2,0:0|0:0,0:0:0:0:
270,73,21691,1,0,3:0:0:0:
127,223,22026,5,0,3:0:0:0:
87,99,22194,1,2,0:0:0:0:
223,198,22361,2,0,P|211:270|197:348,1,144,0|0,3:0|3:0,0:0:0:0:
117,384,22864,1,2,0:0:0:0:
241,275,23032,1,0,3:0:0:0:
332,384,23199,6,0,P|365:377|409:368,1,72,8|0,0:0|3:0,0:0:0:0:
501,263,23534,2,0,P|468:256|424:247,1,72,8|0,0:0|3:0,0:0:0:0:
326,157,23870,2,0,P|340:216|361:303,1,144,2|2,0:0|0:0,0:0:0:0:
359,297,24372,1,0,3:0:0:0:
310,239,24540,1,2,0:0:0:0:
461,114,24708,5,0,3:0:0:0:
346,76,24875,1,2,0:0:0:0:
482,186,25043,2,0,P|496:120|511:36,1,144,0|0,3:0|3:0,0:0:0:0:
375,0,25546,1,2,0:0:0:0:
450,118,25713,1,0,3:0:0:0:
251,157,25881,6,0,P|209:148|168:140,1,72,8|0,0:0|3:0,0:0:0:0:
79,25,26216,2,0,P|121:16|162:8,1,72,8|0,0:0|3:0,0:0:0:0:
52,103,26551,2,0,P|37:173|21:252,1,144,2|2,0:0|0:0,0:0:0:0:
22,243,27054,1,0,3:0:0:0:
172,384,27389,5,0,3:0:0:0:
253,269,27557,1,2,0:0:0:0:
156,371,27724,2,0,P|80:358|12:345,1,144,0|0,3:0|3:0,0:0:0:0:
124,258,28227,1,8,0:0:0:0:
152,252,28311,1,8,0:0:0:0:
180,247,28395,1,8,0:0:0:0:
268,384,28562,6,0,P|283:316|300:243,1,135,4|0,3:2|0:0,0:0:0:0:
297,252,28898,1,0,3:0:0:0:
185,140,29065,1,8,0:0:0:0:
283,85,29233,2,0,P|297:110|291:173,1,90,0|0,3:0|0:0,0:0:0:0:
180,247,29568,1,0,3:0:0:0:
310,159,29736,1,10,0:0:0:0:
344,151,29819,1,8,0:0:0:0:
378,141,29903,1,8,0:0:0:0:
413,133,29987,1,8,0:0:0:0:
448,125,30071,5,4,3:2:0:0:
491,17,30238,1,2,0:0:0:0:
371,153,30406,2,0,P|382:196|396:247,1,90,8|2,0:0|0:0,0:0:0:0:
338,357,30741,1,0,3:0:0:0:
477,265,30909,1,0,3:0:0:0:
380,232,31076,1,2,0:0:0:0:
459,384,31244,6,0,P|475:315|494:233,1,135,8|0,0:0|0:0,0:0:0:0:
456,182,31579,2,0,P|443:136|430:90,1,90,0|8,3:0|0:0,0:0:0:0:
346,20,31914,1,2,0:0:0:0:
495,34,32082,1,0,3:0:0:0:
438,178,32249,1,0,3:0:0:0:
334,112,32417,2,0,P|291:102|242:90,1,90,8|0,0:0|0:0,0:0:0:0:
110,212,32752,5,0,3:0:0:0:
54,113,32920,1,2,0:0:0:0:
196,197,33087,2,0,P|189:239|181:289,1,90,8|2,0:0|0:0,0:0:0:0:
100,371,33423,1,0,3:0:0:0:
195,276,33590,1,0,3:0:0:0:
244,353,33758,1,2,0:0:0:0:
46,268,33925,6,0,P|30:207|11:132,1,135,8|0,0:0|0:0,0:0:0:0:
12,137,34261,1,0,3:0:0:0:
144,13,34428,1,8,0:0:0:0:
52,43,34596,2,0,P|68:81|119:104,1,90,0|0,0:0|3:0,0:0:0:0:
217,42,34931,1,0,3:0:0:0:
256,195,35099,1,8,0:0:0:0:
256,195,35434,6,0,P|328:178|417:158,1,153.000002918243,4|10,3:2|0:0,0:0:0:0:
465,65,35937,1,0,3:0:0:0:
395,173,36104,2,0,P|404:210|415:256,1,76.5000014591217,0|0,3:0|0:0,0:0:0:0:
510,305,36439,1,8,3:2:0:0:
377,380,36607,6,0,P|321:369|261:358,1,114.750002188683,0|0,3:0|0:0,0:0:0:0:
264,358,36942,1,0,3:0:0:0:
183,249,37110,2,0,P|174:288|163:331,1,76.5000014591217,8|0,0:0|3:0,0:0:0:0:
303,224,37445,2,0,P|294:187|284:149,1,76.5000014591217,0|0,3:0|0:0,0:0:0:0:
208,74,37780,2,0,P|217:38|226:0,1,76.5000014591217,8|0,0:0|3:0,0:0:0:0:
381,102,38115,5,8,0:0:0:0:
126,192,38283,1,8,0:0:0:0:
319,0,38451,1,8,0:0:0:0:
319,0,38786,1,0,3:0:0:0:
213,213,38953,1,8,0:0:0:0:
122,112,39121,1,2,0:0:0:0:
296,236,39289,6,0,P|383:214|480:192,1,180,4|0,3:2|3:0,0:0:0:0:
381,250,39791,1,8,0:0:0:0:
507,93,39959,2,0,P|497:135|485:182,1,90,0|0,3:0|0:0,0:0:0:0:
396,241,40294,1,6,3:0:0:0:
489,306,40462,1,6,3:0:0:0:
429,363,40629,1,10,3:0:0:0:
429,363,40797,6,0,P|365:352|287:338,1,135.000005149842,4|2,3:2|0:0,0:0:0:0:
218,275,41300,1,0,3:0:0:0:
134,365,41467,2,0,P|67:375|0:386,1,135.000005149842,0|8,3:0|0:0,0:0:0:0:
70,293,41970,1,2,0:0:0:0:
3,199,42138,6,0,P|15:139|30:66,1,135.000005149842,0|2,3:0|0:0,0:0:0:0:
128,10,42641,1,0,3:0:0:0:
188,112,42808,2,0,P|210:108|265:99,1,67.5000025749208,0|0,3:0|0:0,0:0:0:0:
366,8,43143,1,8,0:0:0:0:
439,74,43311,1,2,0:0:0:0:
330,157,43479,6,0,P|341:104|359:19,1,135.000005149842,0|2,3:0|0:0,0:0:0:0:
430,84,43981,1,0,3:0:0:0:
339,144,44149,2,0,P|352:204|367:278,1,135.000005149842,0|8,3:0|0:0,0:0:0:0:
460,322,44652,1,0,3:0:0:0:
340,384,44819,6,0,P|275:373|198:361,1,135.000005149842,0|2,3:0|0:0,0:0:0:0:
134,264,45322,1,0,3:0:0:0:
66,332,45490,2,0,P|34:336|-11:342,1,67.5000025749208,0|0,3:0|0:0,0:0:0:0:
119,249,45825,1,8,0:0:0:0:
206,362,45992,1,8,0:0:0:0:
206,362,46076,1,8,0:0:0:0:
206,362,46160,6,0,P|218:304|237:214,1,144,4|2,3:2|0:0,0:0:0:0:
318,141,46663,1,0,3:0:0:0:
212,69,46830,1,0,3:0:0:0:
346,253,46998,5,8,0:0:0:0:
455,3,47166,1,8,0:0:0:0:
379,65,47333,1,2,0:0:0:0:
379,65,47501,6,0,P|392:127|411:215,1,144,0|2,3:0|0:0,0:0:0:0:
502,266,48004,1,0,3:0:0:0:
431,340,48171,1,0,3:0:0:0:
242,145,48339,5,8,0:0:0:0:
133,366,48506,1,8,0:0:0:0:
101,295,48674,1,2,0:0:0:0:
179,292,48842,6,0,P|112:266|30:236,1,144,0|0,3:0|3:0,0:0:0:0:
54,357,49344,1,8,0:0:0:0:
0,175,49512,1,0,3:0:0:0:
151,200,49680,1,8,0:3:0:0:
29,252,49847,1,0,3:0:0:0:
51,113,50015,1,2,0:0:0:0:
191,278,50182,6,0,P|262:263|340:247,1,144,0|0,3:0|3:0,0:0:0:0:
439,355,50685,1,8,0:0:0:0:
512,287,50853,2,0,P|505:248|498:212,1,72,0|8,3:0|0:3,0:0:0:0:
402,124,51188,2,0,P|395:159|388:194,1,72,0|8,3:0|0:3,0:0:0:0:
511,78,51523,6,0,P|441:56|335:23,1,180,8|0,0:0|3:0,0:0:0:0:
184,134,52026,2,0,P|219:122|272:106,1,72,8|0,0:0|0:0,0:0:0:0:
252,112,52361,1,8,3:0:0:0:
47,2,52529,5,8,0:0:0:0:
69,255,52696,1,12,0:0:0:0:
256,192,52780,12,0,53618,0:0:0:0:
69,255,53702,5,0,3:0:0:0:
120,193,53870,2,0,P|169:179|236:161,1,108,8|0,3:0|0:0,0:0:0:0:
224,164,54205,5,4,3:2:0:0:
376,42,54372,1,2,0:0:0:0:
413,236,54540,1,8,0:0:0:0:
252,78,54708,1,2,0:0:0:0:
473,1,54875,2,0,P|462:87|452:170,1,161.999995056153,0|0,3:0|0:0,0:0:0:0:
452,161,55210,1,8,0:0:0:0:
243,277,55378,6,0,P|236:220|228:164,1,107.999996704102,2|0,0:0|3:0,0:0:0:0:
329,237,55713,1,2,0:0:0:0:
164,384,55881,2,0,P|115:377|51:368,1,107.999996704102,8|2,0:0|0:0,0:0:0:0:
228,268,56216,2,0,P|281:260|334:252,1,107.999996704102,0|0,3:0|0:0,0:0:0:0:
403,317,56551,1,8,0:0:0:0:
330,369,56719,1,2,0:0:0:0:
479,99,56886,5,4,3:2:0:0:
512,296,57054,1,2,0:0:0:0:
329,237,57222,1,8,0:0:0:0:
410,154,57389,1,2,0:0:0:0:
254,384,57557,2,0,P|237:312|214:217,1,161.999995056153,0|0,3:0|0:0,0:0:0:0:
216,226,57892,1,8,0:0:0:0:
68,62,58060,6,0,P|55:114|42:166,1,107.999996704102,2|0,0:0|3:0,0:0:0:0:
174,92,58395,1,2,0:0:0:0:
6,240,58562,2,0,P|57:250|119:263,1,107.999996704102,8|0,0:0|0:0,0:0:0:0:
280,158,58898,2,0,P|332:147|385:136,1,107.999996704102,0|0,3:0|0:0,0:0:0:0:
469,0,59233,1,8,0:0:0:0:
394,55,59400,1,8,0:0:0:0:
394,55,59484,1,8,0:0:0:0:
394,55,59568,6,0,P|417:147|449:272,1,215.999993408203,4|8,3:2|0:0,0:0:0:0:
389,384,60071,1,2,0:0:0:0:
273,284,60238,2,0,P|217:276|159:268,1,107.999996704102,0|2,3:0|0:0,0:0:0:0:
166,268,60490,1,2,0:0:0:0:
166,268,60574,1,8,0:0:0:0:
86,181,60741,1,2,0:0:0:0:
33,384,60909,6,0,P|46:318|76:172,1,215.999993408203,0|8,3:0|0:0,0:0:0:0:
167,96,61411,1,2,0:0:0:0:
0,0,61579,2,0,P|9:49|20:109,1,107.999996704102,0|2,3:0|0:0,0:0:0:0:
19,106,61830,1,2,0:0:0:0:
19,106,61914,1,8,0:0:0:0:
159,223,62249,5,4,3:2:0:0:
290,95,62417,1,2,0:0:0:0:
75,172,62585,1,8,0:0:0:0:
286,303,62752,1,2,0:0:0:0:
179,102,62920,2,0,P|174:153|168:215,1,107.999996704102,0|0,3:0|0:0,0:0:0:0:
73,290,63255,1,8,0:0:0:0:
219,384,63423,6,0,P|276:376|335:368,1,107.999996704102,2|0,0:0|3:0,0:0:0:0:
485,231,63758,1,2,0:0:0:0:
413,384,63925,2,0,P|399:327|371:212,1,161.999995056153,8|8,0:0|0:0,0:0:0:0:
314,177,64261,1,8,0:0:0:0:
318,161,64344,1,8,0:0:0:0:
322,145,64428,1,8,0:3:0:0:
326,129,64512,1,8,0:3:0:0:
329,113,64596,5,8,0:3:0:0:
331,69,64680,1,8,0:3:0:0:
297,33,64763,1,8,0:3:0:0:
242,33,64847,1,8,0:3:0:0:
200,75,64931,5,4,3:2:0:0:
291,272,65099,1,2,0:0:0:0:
77,245,65266,1,8,0:0:0:0:
221,156,65434,1,2,0:0:0:0:
115,384,65601,2,0,P|100:304|84:224,1,161.999995056153,0|0,3:0|0:0,0:0:0:0:
84,224,65937,1,8,0:0:0:0:
255,61,66104,6,0,P|245:113|234:169,1,107.999996704102,2|0,0:0|3:0,0:0:0:0:
153,77,66439,1,2,0:0:0:0:
355,192,66607,2,0,P|407:180|464:167,1,107.999996704102,8|2,0:0|0:0,0:0:0:0:
302,349,66942,2,0,P|249:336|196:324,1,107.999996704102,0|0,3:0|0:0,0:0:0:0:
28,369,67277,2,0,P|64:384|94:292,1,161.999995056153,8|0,0:0|0:0,0:0:0:0:
42,238,67613,6,0,P|31:190|15:123,1,107.999996704102,4|0,3:2|0:0,0:0:0:0:
158,14,67948,2,0,B|206:0|233:43|212:53|246:103|298:79,1,161.999995056153,8|0,0:0|0:0,0:0:0:0:
344,32,68283,6,0,P|395:23|453:13,1,107.999996704102,0|0,3:0|0:0,0:0:0:0:
287,206,68618,2,0,P|207:193|118:178,1,161.999995056153,8|0,0:0|0:0,0:0:0:0:
62,222,68953,6,0,P|57:269|109:305,1,107.999996704102,4|0,3:2|0:0,0:0:0:0:
228,156,69289,1,8,0:0:0:0:
297,295,69456,1,2,0:0:0:0:
372,214,69624,2,0,P|426:201|487:187,1,107.999996704102,0|0,3:0|0:0,0:0:0:0:
324,384,69959,2,0,P|247:365|161:345,1,161.999995056153,8|0,0:0|0:0,0:0:0:0:
109,290,70294,6,0,P|56:302|3:314,1,107.999996704102,4|2,3:2|0:0,0:0:0:0:
137,163,70629,1,8,0:0:0:0:
190,276,70797,1,2,0:0:0:0:
1,175,70965,1,0,3:0:0:0:
166,69,71132,2,0,P|160:114|152:183,1,107.999996704102,2|8,0:0|0:0,0:0:0:0:
46,84,71467,1,2,0:0:0:0:
249,4,71635,6,0,P|301:52|391:53,1,161.999995056153,0|0,3:0|0:0,0:0:0:0:
452,8,71970,2,0,P|469:57|490:117,1,107.999996704102,8|2,0:0|0:0,0:0:0:0:
321,241,72305,1,0,3:0:0:0:
413,127,72473,1,8,0:0:0:0:
512,264,72641,2,0,P|500:317|489:372,1,107.999996704102,8|8,0:0|0:3,0:0:0:0:
489,369,72892,1,8,0:3:0:0:
489,369,72976,5,12,3:2:0:0:
260,297,73143,1,0,0:0:0:0:
459,196,73311,1,8,0:0:0:0:
315,384,73479,1,0,0:0:0:0:
191,249,73646,2,0,P|181:198|170:142,1,107.999996704102,0|0,3:0|3:0,0:0:0:0:
387,51,73981,2,0,P|376:103|366:156,1,107.999996704102,8|0,0:0|3:0,0:0:0:0:
185,41,74317,6,0,P|124:25|19:-2,1,161.999995056153,12|0,3:2|0:0,0:0:0:0:
28,0,74652,1,8,0:0:0:0:
182,137,74819,1,0,3:0:0:0:
0,226,74987,1,8,0:0:0:0:
18,206,75071,1,8,0:0:0:0:
44,202,75155,1,8,0:3:0:0:
69,209,75238,1,8,0:3:0:0:
83,231,75322,1,8,0:0:0:0:
102,269,75406,1,8,0:3:0:0:
145,290,75490,1,8,0:3:0:0:
198,284,75574,1,8,0:3:0:0:
233,237,75657,6,0,P|215:131|196:19,1,215.999993408203,4|8,3:2|0:0,0:0:0:0:
288,93,76160,1,2,0:0:0:0:
134,140,76328,1,0,3:0:0:0:
311,20,76495,2,0,P|305:62|296:122,1,90,2|0,0:0|3:0,0:0:0:0:
394,254,76830,6,0,P|443:236|500:224,1,107.999996704102,8|0,0:0|3:0,0:0:0:0:
164,213,77166,2,0,P|218:200|266:179,1,107.999996704102,8|0,0:0|3:0,0:0:0:0:
218,331,77501,5,2,0:0:0:0:
63,216,77668,1,0,3:0:0:0:
173,229,77836,1,8,0:0:0:0:
81,365,78004,2,0,P|68:303|53:232,1,135,8|0,0:0|0:0,0:0:0:0:
0,176,78339,6,0,P|36:136|54:231,1,215.999993408203,4|8,3:2|0:0,0:0:0:0:
121,146,78842,1,2,0:0:0:0:
221,303,79009,1,0,3:0:0:0:
300,214,79177,2,0,P|346:204|402:192,1,90,2|0,0:0|3:0,0:0:0:0:
512,45,79512,6,0,P|416:24|300:0,1,215.999993408203,8|2,0:0|0:0,0:0:0:0:
372,49,80015,1,0,3:0:0:0:
255,153,80182,1,10,0:0:0:0:
233,148,80266,1,10,0:0:0:0:
212,142,80350,2,0,L|167:132,1,36,10|0,0:0|0:0,0:0:0:0:
69,66,80518,5,10,2:3:0:0:
47,70,80601,5,10,2:3:0:0:
25,74,80685,5,10,2:3:0:0:
0,118,80769,5,8,0:3:0:0:
8,164,80853,5,8,0:3:0:0:
45,186,80937,5,8,0:3:0:0:
115,217,81020,6,0,P|209:179|322:174,1,215.999993408203,4|8,3:2|0:0,0:0:0:0:
400,280,81523,1,2,0:0:0:0:
267,360,81691,1,0,3:0:0:0:
411,263,81858,2,0,P|418:222|427:169,1,90,2|0,0:0|3:0,0:0:0:0:
271,46,82194,6,0,P|324:32|375:6,1,107.999996704102,8|0,0:0|3:0,0:0:0:0:
194,160,82529,2,0,P|147:138|93:123,1,107.999996704102,8|0,0:0|3:0,0:0:0:0:
49,0,82864,5,2,0:0:0:0:
184,70,83032,1,0,3:0:0:0:
4,189,83199,1,8,0:0:0:0:
104,113,83367,2,0,P|95:175|83:258,1,135,8|0,0:0|0:0,0:0:0:0:
16,297,83702,6,0,P|102:282|180:377,1,215.999993408203,4|8,3:2|0:0,0:0:0:0:
275,269,84205,1,2,0:0:0:0:
378,384,84372,1,0,3:0:0:0:
454,308,84540,2,0,P|448:263|441:211,1,90,2|0,0:0|3:0,0:0:0:0:
291,43,84875,6,0,P|276:152|261:261,1,215.999993408203,8|8,0:0|0:0,0:0:0:0:
261,256,85378,1,8,0:3:0:0:
301,384,85546,1,8,0:3:0:0:
159,262,85713,1,8,0:0:0:0:
351,195,85881,1,8,0:0:0:0:
214,384,86048,1,0,3:0:0:0:
70,110,86216,5,4,3:2:0:0:
256,192,86300,12,0,89065,0:0:0:0:
