osu file format v14

[General]
AudioFilename: audio.mp3
AudioLeadIn: 0
PreviewTime: 54121
Countdown: 0
SampleSet: Soft
StackLeniency: 0.4
Mode: 0
LetterboxInBreaks: 0
WidescreenStoryboard: 1

[Editor]
DistanceSpacing: 1.1
BeatDivisor: 4
GridSize: 32
TimelineZoom: 2

[Metadata]
Title:My dream girls (TV Size)
TitleUnicode:My dream girls (TV Size)
Artist:NACHERRY
ArtistUnicode:NACHERRY
Creator:Kyss
Version:Kyutei's Insane
Source:魔法少女にあこがれて
Tags:daki dakiwii amats kyutei anya melfissa shingyouji yuni mahou shoujo ni akogarete gushing over magical girls opening op anime japanese jpop pop j-pop chiemi tanaka 田中ちえ美 natsumi murakami 村上奈津実 duo まほあこ mahoako i admire
BeatmapID:4477850
BeatmapSetID:2129479

[Difficulty]
HPDrainRate:5
CircleSize:3.6
OverallDifficulty:8.4
ApproachRate:9
SliderMultiplier:1.6
SliderTickRate:1

[Events]
//Background and Video events
0,0,"bgg.jpg",0,0
//Break Periods
//Storyboard Layer 0 (Background)
//Storyboard Layer 1 (Fail)
//Storyboard Layer 2 (Pass)
//Storyboard Layer 3 (Foreground)
//Storyboard Layer 4 (Overlay)
//Storyboard Sound Samples

[TimingPoints]
574,335.195530726257,4,2,99,70,1,0
574,-100,4,2,99,70,0,0
3171,-100,4,2,99,5,0,0
3255,-100,4,2,99,70,0,0
8534,-100,4,2,99,5,0,0
8618,-100,4,2,99,70,0,0
11300,-100,4,2,99,80,0,0
13227,-100,4,2,99,5,0,0
13479,-100,4,2,99,80,0,0
13562,-100,4,2,99,5,0,0
13814,-100,4,2,99,80,0,0
16579,-100,4,2,99,80,0,0
16663,-100,4,2,99,80,0,0
18423,-100,4,2,99,5,0,0
19344,-125,4,2,99,60,0,0
30071,-111.111111111111,4,2,99,70,0,0
40797,-125,4,2,99,60,0,0
46160,-111.111111111111,4,2,99,70,0,0
47082,-100,4,2,99,5,0,0
47166,-111.111111111111,4,2,99,70,0,0
47249,-100,4,2,99,5,0,0
47333,-111.111111111111,4,2,99,70,0,0
48423,-100,4,2,99,5,0,0
48506,-111.111111111111,4,2,99,70,0,0
48590,-100,4,2,99,5,0,0
48842,-111.111111111111,4,2,99,70,0,0
51523,-111.111111111111,4,2,99,80,0,0
54121,-100,4,2,99,5,0,0
54205,-100,4,2,99,90,0,1
64261,-100,4,2,99,90,0,0
64931,-100,4,2,99,90,0,1
73227,-100,4,2,99,5,0,1
73311,-100,4,2,99,90,0,1
73562,-100,4,2,99,5,0,1
73646,-100,4,2,99,90,0,1
74568,-100,4,2,99,5,0,1
74652,-100,4,2,99,90,0,1
75238,-100,4,2,99,90,0,1
75322,-100,4,2,99,90,0,1
75657,-100,4,2,99,70,0,0
78255,-100,4,2,99,5,0,0
78339,-100,4,2,99,70,0,0
83618,-100,4,2,99,5,0,0
83702,-100,4,2,99,70,0,0
86216,-100,4,2,99,60,0,0
86300,-100,4,2,99,5,0,0
89065,-100,4,2,99,5,0,0

[Colours]
Combo1 : 99,214,193
Combo2 : 101,91,213
Combo3 : 155,225,117
Combo4 : 233,221,152

[HitObjects]
22,353,574,6,0,P|94:322|185:329,1,160,6|8,3:2|0:0,0:0:0:0:
324,229,1076,1,2,0:0:0:0:
324,229,1244,1,2,3:2:0:0:
248,371,1411,2,0,P|258:337|254:281,1,80,2|0,0:0|3:2,0:0:0:0:
105,232,1747,6,0,L|26:242,1,80,10|0,1:0|3:2,0:0:0:0:
216,134,2082,2,0,L|137:144,1,80,10|0,1:0|3:2,0:0:0:0:
14,7,2417,5,2,0:0:0:0:
78,54,2585,1,2,3:2:0:0:
151,24,2752,1,6,1:0:0:0:
298,60,2920,2,0,P|350:63|415:13,1,120,6|0,1:0|0:0,0:0:0:0:
378,22,3255,6,0,B|391:130|401:79|415:185,1,160,2|8,3:2|0:0,0:0:0:0:
500,95,3758,1,2,0:0:0:0:
500,95,3925,1,2,3:2:0:0:
428,262,4093,2,0,P|389:259|355:239,1,80,2|0,0:0|3:2,0:0:0:0:
263,332,4428,2,0,P|181:333|104:385,1,160,14|2,0:0|0:0,0:0:0:0:
196,374,4931,1,0,3:2:0:0:
15,294,5099,5,2,3:2:0:0:
15,294,5182,1,0,3:2:0:0:
15,294,5266,2,0,P|31:301|64:301,3,40,2|0|0|0,3:2|3:2|3:2|3:2,0:0:0:0:
116,254,5601,2,0,P|123:238|123:205,3,40,10|8|8|8,3:0|3:0|3:0|3:0,0:0:0:0:
18,125,5937,6,0,P|102:123|178:78,1,160,6|8,3:2|0:0,0:0:0:0:
72,25,6439,1,2,0:0:0:0:
72,25,6607,1,2,3:2:0:0:
249,97,6775,2,0,P|261:56|259:4,1,80,2|0,0:0|3:2,0:0:0:0:
405,95,7110,6,0,L|484:85,1,80,10|0,1:0|3:2,0:0:0:0:
286,193,7445,2,0,L|365:183,1,80,10|0,1:0|3:2,0:0:0:0:
510,324,7780,5,2,0:0:0:0:
435,345,7948,1,2,3:2:0:0:
372,297,8115,1,6,1:0:0:0:
249,341,8283,2,0,P|193:362|131:359,1,120,6|0,1:0|0:0,0:0:0:0:
105,380,8618,6,0,P|95:303|128:230,1,160,2|8,3:2|0:0,0:0:0:0:
240,260,9121,1,2,0:0:0:0:
240,260,9289,1,2,3:2:0:0:
152,136,9456,2,0,P|114:148|71:150,1,80,2|0,0:0|3:2,0:0:0:0:
234,0,9791,2,0,P|266:54|261:150,1,160,14|8,0:0|0:0,0:0:0:0:
31,78,10294,2,0,P|30:42|50:-3,1,80,10|8,3:0|3:0,0:0:0:0:
152,136,10629,1,10,1:0:0:0:
326,5,10797,5,4,1:0:0:0:
504,67,10965,1,4,1:0:0:0:
396,143,11132,5,8,0:0:0:0:
396,143,11216,1,8,0:0:0:0:
396,143,11300,2,0,P|404:170|408:223,1,80,6|2,3:2|0:0,0:0:0:0:
217,360,11635,2,0,P|209:333|205:280,1,80,10|2,0:0|0:0,0:0:0:0:
293,205,11970,5,2,3:2:0:0:
328,309,12138,1,0,3:2:0:0:
100,172,12305,5,10,0:0:0:0:
182,187,12473,2,0,P|106:218|28:221,1,160,2|2,3:2|3:2,0:0:0:0:
86,86,12976,1,10,0:0:0:0:
252,69,13143,6,0,L|256:28,1,40,10|0,3:0|0:0,0:0:0:0:
495,96,13479,2,0,L|499:55,1,40,10|0,3:0|0:0,0:0:0:0:
362,2,13814,6,0,P|383:67|386:170,1,160,6|0,3:2|3:2,0:0:0:0:
512,377,14317,2,0,P|501:344|500:292,1,80,10|0,0:0|0:0,0:0:0:0:
372,260,14652,5,2,3:2:0:0:
512,190,14819,1,0,3:2:0:0:
307,366,14987,5,10,0:0:0:0:
385,364,15155,2,0,P|317:324|222:333,1,160,2|2,3:2|3:2,0:0:0:0:
41,225,15657,1,10,0:0:0:0:
164,376,15825,2,0,P|146:308|147:194,1,160,2|2,3:2|3:2,0:0:0:0:
265,117,16328,1,8,0:0:0:0:
265,117,16411,1,8,0:0:0:0:
265,117,16495,2,0,L|275:54,1,40,8|8,0:0|0:0,0:0:0:0:
222,11,16663,5,4,3:2:0:0:
161,87,16830,6,0,L|171:150,2,40,2|2|2,0:0|0:0|0:0,0:0:0:0:
339,206,17166,6,0,L|349:269,2,40,2|2|0,0:0|0:0|3:2,0:0:0:0:
231,287,17501,6,0,L|241:350,2,40,2|2|2,0:0|0:0|0:0,0:0:0:0:
320,376,17836,5,2,0:0:0:0:
336,356,17920,1,2,0:0:0:0:
334,332,18004,1,2,3:2:0:0:
256,192,18339,5,6,3:2:0:0:
256,192,18423,12,0,19261,0:0:0:0:
97,298,19344,6,0,P|129:296|165:287,1,64,6|0,3:2|0:0,0:0:0:0:
13,362,19680,2,0,P|7:296|33:231,1,128,2|0,3:2|3:2,0:0:0:0:
152,124,20182,5,2,0:0:0:0:
152,124,20350,1,2,3:2:0:0:
67,166,20518,2,0,L|59:96,1,64,10|0,0:0|3:2,0:0:0:0:
243,146,20853,2,0,L|235:76,1,64,10|0,0:0|3:2,0:0:0:0:
326,13,21188,6,0,P|368:33|455:30,1,128,2|2,0:0|0:0,0:0:0:0:
381,73,21691,1,0,3:2:0:0:
464,251,22026,6,0,P|477:287|483:320,1,64,2|2,3:2|0:0,0:0:0:0:
373,364,22361,2,0,P|300:365|246:330,1,128,2|0,3:2|3:2,0:0:0:0:
99,278,22864,5,2,0:0:0:0:
99,278,23032,1,2,3:2:0:0:
12,313,23199,2,0,L|2:232,1,64,10|0,0:0|3:2,0:0:0:0:
188,291,23534,2,0,L|180:227,1,64,10|0,0:0|3:2,0:0:0:0:
0,92,23870,6,0,P|47:110|137:109,1,128,2|2,0:0|0:0,0:0:0:0:
183,50,24372,2,0,L|256:41,1,64,2|0,3:2|0:0,0:0:0:0:
477,0,24708,6,0,P|488:31|494:67,1,64,2|2,3:2|0:0,0:0:0:0:
328,100,25043,2,0,P|310:163|308:241,1,128,2|0,3:2|3:2,0:0:0:0:
400,333,25546,5,2,0:0:0:0:
400,333,25713,1,2,3:2:0:0:
491,358,25881,2,0,L|481:294,1,64,10|0,0:0|3:2,0:0:0:0:
320,378,26216,2,0,L|310:314,1,64,10|0,0:0|3:2,0:0:0:0:
183,237,26551,6,0,P|133:263|63:264,1,128,2|2,0:0|0:0,0:0:0:0:
135,299,27054,1,0,3:2:0:0:
18,112,27389,6,0,P|19:80|30:49,1,64,2|2,3:2|0:0,0:0:0:0:
229,9,27724,2,0,P|245:52|245:149,1,128,2|0,3:2|3:2,0:0:0:0:
468,0,28227,5,10,1:0:0:0:
468,0,28311,1,8,1:0:0:0:
468,0,28395,1,2,3:2:0:0:
333,74,28562,2,0,P|386:97|456:104,1,128,14|2,0:0|3:2,0:0:0:0:
335,202,29065,1,10,0:0:0:0:
511,292,29233,2,0,P|447:297|388:322,1,128,6|0,3:2|3:2,0:0:0:0:
278,380,29736,2,0,L|283:342,3,32,8|8|8|8,1:0|1:0|1:0|1:0,0:0:0:0:
190,350,30071,6,0,P|158:358|114:364,1,71.9999978027344,6|2,3:2|3:2,0:0:0:0:
0,205,30406,2,0,P|49:203|140:242,1,143.999995605469,10|0,0:0|3:2,0:0:0:0:
190,130,30909,5,2,3:2:0:0:
190,130,31076,1,2,1:0:0:0:
285,234,31244,2,0,P|276:197|272:154,1,71.9999978027344,6|0,3:2|0:0,0:0:0:0:
111,79,31579,2,0,P|102:42|98:-1,1,71.9999978027344,2|10,3:2|0:0,0:0:0:0:
249,46,31914,6,0,P|283:44|323:31,1,71.9999978027344,2|0,0:0|3:2,0:0:0:0:
397,43,32249,2,0,P|429:29|462:3,1,71.9999978027344,2|8,3:2|0:0,0:0:0:0:
511,226,32752,6,0,L|437:217,1,71.9999978027344,6|2,3:2|0:0,0:0:0:0:
355,330,33087,2,0,P|304:350|210:350,1,143.999995605469,10|0,0:0|3:2,0:0:0:0:
29,293,33590,5,2,3:2:0:0:
29,293,33758,1,2,0:0:0:0:
107,381,33925,2,0,B|126:292|132:340|155:225,1,143.999995605469,6|2,3:2|3:2,0:0:0:0:
49,177,34428,2,0,P|38:143|32:102,1,71.9999978027344,10|2,0:0|0:0,0:0:0:0:
100,21,34763,5,0,3:2:0:0:
163,67,34931,1,0,3:2:0:0:
238,39,35099,1,8,0:0:0:0:
421,239,35434,6,0,P|452:294|467:404,1,143.999995605469,6|8,3:2|0:0,0:0:0:0:
410,320,35937,1,2,3:2:0:0:
432,151,36104,2,0,L|450:1,1,143.999995605469,2|8,3:2|0:0,0:0:0:0:
339,123,36607,6,0,P|273:148|189:141,1,143.999995605469,2|2,3:2|3:2,0:0:0:0:
89,32,37110,2,0,P|98:66|105:106,1,71.9999978027344,8|0,0:0|3:2,0:0:0:0:
41,167,37445,2,0,P|50:201|57:241,1,71.9999978027344,2|8,3:2|3:0,0:0:0:0:
0,308,37780,2,0,P|9:342|16:382,1,71.9999978027344,10|0,0:0|3:2,0:0:0:0:
133,317,38115,5,6,3:2:0:0:
262,285,38283,1,4,3:2:0:0:
360,367,38451,1,12,3:2:0:0:
512,182,38786,5,2,0:0:0:0:
458,311,38953,2,0,P|449:272|445:231,1,71.9999978027344,6|2,0:0|0:0,0:0:0:0:
363,47,39289,2,0,P|354:118|337:188,1,143.999995605469,6|2,3:2|3:2,0:0:0:0:
136,183,39791,5,10,0:0:0:0:
199,227,39959,2,0,P|129:231|58:200,1,143.999995605469,2|10,3:2|3:0,0:0:0:0:
0,251,40462,1,10,3:0:0:0:
0,251,40629,1,10,3:0:0:0:
135,375,40797,6,0,P|216:338|323:351,1,192,6|2,3:2|3:2,0:0:0:0:
383,298,41467,2,0,L|539:313,1,128,2|8,3:2|0:0,0:0:0:0:
423,166,41970,5,2,0:0:0:0:
423,166,42138,2,0,P|364:184|282:181,1,128,2|0,3:2|0:0,0:0:0:0:
189,35,42641,1,2,3:2:0:0:
304,141,42808,2,0,P|245:141|171:113,1,128,2|8,3:2|0:0,0:0:0:0:
28,91,43311,5,0,0:0:0:0:
33,11,43479,2,0,P|62:64|73:208,1,192,6|2,3:2|3:2,0:0:0:0:
35,293,44149,2,0,L|166:267,1,128,2|8,3:2|0:0,0:0:0:0:
324,381,44652,5,2,0:0:0:0:
324,381,44819,2,0,P|300:315|302:249,1,128,2|0,3:2|0:0,0:0:0:0:
352,158,45322,1,2,3:2:0:0:
251,249,45490,2,0,P|217:201|196:130,1,128,2|8,3:2|0:0,0:0:0:0:
153,15,45992,5,10,0:0:0:0:
153,15,46076,1,8,0:0:0:0:
153,15,46160,2,0,P|209:37|295:40,1,143.999995605469,6|0,3:2|0:0,0:0:0:0:
390,2,46663,2,0,P|379:36|373:78,1,71.9999978027344,2|2,3:2|3:2,0:0:0:0:
443,138,46998,6,0,L|493:130,1,35.9999989013672,8|0,1:0|0:0,0:0:0:0:
457,233,47166,2,0,L|507:225,1,35.9999989013672,8|0,1:0|0:0,0:0:0:0:
431,367,47333,5,2,0:0:0:0:
431,367,47501,2,0,P|368:345|276:342,1,143.999995605469,6|0,3:2|0:0,0:0:0:0:
158,384,48004,2,0,P|147:350|145:313,1,71.9999978027344,2|2,3:2|3:2,0:0:0:0:
55,233,48339,6,0,L|4:225,1,35.9999989013672,8|0,1:0|0:0,0:0:0:0:
69,138,48506,2,0,L|18:130,1,35.9999989013672,8|0,1:0|0:0,0:0:0:0:
191,0,48842,6,0,P|215:59|219:164,1,143.999995605469,6|0,3:2|3:2,0:0:0:0:
313,31,49344,2,0,P|343:31|389:23,1,71.9999978027344,10|2,0:0|3:2,0:0:0:0:
512,171,49680,1,10,3:0:0:0:
435,193,49847,1,2,3:2:0:0:
375,139,50015,1,10,3:0:0:0:
200,261,50182,6,0,P|265:235|344:240,1,143.999995605469,2|2,3:2|3:2,0:0:0:0:
417,328,50685,1,8,0:0:0:0:
298,384,50853,2,0,P|287:346|284:309,1,71.9999978027344,2|8,3:2|3:0,0:0:0:0:
116,169,51188,2,0,P|112:204|101:239,1,71.9999978027344,2|8,3:2|3:0,0:0:0:0:
11,341,51523,6,0,P|69:338|174:383,1,143.999995605469,14|0,0:0|3:2,0:0:0:0:
338,111,52026,2,0,P|297:137|186:136,1,143.999995605469,14|0,0:0|3:2,0:0:0:0:
25,0,52529,1,14,0:0:0:0:
49,124,52696,1,6,3:2:0:0:
256,192,52780,12,2,53534,0:0:0:0:
367,48,53702,5,0,3:2:0:0:
367,48,53870,2,0,P|418:50|483:25,1,107.999996704102,8|0,0:0|0:0,0:0:0:0:
444,5,54205,5,6,3:2:0:0:
509,190,54372,1,2,0:0:0:0:
305,135,54540,5,14,0:0:0:0:
276,251,54708,1,2,0:0:0:0:
489,371,54875,6,0,P|420:336|338:334,1,160,2|10,3:2|0:0,0:0:0:0:
240,368,55378,2,0,L|161:357,1,80,2|2,0:0|3:2,0:0:0:0:
3,222,55713,1,2,0:0:0:0:
60,383,55881,6,0,P|50:343|46:304,1,80,10|0,0:0|0:0,0:0:0:0:
240,150,56216,2,0,P|250:190|254:229,1,80,2|0,3:2|0:0,0:0:0:0:
153,275,56551,5,8,0:0:0:0:
153,275,56719,1,0,0:0:0:0:
0,70,56886,5,6,3:2:0:0:
205,8,57054,1,2,0:0:0:0:
69,160,57222,5,14,0:0:0:0:
163,189,57389,1,2,0:0:0:0:
285,69,57557,6,0,P|341:41|438:49,1,160,2|10,3:2|0:0,0:0:0:0:
508,205,58060,2,0,L|425:195,1,80,2|2,0:0|3:2,0:0:0:0:
282,283,58395,1,2,0:0:0:0:
361,382,58562,6,0,P|371:342|375:303,1,80,10|0,0:0|0:0,0:0:0:0:
206,163,58897,2,0,P|196:203|192:242,1,80,2|0,3:2|0:0,0:0:0:0:
282,283,59233,1,8,0:0:0:0:
106,368,59400,5,10,0:0:0:0:
106,368,59484,1,8,0:0:0:0:
106,368,59568,2,0,B|81:269|61:321|36:215,1,160,6|8,3:2|0:0,0:0:0:0:
34,303,60071,1,2,0:0:0:0:
57,145,60238,2,0,L|71:47,1,80,2|10,3:2|1:0,0:0:0:0:
68,65,60490,1,10,1:0:0:0:
68,65,60574,1,10,0:0:0:0:
235,23,60741,5,10,3:0:0:0:
169,69,60909,2,0,P|229:74|321:21,1,160,6|8,3:2|0:0,0:0:0:0:
497,146,61411,1,2,0:0:0:0:
421,13,61579,2,0,L|408:102,1,80,2|10,3:2|1:0,0:0:0:0:
409,92,61830,1,10,1:0:0:0:
409,92,61914,1,10,0:0:0:0:
481,383,62249,5,6,3:2:0:0:
446,290,62417,1,10,3:0:0:0:
293,384,62585,5,10,0:0:0:0:
363,189,62752,1,10,3:0:0:0:
224,292,62920,6,0,P|161:323|63:312,1,160,2|10,3:2|0:0,0:0:0:0:
0,196,63423,2,0,L|79:206,1,80,10|4,3:0|3:2,0:0:0:0:
231,89,63758,1,2,3:2:0:0:
127,14,63925,2,0,L|138:96,1,80,10|0,0:0|3:2,0:0:0:0:
261,209,64261,1,6,3:2:0:0:
261,209,64344,1,0,3:2:0:0:
261,209,64428,1,8,3:0:0:0:
422,47,64596,6,0,L|468:54,3,40,8|8|8|8,3:0|3:0|3:0|3:0,0:0:0:0:
321,16,64931,6,0,P|329:53|335:101,1,80,6|2,3:2|0:0,0:0:0:0:
432,159,65266,2,0,P|440:196|446:244,1,80,10|2,0:0|0:0,0:0:0:0:
512,379,65601,2,0,P|445:345|352:350,1,160,2|10,3:2|0:0,0:0:0:0:
269,371,66104,2,0,L|186:364,1,80,2|0,0:0|3:2,0:0:0:0:
103,276,66439,1,2,0:0:0:0:
19,384,66607,6,0,P|16:342|5:295,1,80,10|0,0:0|0:0,0:0:0:0:
186,177,66942,2,0,P|189:219|200:266,1,80,2|0,3:2|0:0,0:0:0:0:
103,276,67277,1,10,0:0:0:0:
0,4,67613,6,0,P|38:17|87:19,1,80,6|0,3:2|0:0,0:0:0:0:
147,87,67948,2,0,P|187:86|233:71,1,80,10|8,3:2|3:0,0:0:0:0:
450,0,68283,6,0,P|436:34|428:84,1,80,6|0,3:2|0:0,0:0:0:0:
338,142,68618,2,0,P|336:178|346:228,1,80,10|8,3:2|3:0,0:0:0:0:
486,371,68953,6,0,L|394:357,1,80,6|0,3:2|0:0,0:0:0:0:
465,271,69289,1,10,3:2:0:0:
465,271,69456,1,8,3:0:0:0:
299,384,69624,6,0,P|310:347|312:304,1,80,6|0,3:2|3:2,0:0:0:0:
98,180,69959,2,0,P|87:217|85:260,1,80,10|8,0:0|3:0,0:0:0:0:
17,377,70294,6,0,P|90:349|176:354,1,160,4|8,3:2|0:0,0:0:0:0:
293,203,70797,2,0,L|209:212,1,80,8|0,3:0|3:2,0:0:0:0:
11,134,71132,1,2,0:0:0:0:
67,79,71300,1,10,0:0:0:0:
144,97,71467,1,2,0:0:0:0:
214,2,71635,6,0,P|263:28|393:27,1,160,2|8,3:2|0:0,0:0:0:0:
490,0,72138,2,0,P|476:34|465:86,1,80,2|2,0:0|3:2,0:0:0:0:
335,231,72473,1,8,0:0:0:0:
506,163,72641,1,10,0:0:0:0:
512,350,72808,5,8,3:0:0:0:
512,350,72976,2,0,P|445:344|390:311,1,120,14|0,0:0|0:0,0:0:0:0:
377,349,73311,2,0,P|333:365|256:364,1,120,10|0,0:0|0:0,0:0:0:0:
221,381,73646,5,10,0:0:0:0:
253,278,73814,1,0,3:2:0:0:
74,273,73981,5,10,0:0:0:0:
34,121,74149,1,0,3:2:0:0:
140,24,74317,6,0,P|195:45|270:41,1,120,14|0,0:0|0:0,0:0:0:0:
224,17,74652,5,8,0:0:0:0:
397,84,74819,1,0,3:2:0:0:
512,32,74987,5,10,0:0:0:0:
512,32,75071,1,0,3:2:0:0:
512,32,75155,2,0,P|486:30|454:22,1,40,0|0,3:2|3:2,0:0:0:0:
266,173,75322,2,0,P|308:172|355:158,1,80,8|8,0:0|3:0,0:0:0:0:
506,355,75657,6,0,P|428:352|343:308,1,160,6|8,3:2|0:0,0:0:0:0:
448,271,76160,1,2,0:0:0:0:
448,271,76328,1,2,3:2:0:0:
281,351,76495,2,0,P|242:361|188:361,1,80,2|0,0:0|3:2,0:0:0:0:
56,294,76830,6,0,L|70:377,1,80,10|0,1:0|3:2,0:0:0:0:
100,137,77166,2,0,L|114:220,1,80,10|0,1:0|3:2,0:0:0:0:
0,0,77501,5,2,0:0:0:0:
64,47,77668,1,2,3:2:0:0:
139,23,77836,1,6,1:0:0:0:
256,57,78004,2,0,P|316:61|380:29,1,120,6|0,1:0|0:0,0:0:0:0:
370,10,78339,6,0,P|404:84|402:179,1,160,2|8,3:2|0:0,0:0:0:0:
504,71,78842,1,2,0:0:0:0:
504,71,79009,1,2,3:2:0:0:
428,247,79177,2,0,P|392:246|340:221,1,80,2|0,0:0|3:2,0:0:0:0:
216,360,79512,2,0,P|290:327|379:343,1,160,14|2,0:0|0:0,0:0:0:0:
297,372,80015,1,0,3:2:0:0:
134,297,80182,5,2,3:2:0:0:
134,297,80265,1,0,3:2:0:0:
134,297,80349,2,0,P|118:304|85:304,3,40,2|0|0|0,3:2|3:2|3:2|3:2,0:0:0:0:
33,257,80684,2,0,P|26:241|26:208,3,40,10|8|8|8,3:0|3:0|3:0|3:0,0:0:0:0:
59,102,81020,6,0,P|125:97|213:42,1,160,6|8,3:2|0:0,0:0:0:0:
108,10,81523,1,2,0:0:0:0:
108,10,81691,1,2,3:2:0:0:
288,96,81858,2,0,P|329:96|370:83,1,80,2|0,0:0|3:2,0:0:0:0:
472,90,82194,6,0,L|458:7,1,80,10|0,1:0|3:2,0:0:0:0:
412,247,82530,2,0,L|398:164,1,80,10|0,1:0|3:2,0:0:0:0:
512,380,82865,5,2,0:0:0:0:
448,333,83033,1,2,3:2:0:0:
369,350,83200,1,6,1:0:0:0:
203,334,83367,2,0,P|149:355|84:351,1,120,6|0,1:0|0:0,0:0:0:0:
65,371,83702,6,0,P|56:297|87:209,1,160,2|8,3:2|0:0,0:0:0:0:
187,252,84205,1,2,0:0:0:0:
187,252,84372,1,2,3:2:0:0:
99,114,84540,2,0,P|60:123|20:126,1,80,2|0,0:0|3:2,0:0:0:0:
173,0,84875,2,0,P|216:41|244:148,1,160,14|8,0:0|0:0,0:0:0:0:
355,239,85378,2,0,P|393:248|433:251,1,80,10|8,3:0|3:0,0:0:0:0:
250,371,85713,1,10,1:0:0:0:
187,252,85881,5,4,1:0:0:0:
377,349,86048,1,4,1:0:0:0:
96,377,86216,6,0,L|89:319,1,40,4|0,3:2|0:0,0:0:0:0:
256,192,86384,12,0,89065,0:0:0:0:
