osu file format v14

[General]
AudioFilename: audio.mp3
AudioLeadIn: 0
PreviewTime: 54121
Countdown: 0
SampleSet: Soft
StackLeniency: 0.7
Mode: 0
LetterboxInBreaks: 0
WidescreenStoryboard: 1

[Editor]
DistanceSpacing: 1
BeatDivisor: 4
GridSize: 32
TimelineZoom: 1.9

[Metadata]
Title:My dream girls (TV Size)
TitleUnicode:My dream girls (TV Size)
Artist:NACHERRY
ArtistUnicode:NACHERRY
Creator:Kyss
Version:Amats' Normal
Source:魔法少女にあこがれて
Tags:daki dakiwii amats kyutei anya melfissa shingyouji yuni mahou shoujo ni akogarete gushing over magical girls opening op anime japanese jpop pop j-pop chiemi tanaka 田中ちえ美 natsumi murakami 村上奈津実 duo まほあこ mahoako i admire
BeatmapID:4477848
BeatmapSetID:2129479

[Difficulty]
HPDrainRate:3
CircleSize:3
OverallDifficulty:4
ApproachRate:5
SliderMultiplier:0.999999999999999
SliderTickRate:1

[Events]
//Background and Video events
0,0,"bgg.jpg",0,0
//Break Periods
//Storyboard Layer 0 (Background)
//Storyboard Layer 1 (Fail)
//Storyboard Layer 2 (Pass)
//Storyboard Layer 3 (Foreground)
//Storyboard Layer 4 (Overlay)
//Storyboard Sound Samples

[TimingPoints]
574,335.195530726257,4,2,1,75,1,0
909,-100,4,2,1,65,0,0
1747,-100,4,2,1,75,0,0
1914,-100,4,2,1,65,0,0
2082,-100,4,2,1,75,0,0
2249,-100,4,2,1,65,0,0
3255,-100,4,2,1,75,0,0
3590,-100,4,2,1,65,0,0
5099,-100,4,2,2,65,0,0
5266,-100,4,2,1,65,0,0
5937,-100,4,2,1,75,0,0
6272,-100,4,2,1,65,0,0
7110,-100,4,2,1,75,0,0
7277,-100,4,2,1,65,0,0
7445,-100,4,2,1,75,0,0
7613,-100,4,2,1,65,0,0
8618,-100,4,2,1,75,0,0
8953,-100,4,2,1,65,0,0
9791,-100,4,2,1,75,0,0
10294,-100,4,2,1,65,0,0
19344,-100,4,2,1,55,0,0
28562,-100,4,2,1,65,0,0
30071,-100,4,2,1,65,0,0
35434,-100,4,2,1,60,0,0
38115,-100,4,2,1,75,0,0
38451,-100,4,2,1,60,0,0
38953,-100,4,2,1,75,0,0
39121,-100,4,2,1,60,0,0
39289,-100,4,2,1,65,0,0
40797,-100,4,2,1,55,0,0
46160,-100,4,2,1,65,0,0
46998,-100,4,2,1,75,0,0
47333,-100,4,2,1,65,0,0
48339,-100,4,2,1,75,0,0
48674,-100,4,2,1,65,0,0
51523,-100,4,2,1,75,0,0
51858,-100,4,2,1,65,0,0
52026,-100,4,2,1,75,0,0
52361,-100,4,2,1,65,0,0
52696,-100,4,2,1,75,0,0
53702,-100,4,2,1,65,0,0
54205,-100,4,2,1,85,0,1
75657,-100,4,2,1,75,0,0
75992,-100,4,2,1,65,0,0
76830,-100,4,2,1,75,0,0
76998,-100,4,2,1,65,0,0
77166,-100,4,2,1,75,0,0
77333,-100,4,2,1,65,0,0
78339,-100,4,2,1,75,0,0
78674,-100,4,2,1,65,0,0
81020,-100,4,2,1,75,0,0
81356,-100,4,2,1,65,0,0
82194,-100,4,2,1,75,0,0
82361,-100,4,2,1,65,0,0
82529,-100,4,2,1,75,0,0
82696,-100,4,2,1,65,0,0
85210,-100,4,2,2,65,0,0
85378,-100,4,2,1,65,0,0
89065,-100,4,2,1,5,0,0

[Colours]
Combo1 : 99,214,193
Combo2 : 101,91,213
Combo3 : 155,225,117
Combo4 : 233,221,152

[HitObjects]
158,133,574,6,0,P|148:182|140:231,1,99.9999999999999,4|8,3:2|0:0,0:0:0:0:
60,291,1244,1,0,3:0:0:0:
119,378,1579,1,0,3:0:0:0:
119,378,1747,2,0,P|168:368|217:360,1,99.9999999999999,8|8,0:0|0:0,0:0:0:0:
298,301,2417,1,2,0:0:0:0:
298,301,2585,2,0,P|322:305|347:310,1,50,0|8,3:0|3:2,0:0:0:0:
381,346,2920,1,8,3:2:0:0:
469,298,3255,6,0,P|481:250|464:204,1,99.9999999999999,4|8,3:2|0:0,0:0:0:0:
402,126,3925,1,0,3:0:0:0:
322,185,4261,1,0,3:0:0:0:
322,185,4428,2,0,P|272:175|223:167,1,99.9999999999999,8|2,0:0|0:0,0:0:0:0:
147,231,5099,1,10,0:0:0:0:
147,231,5266,2,0,P|151:255|156:280,2,50,10|10|10,0:0|2:3|2:3,0:0:0:0:
55,190,5937,6,0,P|63:140|72:91,1,99.9999999999999,4|8,3:2|0:0,0:0:0:0:
145,22,6607,1,0,3:0:0:0:
233,80,6942,1,0,3:0:0:0:
233,80,7110,2,0,P|280:92|326:75,1,99.9999999999999,8|8,0:0|0:0,0:0:0:0:
421,38,7780,1,2,0:0:0:0:
421,38,7948,2,0,P|425:62|430:87,1,50,0|8,3:0|0:0,0:0:0:0:
465,122,8283,1,8,0:0:0:0:
418,210,8618,6,0,P|368:200|319:192,1,99.9999999999999,4|8,3:2|0:0,0:0:0:0:
247,123,9289,1,0,3:0:0:0:
158,164,9624,1,0,3:0:0:0:
158,164,9791,2,0,P|140:210|153:257,1,99.9999999999999,8|8,0:0|0:0,0:0:0:0:
198,279,10294,1,8,0:3:0:0:
259,357,10629,2,0,P|283:352|308:347,1,50,8|8,0:0|0:0,0:0:0:0:
353,370,10965,1,0,3:0:0:0:
448,339,11300,6,0,P|456:289|465:240,1,99.9999999999999,4|8,3:2|0:0,0:0:0:0:
502,207,11803,1,2,0:0:0:0:
502,207,11970,1,0,3:0:0:0:
442,133,12305,1,8,0:0:0:0:
442,133,12473,2,0,P|392:142|343:150,1,99.9999999999999,4|2,3:2|0:0,0:0:0:0:
306,125,12976,1,8,0:0:0:0:
306,125,13143,1,0,3:0:0:0:
216,79,13479,1,0,3:0:0:0:
136,141,13814,6,0,P|118:187|131:234,1,99.9999999999999,4|0,0:0|3:0,0:0:0:0:
175,258,14317,1,8,0:0:0:0:
258,203,14652,1,0,3:0:0:0:
356,240,14987,1,8,0:0:0:0:
356,240,15155,2,0,P|373:286|360:333,1,99.9999999999999,4|0,3:0|3:0,0:0:0:0:
323,365,15657,1,8,0:0:0:0:
323,365,15825,1,0,3:0:0:0:
235,329,16160,1,0,3:0:0:0:
235,329,16328,2,0,P|210:333|185:338,1,50,8|10,0:0|0:0,0:0:0:0:
137,349,16663,6,0,B|110:312|134:245|170:275|204:214|157:138,1,200,4|0,3:2|3:0,0:0:0:0:
311,23,18004,1,10,0:0:0:0:
389,84,18339,1,4,3:2:0:0:
389,84,19344,6,0,P|379:133|371:182,2,99.9999999999999,0|0|0,3:0|3:0|3:0,0:0:0:0:
311,23,20350,1,0,3:0:0:0:
311,23,20518,2,0,P|261:32|212:40,1,99.9999999999999,8|8,0:0|0:0,0:0:0:0:
114,20,21188,2,0,P|96:66|109:113,1,99.9999999999999,2|2,0:0|0:0,0:0:0:0:
148,144,21691,1,0,3:0:0:0:
63,197,22026,6,0,P|72:246|80:295,2,99.9999999999999,0|0|0,3:0|3:0|3:0,0:0:0:0:
148,144,23032,1,0,3:0:0:0:
148,144,23199,2,0,P|197:153|246:161,1,99.9999999999999,8|8,0:0|0:0,0:0:0:0:
319,229,23870,1,2,0:0:0:0:
416,196,24205,1,2,0:0:0:0:
416,196,24372,2,0,P|412:172|408:147,1,50,0|2,3:0|0:0,0:0:0:0:
401,96,24708,6,0,P|447:79|494:92,2,99.9999999999999,0|0|0,3:0|3:0|3:0,0:0:0:0:
310,131,25713,1,0,3:0:0:0:
310,131,25881,2,0,P|318:181|327:230,1,99.9999999999999,8|8,0:0|0:0,0:0:0:0:
268,310,26551,2,0,P|218:300|169:292,1,99.9999999999999,2|2,0:0|0:0,0:0:0:0:
124,314,27054,1,0,3:0:0:0:
47,250,27389,6,0,P|29:203|42:156,1,99.9999999999999,0|0,3:0|3:0,0:0:0:0:
107,79,28060,1,0,3:0:0:0:
195,136,28395,1,8,0:0:0:0:
195,136,28562,2,0,P|244:126|293:118,1,99.9999999999999,4|0,3:2|3:0,0:0:0:0:
335,89,29065,1,8,0:0:0:0:
335,89,29233,1,0,3:0:0:0:
433,126,29568,1,0,3:0:0:0:
433,126,29736,2,0,P|428:150|423:175,1,50,8|8,0:0|0:0,0:0:0:0:
405,221,30071,6,0,P|358:203|311:216,1,99.9999999999999,4|8,3:2|0:0,0:0:0:0:
240,287,30741,2,0,P|193:304|146:291,1,99.9999999999999,0|2,3:0|0:0,0:0:0:0:
111,255,31244,2,0,P|102:205|94:156,1,99.9999999999999,8|0,0:0|3:0,0:0:0:0:
127,62,31914,2,0,P|173:44|220:57,1,99.9999999999999,2|0,0:0|3:0,0:0:0:0:
260,87,32417,1,8,0:0:0:0:
198,165,32752,6,0,P|207:214|215:263,1,99.9999999999999,0|8,3:0|0:0,0:0:0:0:
287,340,33423,1,0,3:0:0:0:
287,340,33590,2,0,P|317:335|346:330,1,50,0|2,3:0|0:0,0:0:0:0:
357,286,33925,2,0,P|406:295|455:303,1,99.9999999999999,8|0,0:0|3:0,0:0:0:0:
493,270,34428,1,8,0:0:0:0:
429,192,34763,2,0,P|411:145|424:98,1,99.9999999999999,0|8,3:0|0:0,0:0:0:0:
373,11,35434,6,0,P|323:20|274:28,1,99.9999999999999,4|10,3:2|0:0,0:0:0:0:
242,67,35937,1,0,3:0:0:0:
242,67,36104,2,0,P|192:57|143:49,1,99.9999999999999,0|8,3:0|3:2,0:0:0:0:
102,20,36607,1,0,3:0:0:0:
29,88,36942,1,0,3:0:0:0:
29,88,37110,1,8,0:0:0:0:
113,140,37445,2,0,P|103:189|95:238,1,99.9999999999999,0|8,3:0|0:0,0:0:0:0:
48,326,38115,6,0,P|23:321|-1:316,2,50,8|8|8,0:0|0:0|0:0,0:0:0:0:
140,377,38786,1,0,3:0:0:0:
140,377,38953,1,8,0:0:0:0:
233,340,39289,2,0,P|250:293|237:246,1,99.9999999999999,4|0,3:2|3:0,0:0:0:0:
196,229,39791,1,8,0:0:0:0:
196,229,39959,2,0,P|178:182|191:135,1,99.9999999999999,0|6,3:0|3:0,0:0:0:0:
222,95,40462,1,6,3:0:0:0:
311,140,40797,6,0,P|360:130|409:122,1,99.9999999999999,4|2,3:2|0:0,0:0:0:0:
485,187,41467,1,0,3:0:0:0:
428,269,41803,1,8,0:0:0:0:
331,244,42138,2,0,P|313:290|326:337,1,99.9999999999999,0|2,3:0|0:0,0:0:0:0:
232,373,42808,2,0,P|183:363|134:355,1,99.9999999999999,0|8,3:0|0:0,0:0:0:0:
88,365,43311,1,2,0:0:0:0:
88,365,43479,6,0,P|70:319|83:272,1,99.9999999999999,0|2,3:0|0:0,0:0:0:0:
143,192,44149,1,0,3:0:0:0:
69,124,44484,1,8,0:0:0:0:
136,49,44819,2,0,P|185:59|234:67,1,99.9999999999999,0|2,3:0|0:0,0:0:0:0:
293,148,45490,2,0,P|342:138|391:130,1,99.9999999999999,0|8,3:0|0:0,0:0:0:0:
444,142,45992,1,8,0:0:0:0:
444,142,46160,6,0,P|462:96|449:49,1,99.9999999999999,4|2,3:2|0:0,0:0:0:0:
356,9,46830,2,0,P|331:14|307:19,1,50,0|8,3:0|0:0,0:0:0:0:
270,54,47166,1,8,0:0:0:0:
170,40,47501,2,0,P|180:89|188:138,1,99.9999999999999,0|2,3:0|0:0,0:0:0:0:
270,195,48171,2,0,P|265:220|260:244,1,50,0|8,3:0|0:0,0:0:0:0:
227,282,48506,1,8,0:0:0:0:
148,219,48842,6,0,P|100:205|54:223,1,99.9999999999999,0|0,3:0|3:0,0:0:0:0:
15,252,49344,1,8,0:0:0:0:
15,252,49512,2,0,P|25:301|33:350,1,99.9999999999999,0|0,3:0|3:0,0:0:0:0:
129,376,50182,2,0,P|178:366|227:358,1,99.9999999999999,0|0,3:0|3:0,0:0:0:0:
278,378,50685,1,8,0:0:0:0:
278,378,50853,1,0,3:0:0:0:
351,310,51188,1,0,3:0:0:0:
272,247,51523,6,0,P|258:199|276:153,1,99.9999999999999,8|0,0:0|3:0,0:0:0:0:
306,113,52026,2,0,P|355:121|404:131,1,99.9999999999999,8|8,0:0|3:0,0:0:0:0:
447,166,52529,1,8,0:0:0:0:
447,166,52696,1,12,0:0:0:0:
447,166,54205,6,0,P|397:174|348:184,1,99.9999999999999,4|8,3:2|0:0,0:0:0:0:
304,201,54708,1,2,0:0:0:0:
304,201,54875,2,0,P|286:155|299:107,1,99.9999999999999,0|8,3:0|0:0,0:0:0:0:
333,71,55378,1,2,0:0:0:0:
259,12,55713,1,2,0:0:0:0:
259,12,55881,2,0,P|234:17|210:22,1,50,8|2,0:0|0:0,0:0:0:0:
183,64,56216,2,0,P|134:54|84:45,1,99.9999999999999,0|8,3:0|0:0,0:0:0:0:
24,125,56886,6,0,P|33:173|42:223,1,99.9999999999999,4|8,3:2|0:0,0:0:0:0:
61,275,57389,1,2,0:0:0:0:
61,275,57556,2,0,P|106:292|154:279,1,99.9999999999999,0|8,3:0|0:0,0:0:0:0:
181,237,58060,1,2,0:0:0:0:
260,306,58395,1,2,0:0:0:0:
260,306,58563,2,0,P|285:301|309:296,1,50,8|0,0:0|0:0,0:0:0:0:
340,335,58898,2,0,P|388:325|438:316,1,99.9999999999999,0|8,3:0|0:0,0:0:0:0:
510,247,59568,6,0,P|500:198|491:148,1,99.9999999999999,4|8,3:2|0:0,0:0:0:0:
466,112,60071,1,2,0:0:0:0:
466,112,60238,1,0,3:0:0:0:
385,171,60574,1,8,0:0:0:0:
310,104,60909,2,0,P|262:90|216:108,1,99.9999999999999,0|8,3:0|0:0,0:0:0:0:
184,147,61411,1,2,0:0:0:0:
184,147,61579,1,0,3:0:0:0:
253,218,61914,1,8,0:0:0:0:
189,294,62249,6,0,P|140:284|90:275,1,99.9999999999999,4|8,3:2|0:0,0:0:0:0:
44,280,62752,1,2,0:0:0:0:
44,280,62920,2,0,P|30:232|48:186,1,99.9999999999999,0|8,3:0|0:0,0:0:0:0:
94,166,63423,1,2,0:0:0:0:
34,93,63758,1,2,0:0:0:0:
34,93,63925,2,0,P|39:68|44:44,1,50,8|0,0:0|0:0,0:0:0:0:
84,14,64261,2,0,P|132:23|182:32,1,99.9999999999999,8|8,0:0|0:3,0:0:0:0:
264,88,64931,6,0,P|312:78|362:69,1,99.9999999999999,4|8,3:2|0:0,0:0:0:0:
413,56,65434,1,2,0:0:0:0:
413,56,65601,2,0,P|430:101|417:149,1,99.9999999999999,0|8,3:0|0:0,0:0:0:0:
379,180,66104,1,2,0:0:0:0:
302,242,66439,1,2,0:0:0:0:
302,242,66606,2,0,P|277:237|253:232,1,50,8|2,0:0|0:0,0:0:0:0:
208,208,66942,1,0,3:0:0:0:
259,122,67277,1,8,0:0:0:0:
191,47,67613,6,0,P|142:56|92:65,2,99.9999999999999,4|8|0,3:2|0:0|3:0,0:0:0:0:
259,122,68618,1,8,0:0:0:0:
208,208,68953,2,0,P|162:225|114:212,1,99.9999999999999,4|8,3:2|0:0,0:0:0:0:
80,184,69456,1,2,0:0:0:0:
80,184,69624,1,0,3:0:0:0:
7,252,69959,1,8,0:0:0:0:
58,337,70294,6,0,P|106:327|156:318,1,99.9999999999999,4|8,3:2|0:0,0:0:0:0:
195,349,70797,1,2,0:0:0:0:
289,311,71132,1,2,0:0:0:0:
289,311,71299,2,0,P|284:286|279:262,1,50,8|2,0:0|0:0,0:0:0:0:
236,235,71635,2,0,P|245:186|254:136,1,99.9999999999999,0|8,3:0|0:0,0:0:0:0:
291,44,72305,1,0,3:0:0:0:
371,103,72641,1,8,0:0:0:0:
468,79,72976,6,0,P|485:124|472:172,1,99.9999999999999,12|8,3:2|0:0,0:0:0:0:
412,251,73646,2,0,P|387:245|363:241,1,50,0|0,3:0|3:0,0:0:0:0:
326,207,73981,1,8,0:0:0:0:
230,237,74317,2,0,P|239:285|248:335,1,99.9999999999999,12|8,3:2|0:0,0:0:0:0:
290,370,74819,1,0,3:0:0:0:
290,370,74987,2,0,P|314:364|338:360,1,50,8|8,0:0|0:3,0:0:0:0:
387,373,75322,1,8,0:0:0:0:
471,319,75657,6,0,P|461:270|452:220,1,99.9999999999999,4|8,3:2|0:0,0:0:0:0:
507,137,76328,1,0,3:0:0:0:
445,66,76663,1,0,3:0:0:0:
445,66,76830,2,0,P|398:54|352:71,1,99.9999999999999,8|8,0:0|0:0,0:0:0:0:
292,153,77501,1,2,0:0:0:0:
292,153,77669,2,0,P|267:148|242:143,1,50,0|8,3:0|0:0,0:0:0:0:
209,106,78004,1,8,0:0:0:0:
117,146,78339,6,0,P|126:194|135:244,1,99.9999999999999,4|8,3:2|0:0,0:0:0:0:
60,310,79009,1,0,3:0:0:0:
153,357,79344,1,0,3:0:0:0:
153,357,79512,2,0,P|201:347|251:338,1,99.9999999999999,8|2,0:0|0:0,0:0:0:0:
354,333,80182,1,10,0:0:0:0:
354,333,80350,2,0,P|349:358|344:383,2,50,10|10|10,0:0|2:3|2:3,0:0:0:0:
447,297,81020,6,0,P|437:248|428:198,1,99.9999999999999,4|8,3:2|0:0,0:0:0:0:
493,122,81691,1,0,3:0:0:0:
444,40,82026,1,0,3:0:0:0:
444,40,82194,2,0,P|395:49|345:58,1,99.9999999999999,8|8,0:0|0:0,0:0:0:0:
250,48,82864,1,2,0:0:0:0:
250,48,83032,2,0,P|255:73|260:98,1,50,0|8,3:0|0:0,0:0:0:0:
226,134,83367,1,8,0:0:0:0:
283,215,83702,6,0,P|330:227|376:210,1,99.9999999999999,4|8,3:2|0:0,0:0:0:0:
479,199,84372,1,0,3:0:0:0:
479,199,84540,2,0,P|474:224|469:249,1,50,2|0,0:0|3:0,0:0:0:0:
432,282,84875,1,8,0:0:0:0:
371,362,85210,1,8,0:0:0:0:
371,362,85378,2,0,P|346:357|321:352,1,50,8|8,0:3|0:3,0:0:0:0:
272,356,85713,1,8,0:0:0:0:
233,269,86048,1,0,3:0:0:0:
233,269,86216,1,4,3:2:0:0:
256,192,86300,12,0,89065,0:0:0:0:
