osu file format v14

[General]
AudioFilename: audio.mp3
AudioLeadIn: 0
PreviewTime: 54037
Countdown: 0
SampleSet: Soft
StackLeniency: 0.7
Mode: 0
LetterboxInBreaks: 0
WidescreenStoryboard: 1

[Editor]
DistanceSpacing: 1.3
BeatDivisor: 4
GridSize: 4
TimelineZoom: 1

[Metadata]
Title:My dream girls (TV Size)
TitleUnicode:My dream girls (TV Size)
Artist:NACHERRY
ArtistUnicode:NACHERRY
Creator:Andrea
Version:Hard
Source:魔法少女にあこがれて
Tags:osuplayer111 Momochikun Sekaii Sekai Sekai-nyan Syndicate_ -_Nilou_- Nilou mahou shoujo ni akogarete Gushing over Magical Girls Opening op anime japanese jpop pop j-pop Chiemi Tanaka 田中ちえ美 Natsumi Murakami 村上奈津実 duo まほあこ mahoako I admire
BeatmapID:4444856
BeatmapSetID:2116564

[Difficulty]
HPDrainRate:5
CircleSize:4
OverallDifficulty:6.5
ApproachRate:7.8
SliderMultiplier:1.4
SliderTickRate:1

[Events]
//Background and Video events
0,0,"BG.jpg",0,0
//Break Periods
//Storyboard Layer 0 (Background)
//Storyboard Layer 1 (Fail)
//Storyboard Layer 2 (Pass)
//Storyboard Layer 3 (Foreground)
//Storyboard Layer 4 (Overlay)
//Storyboard Sound Samples

[TimingPoints]
574,335.195530726257,4,2,1,65,1,0
574,-111.111111111111,4,2,1,65,0,0
9791,-111.111111111111,4,2,1,70,0,0
10294,-111.111111111111,4,2,1,50,0,0
10629,-111.111111111111,4,2,1,60,0,0
11300,-100,4,2,1,70,0,0
16663,-125,4,2,1,70,0,0
18255,-125,4,2,1,5,0,0
18339,-200,4,2,1,70,0,0
19177,-200,4,2,1,5,0,0
19344,-111.111111111111,4,2,1,55,0,0
30071,-100,4,2,1,60,0,0
32668,-100,4,2,1,5,0,0
32752,-100,4,2,1,60,0,0
38032,-100,4,2,1,5,0,0
38115,-100,4,2,1,60,0,0
40797,-111.111111111111,4,2,1,50,0,0
46160,-100,4,2,1,60,0,0
46998,-100,4,2,1,62,0,0
47501,-100,4,2,1,60,0,0
48339,-100,4,2,1,64,0,0
48842,-100,4,2,1,60,0,0
51523,-100,4,2,1,70,0,0
52026,-100,4,2,1,65,0,0
53199,-100,4,2,1,60,0,0
53534,-100,4,2,1,65,0,0
53870,-125,4,2,1,65,0,0
54121,-125,4,2,1,5,0,0
54205,-90.9090909090909,4,2,1,80,0,1
59568,-90.9090909090909,4,2,1,80,0,1
62166,-90.9090909090909,4,2,1,5,0,1
62249,-90.9090909090909,4,2,1,80,0,1
64931,-90.9090909090909,4,2,1,80,0,1
70210,-90.9090909090909,4,2,1,5,0,1
70294,-90.9090909090909,4,2,1,80,0,1
72976,-90.9090909090909,4,2,1,85,0,1
75657,-100,4,2,1,70,0,0
80937,-100,4,2,1,5,0,0
81020,-100,4,2,1,70,0,0
86216,-125,4,2,1,70,0,0
87222,-125,4,2,1,50,0,0
88227,-125,4,2,1,30,0,0
89065,-125,4,2,1,5,0,0

[Colours]
Combo1 : 255,255,128
Combo2 : 255,128,255
Combo3 : 85,170,170

[HitObjects]
108,48,574,6,0,P|52:72|32:136,1,125.999996154785,6|8,1:2|0:0,0:0:0:0:
64,204,1076,1,2,3:2:0:0:
64,204,1244,1,2,3:2:0:0:
136,164,1411,2,0,P|172:168|204:176,1,62.9999980773926,2|0,0:2|3:0,0:0:0:0:
232,252,1747,6,0,P|276:208|272:144,1,125.999996154785,10|10,0:2|0:2,0:0:0:0:
388,28,2417,1,2,0:0:0:0:
464,56,2585,1,2,3:2:0:0:
464,56,2752,1,10,0:2:0:0:
428,128,2920,2,0,P|400:168|404:244,1,125.999996154785,10|2,0:0|3:2,0:0:0:0:
272,340,3590,5,8,0:0:0:0:
272,340,3758,1,2,3:2:0:0:
224,272,3925,1,2,3:2:0:0:
156,316,4093,2,0,P|120:312|92:296,1,62.9999980773926,2|0,0:0|3:0,0:0:0:0:
36,244,4428,1,10,0:0:0:0:
124,104,4763,6,0,P|176:80|240:116,1,125.999996154785,2|8,3:2|0:2,0:0:0:0:
252,128,5182,1,8,0:2:0:0:
268,148,5266,2,0,P|260:184|260:220,1,62.9999980773926,10|0,0:2|3:2,0:0:0:0:
316,268,5601,1,2,3:2:0:0:
256,324,5769,5,8,3:3:0:0:
256,324,5853,1,8,3:3:0:0:
256,324,5937,2,0,P|204:360|136:348,1,125.999996154785,6|8,1:2|0:0,0:0:0:0:
76,308,6439,1,2,3:2:0:0:
76,308,6607,1,2,3:2:0:0:
104,232,6775,2,0,P|96:200|80:168,1,62.9999980773926,2|0,0:0|3:0,0:0:0:0:
20,124,7110,6,0,P|64:92|132:112,1,125.999996154785,10|10,0:2|0:2,0:0:0:0:
268,196,7780,1,2,0:0:0:0:
316,128,7948,1,2,3:2:0:0:
316,128,8115,1,10,0:2:0:0:
388,168,8283,2,0,P|408:128|392:52,1,125.999996154785,10|2,0:0|1:2,0:0:0:0:
232,12,8953,5,8,0:0:0:0:
232,12,9121,1,2,3:2:0:0:
172,68,9289,2,0,P|184:100|188:132,2,62.9999980773926,2|2|0,3:2|0:0|3:0,0:0:0:0:
108,116,9791,1,10,0:0:0:0:
200,252,10127,5,8,0:0:0:0:
200,252,10294,2,0,P|236:244|264:240,1,62.9999980773926,8|8,3:0|3:0,0:0:0:0:
324,184,10629,1,8,3:0:0:0:
368,252,10797,1,8,0:0:0:0:
368,252,10965,1,8,0:0:0:0:
448,192,11132,5,8,0:0:0:0:
448,192,11216,1,8,0:0:0:0:
448,192,11300,2,0,P|476:168|492:132,1,70,6|2,3:2|0:0,0:0:0:0:
452,56,11635,1,10,0:0:0:0:
452,56,11803,1,2,0:0:0:0:
360,56,11970,2,0,P|332:80|316:116,1,70,2|0,3:2|3:0,0:0:0:0:
256,176,12305,1,10,0:0:0:0:
195,109,12473,6,0,P|160:68|72:56,1,140,2|2,3:2|3:2,0:0:0:0:
4,108,12976,1,10,0:0:0:0:
28,212,13143,2,0,P|63:253|151:265,1,140,2|2,3:2|3:2,0:0:0:0:
308,184,13814,6,0,P|316:240|344:320,1,140,6|0,3:2|3:2,0:0:0:0:
432,344,14317,2,0,P|464:332|496:316,1,70,10|0,0:0|0:0,0:0:0:0:
500,224,14652,2,0,P|488:192|472:160,1,70,2|0,3:2|3:2,0:0:0:0:
428,80,14987,1,10,0:0:0:0:
376,152,15155,6,0,P|316:168|244:124,1,140,2|2,3:2|3:2,0:0:0:0:
204,56,15657,1,10,0:2:0:0:
136,120,15825,2,0,P|160:164|168:260,1,140,2|2,3:2|3:2,0:0:0:0:
148,340,16328,1,8,0:0:0:0:
52,280,16495,5,0,3:2:0:0:
52,280,16579,1,0,3:2:0:0:
52,280,16663,2,0,P|24:256|12:240,1,56,6|2,3:2|0:2,0:0:0:0:
8,216,16914,1,2,2:2:0:0:
12,192,16998,1,2,2:2:0:0:
40,116,17166,2,0,L|32:76,2,28,2|2|2,2:2|2:2|1:2,0:0:0:0:
116,144,17501,2,0,L|121:171,2,28,2|2|2,2:2|2:2|2:2,0:0:0:0:
172,88,17836,2,0,L|164:48,2,28,2|2|10,2:2|2:2|0:0,0:0:0:0:
200,228,18339,1,6,3:2:0:0:
200,228,19344,6,0,P|204:264|216:292,1,62.9999980773926,6|2,3:2|3:2,0:0:0:0:
280,340,19680,2,0,P|316:296|384:308,1,125.999996154785,2|0,3:2|3:0,0:0:0:0:
452,340,20182,1,2,0:2:0:0:
452,340,20350,1,2,3:2:0:0:
476,260,20518,6,0,P|464:204|428:124,1,125.999996154785,10|10,0:0|0:0,0:0:0:0:
292,64,21188,2,0,P|304:120|340:200,1,125.999996154785,2|2,0:0|0:0,0:0:0:0:
368,256,21691,1,0,3:0:0:0:
240,360,22026,6,0,P|208:356|180:344,1,62.9999980773926,2|2,3:2|0:2,0:0:0:0:
144,272,22361,2,0,P|184:240|180:160,1,125.999996154785,2|0,3:2|3:0,0:0:0:0:
160,92,22864,1,2,0:0:0:0:
160,92,23032,1,2,3:2:0:0:
96,140,23199,6,0,P|56:172|60:252,1,125.999996154785,10|10,0:0|0:0,0:0:0:0:
212,204,23870,2,0,P|264:184|332:160,1,125.999996154785,2|2,0:0|0:0,0:0:0:0:
402,122,24372,1,2,3:2:0:0:
402,122,24540,1,2,0:0:0:0:
408,204,24708,6,0,P|420:236|428:268,1,62.9999980773926,2|2,3:2|3:2,0:0:0:0:
376,328,25043,2,0,P|420:344|492:312,1,125.999996154785,2|0,3:2|3:0,0:0:0:0:
504,232,25546,1,2,0:0:0:0:
504,232,25713,1,2,3:2:0:0:
480,152,25881,6,0,P|476:108|436:28,1,125.999996154785,10|10,0:0|0:0,0:0:0:0:
324,152,26551,2,0,P|280:156|200:196,1,125.999996154785,2|2,0:0|0:0,0:0:0:0:
180,268,27054,1,0,3:0:0:0:
56,160,27389,6,0,P|60:128|60:96,1,62.9999980773926,2|2,3:2|0:2,0:0:0:0:
24,24,27724,2,0,P|88:24|136:60,1,125.999996154785,2|0,3:2|3:0,0:0:0:0:
172,144,28227,1,10,0:0:0:0:
172,144,28311,1,8,0:0:0:0:
172,144,28395,1,10,0:0:0:0:
280,104,28562,6,0,P|268:152|268:240,1,125.999996154785,6|2,3:2|3:2,0:0:0:0:
300,304,29065,1,10,0:0:0:0:
392,248,29233,2,0,P|448:228|456:156,1,125.999996154785,6|0,3:2|3:2,0:0:0:0:
400,112,29736,2,0,L|404:80,3,31.4999990386963,8|8|8|8,0:0|0:0|0:0|0:0,0:0:0:0:
412,36,30071,6,0,P|376:32|336:32,1,70,6|2,3:2|0:0,0:0:0:0:
256,60,30406,2,0,P|288:112|264:184,1,140,10|0,0:0|3:2,0:0:0:0:
220,264,30909,1,2,3:2:0:0:
156,200,31076,1,2,0:0:0:0:
112,280,31244,2,0,P|56:324|-8:308,1,140,10|2,0:0|3:2,0:0:0:0:
52,136,31914,6,0,P|48:100|52:64,1,70,2|0,0:0|3:0,0:0:0:0:
124,12,32249,1,0,3:0:0:0:
180,84,32417,1,8,0:0:0:0:
284,232,32752,6,0,P|280:272|284:304,1,70,2|2,3:2|3:2,0:0:0:0:
364,340,33087,2,0,P|372:288|364:196,1,140,10|0,0:0|3:0,0:0:0:0:
344,112,33590,1,2,3:2:0:0:
436,128,33758,1,2,0:0:0:0:
404,44,33925,2,0,P|336:28|264:60,1,140,10|2,0:0|3:2,0:0:0:0:
208,116,34428,1,10,0:0:0:0:
140,56,34596,2,0,P|120:100|144:188,1,140,2|0,0:0|3:2,0:0:0:0:
212,244,35099,2,0,P|208:280|200:320,1,70,8|0,0:0|0:0,0:0:0:0:
92,360,35434,6,0,P|40:348|4:272,1,140,6|8,3:2|0:0,0:0:0:0:
44,192,35937,1,2,3:2:0:0:
3,109,36104,2,0,P|27:45|92:24,1,140,2|8,3:2|0:0,0:0:0:0:
96,116,36607,6,0,P|128:140|156:160,1,70,2|0,3:2|0:0,0:0:0:0:
228,208,36942,1,2,3:2:0:0:
236,116,37110,2,0,P|260:84|280:56,1,70,10|0,0:2|3:0,0:0:0:0:
364,36,37445,1,2,3:2:0:0:
364,36,37613,1,0,0:0:0:0:
416,108,37780,2,0,P|400:148|416:212,1,105,10|0,0:2|0:0,0:0:0:0:
440,244,38115,5,10,0:0:0:0:
372,304,38283,1,8,0:0:0:0:
300,360,38451,1,8,0:0:0:0:
172,228,38786,1,2,3:2:0:0:
240,168,38953,1,8,0:0:0:0:
240,168,39121,1,0,3:0:0:0:
196,88,39289,6,0,P|148:56|72:80,1,140,4|8,3:2|3:3,0:0:0:0:
32,160,39791,1,8,0:0:0:0:
88,232,39959,2,0,P|88:280|128:360,1,140,4|8,3:3|0:3,0:0:0:0:
156,376,40378,1,8,0:3:0:0:
184,380,40462,1,0,3:2:0:0:
256,324,40629,1,4,0:3:0:0:
196,240,40797,6,0,P|208:196|196:112,1,125.999996154785,2|0,3:2|0:2,0:0:0:0:
256,60,41300,1,2,3:2:0:0:
313,117,41467,2,0,P|302:178|316:240,1,125.999996154785,2|8,3:2|0:0,0:0:0:0:
352,312,41970,1,2,0:0:0:0:
424,272,42138,6,0,P|472:256|500:188,1,125.999996154785,2|0,3:2|3:0,0:0:0:0:
480,112,42641,1,2,3:2:0:0:
480,112,42808,2,0,P|440:120|412:128,1,62.9999980773926,2|0,3:2|3:0,0:0:0:0:
340,148,43143,1,8,0:0:0:0:
340,148,43311,1,2,0:0:0:0:
272,100,43479,6,0,P|248:140|256:216,1,125.999996154785,2|0,3:2|3:2,0:0:0:0:
292,288,43981,1,2,3:2:0:0:
220,324,44149,2,0,P|164:308|96:296,1,125.999996154785,2|8,3:2|0:2,0:0:0:0:
16,280,44652,1,2,3:2:0:0:
68,216,44819,6,0,P|78:153|95:93,1,125.999996154785,2|0,3:2|0:0,0:0:0:0:
116,12,45322,1,2,3:2:0:0:
172,72,45490,2,0,P|204:76|236:80,1,62.9999980773926,2|2,3:2|0:0,0:0:0:0:
316,88,45825,1,8,0:0:0:0:
256,180,45992,5,10,0:2:0:0:
256,180,46076,1,8,0:2:0:0:
256,180,46160,2,0,P|224:228|232:312,1,140,6|0,3:2|0:0,0:0:0:0:
296,372,46663,1,2,3:2:0:0:
340,292,46830,1,2,3:2:0:0:
404,356,46998,1,8,0:2:0:0:
404,356,47166,2,0,P|436:336|460:316,1,70,8|2,0:0|0:0,0:0:0:0:
432,228,47501,6,0,P|480:180|472:108,1,140,2|0,3:2|0:0,0:0:0:0:
416,44,48004,1,2,3:2:0:0:
372,124,48171,1,2,3:2:0:0:
304,64,48339,1,8,0:2:0:0:
304,64,48506,1,8,0:2:0:0:
216,220,48842,6,0,P|164:192|88:212,1,140,6|0,3:2|3:2,0:0:0:0:
36,284,49344,1,10,0:0:0:0:
36,284,49512,2,0,P|40:324|48:356,1,70,2|2,3:2|3:2,0:0:0:0:
136,380,49847,1,2,3:2:0:0:
136,380,50015,1,2,0:2:0:0:
212,332,50182,6,0,P|220:276|168:204,1,140,2|2,3:2|3:2,0:0:0:0:
92,176,50685,1,8,0:0:0:0:
160,112,50853,2,0,P|172:80|172:40,1,70,2|8,3:2|0:3,0:0:0:0:
256,12,51188,1,12,3:3:0:0:
284,128,51356,5,2,0:0:0:0:
284,128,51439,1,2,0:0:0:0:
284,128,51523,2,0,P|336:92|408:104,1,140,6|0,3:2|0:0,0:0:0:0:
432,204,52026,2,0,P|380:240|308:228,1,140,10|0,0:0|3:0,0:0:0:0:
224,196,52529,1,10,0:0:0:0:
112,160,52696,6,0,P|84:204|88:292,1,140,6|2,3:2|0:0,0:0:0:0:
152,356,53199,2,0,P|184:340|216:328,1,70,2|2,0:0|0:0,0:0:0:0:
304,300,53534,1,2,3:2:0:0:
236,240,53702,1,0,3:2:0:0:
236,240,53786,1,0,3:0:0:0:
236,240,53870,2,0,P|216:208|200:160,1,84,8|0,0:0|0:0,0:0:0:0:
192,116,54205,5,6,3:2:0:0:
288,136,54372,1,2,0:0:0:0:
272,36,54540,2,0,P|308:16|344:12,1,77.0000023498536,10|2,0:0|0:0,0:0:0:0:
432,56,54875,2,0,P|408:120|432:212,1,154.000004699707,2|10,3:2|0:0,0:0:0:0:
504,264,55378,6,0,P|500:304|488:344,1,77.0000023498536,2|0,0:2|3:0,0:0:0:0:
392,368,55713,1,2,0:0:0:0:
340,284,55881,2,0,P|302:273|264:269,1,77.0000023498536,10|0,0:2|0:0,0:0:0:0:
188,336,56216,2,0,P|216:292|200:192,1,154.000004699707,2|8,3:2|0:0,0:0:0:0:
136,120,56719,1,0,0:0:0:0:
64,192,56886,6,0,P|56:232|56:272,1,77.0000023498536,2|2,3:2|0:0,0:0:0:0:
116,348,57222,1,10,0:0:0:0:
160,260,57389,1,2,0:0:0:0:
240,320,57557,2,0,P|296:348|380:320,1,154.000004699707,2|10,3:2|0:0,0:0:0:0:
376,220,58060,6,0,P|364:184|352:144,1,77.0000023498536,2|0,0:2|3:0,0:0:0:0:
424,76,58395,1,2,0:0:0:0:
332,40,58562,2,0,P|292:48|260:80,1,77.0000023498536,10|0,0:2|0:0,0:0:0:0:
200,148,58898,2,0,P|240:208|224:288,1,154.000004699707,2|8,3:2|0:0,0:0:0:0:
104,312,59400,5,10,0:0:0:0:
104,312,59484,1,8,0:0:0:0:
104,312,59568,2,0,P|64:252|80:172,1,154.000004699707,6|8,3:2|0:0,0:0:0:0:
144,100,60071,1,2,0:0:0:0:
204,180,60238,1,2,3:2:0:0:
252,92,60406,1,2,3:2:0:0:
252,92,60490,1,2,3:2:0:0:
252,92,60574,2,0,P|292:100|328:112,1,77.0000023498536,10|2,0:0|0:0,0:0:0:0:
372,200,60909,6,0,P|416:156|408:64,1,154.000004699707,2|8,3:2|0:0,0:0:0:0:
324,24,61411,1,2,0:0:0:0:
252,92,61579,1,2,3:2:0:0:
176,156,61747,1,2,3:2:0:0:
176,156,61830,1,2,3:2:0:0:
176,156,61914,2,0,P|152:120|108:64,1,115.50000352478,10|0,0:0|0:0,0:0:0:0:
72,28,62249,5,2,3:2:0:0:
20,116,62417,1,2,0:2:0:0:
92,184,62585,1,10,0:2:0:0:
92,184,62752,1,2,0:0:0:0:
20,256,62920,2,0,P|68:288|176:276,1,154.000004699707,2|10,3:2|0:0,0:0:0:0:
232,216,63423,6,0,P|248:252|252:296,1,77.0000023498536,2|0,0:2|3:0,0:0:0:0:
212,380,63758,1,2,0:0:0:0:
308,356,63925,2,0,P|344:340|388:336,1,77.0000023498536,10|0,0:0|3:0,0:0:0:0:
412,336,64177,1,0,3:0:0:0:
444,336,64261,1,8,0:0:0:0:
492,248,64428,2,0,P|472:212|464:176,1,77.0000023498536,8|8,0:0|3:3,0:0:0:0:
340,116,64763,5,4,0:3:0:0:
340,116,64847,1,4,0:3:0:0:
340,116,64931,2,0,P|360:152|368:188,1,77.0000023498536,6|2,3:2|0:0,0:0:0:0:
324,276,65266,1,10,0:0:0:0:
252,204,65434,1,2,0:0:0:0:
216,296,65601,2,0,P|148:344|80:320,1,154.000004699707,2|10,3:2|0:0,0:0:0:0:
4,264,66104,6,0,P|20:228|24:184,1,77.0000023498536,2|0,0:0|3:0,0:0:0:0:
8,92,66439,1,2,0:0:0:0:
104,120,66607,2,0,P|142:124|177:140,1,77.0000023498536,10|0,0:0|0:0,0:0:0:0:
252,204,66942,2,0,P|236:238|232:276,1,77.0000023498536,2|0,3:2|0:0,0:0:0:0:
332,256,67277,2,0,P|347:221|351:183,1,77.0000023498536,10|0,0:2|0:0,0:0:0:0:
352,48,67613,6,0,P|428:40|500:68,1,154.000004699707,6|10,3:2|0:0,0:0:0:0:
500,168,68115,1,0,3:2:0:0:
372,200,68283,2,0,P|344:271|352:347,1,154.000004699707,6|10,3:2|0:0,0:0:0:0:
436,288,68786,1,0,3:2:0:0:
500,168,68953,6,0,P|488:124|476:88,1,77.0000023498536,6|0,3:2|0:0,0:0:0:0:
408,20,69289,2,0,P|364:32|328:44,1,77.0000023498536,10|0,0:2|0:0,0:0:0:0:
344,140,69624,2,0,P|307:151|270:161,1,77.0000023498536,2|0,3:2|0:0,0:0:0:0:
172,132,69959,2,0,P|184:172|216:240,1,115.50000352478,10|0,0:0|0:0,0:0:0:0:
244,280,70294,6,0,P|200:324|108:320,1,154.000004699707,2|8,3:2|0:2,0:0:0:0:
28,268,70797,2,0,P|52:212|56:120,1,154.000004699707,0|2,3:2|3:2,0:0:0:0:
40,20,71300,1,10,0:2:0:0:
128,68,71467,1,2,0:0:0:0:
216,116,71635,6,0,P|284:96|348:144,1,154.000004699707,0|8,3:2|0:0,0:0:0:0:
268,204,72138,1,2,0:0:0:0:
188,268,72305,2,0,P|184:308|184:348,1,77.0000023498536,2|8,3:2|0:0,0:0:0:0:
280,376,72641,1,8,0:3:0:0:
360,280,72808,5,4,0:3:0:0:
360,280,72892,1,4,0:3:0:0:
360,280,72976,2,0,P|398:279|436:275,1,77.0000023498536,6|0,3:2|3:0,0:0:0:0:
508,204,73311,1,10,0:0:0:0:
452,120,73479,1,0,3:0:0:0:
372,180,73646,6,0,P|333:180|295:184,1,77.0000023498536,10|0,0:0|3:0,0:0:0:0:
236,268,73981,1,10,0:0:0:0:
160,204,74149,1,0,3:0:0:0:
220,124,74317,6,0,P|216:85|215:47,1,77.0000023498536,14|0,0:0|3:0,0:0:0:0:
124,4,74652,1,8,0:0:0:0:
40,56,74819,1,0,3:0:0:0:
120,116,74987,1,10,0:0:0:0:
120,116,75071,1,0,3:2:0:0:
120,116,75155,2,0,L|88:140,2,38.5000011749268,4|4|4,3:0|3:0|3:0,0:0:0:0:
208,64,75490,1,0,3:0:0:0:
224,184,75657,6,0,P|268:232|348:224,1,140,6|8,3:2|0:0,0:0:0:0:
396,160,76160,1,2,3:2:0:0:
396,160,76328,1,2,3:2:0:0:
480,192,76495,2,0,P|492:224|496:264,1,70,2|0,0:2|3:0,0:0:0:0:
428,320,76830,6,0,P|364:324|300:372,1,140,10|8,0:2|0:2,0:0:0:0:
168,248,77501,1,2,3:2:0:0:
240,192,77668,1,2,3:2:0:0:
240,192,77836,1,10,0:0:0:0:
196,112,78004,2,0,P|244:104|324:144,1,140,10|2,0:0|3:2,0:0:0:0:
496,204,78674,5,8,0:0:0:0:
428,144,78842,1,2,3:2:0:0:
428,144,79009,1,2,3:2:0:0:
492,80,79177,2,0,P|508:48|508:12,1,70,2|0,0:2|3:0,0:0:0:0:
416,24,79512,6,0,P|348:32|268:48,1,140,10|2,0:0|3:2,0:0:0:0:
188,64,80015,1,0,3:0:0:0:
248,132,80182,1,8,0:2:0:0:
248,132,80266,1,8,0:2:0:0:
248,132,80350,2,0,L|260:168,2,35,10|0|0,0:2|3:2|3:2,0:0:0:0:
160,160,80685,2,0,P|112:176|56:200,1,105,2|0,3:2|0:0,0:0:0:0:
20,216,81020,6,0,P|16:272|72:328,1,140,6|8,3:2|0:0,0:0:0:0:
148,276,81523,1,2,3:2:0:0:
148,276,81691,1,2,3:2:0:0:
236,304,81858,2,0,P|216:336|212:372,1,70,2|0,0:0|3:0,0:0:0:0:
304,356,82194,6,0,P|324:304|276:228,1,140,10|10,0:0|0:0,0:0:0:0:
176,88,82864,1,2,0:0:0:0:
220,8,83032,1,2,3:2:0:0:
220,8,83199,1,10,0:2:0:0:
288,68,83367,2,0,P|336:104|412:80,1,140,10|2,0:0|3:2,0:0:0:0:
504,240,84037,5,8,0:0:0:0:
420,280,84205,1,2,3:2:0:0:
420,280,84372,1,2,3:2:0:0:
340,236,84540,2,0,P|332:276|336:308,1,70,2|0,0:0|3:0,0:0:0:0:
420,196,84875,6,0,P|428:144|416:52,1,140,10|8,0:0|0:0,0:0:0:0:
332,32,85378,2,0,P|292:32|256:40,1,70,8|8,3:0|3:0,0:0:0:0:
172,56,85713,1,2,3:2:0:0:
232,124,85881,1,8,0:0:0:0:
232,124,86048,1,8,0:0:0:0:
140,192,86216,5,4,3:2:0:0:
256,192,86300,12,0,89065,0:0:0:0:
