osu file format v14

[General]
AudioFilename: audio.mp3
AudioLeadIn: 0
PreviewTime: 54121
Countdown: 0
SampleSet: Soft
StackLeniency: 0.7
Mode: 0
LetterboxInBreaks: 0
WidescreenStoryboard: 1

[Editor]
DistanceSpacing: 1
BeatDivisor: 2
GridSize: 8
TimelineZoom: 1

[Metadata]
Title:My dream girls (TV Size)
TitleUnicode:My dream girls (TV Size)
Artist:NACHERRY
ArtistUnicode:NACHERRY
Creator:pancakespk
Version:Normal
Source:魔法少女にあこがれて
Tags:japanese pop j-pop jpop opening anime mahou shoujo ni akogarete gushing over magical girls chiemi tanaka 田中ちえ美 natsumi murakami 村上奈津実 ナチェリ mahoako まほあこ auriga imaginative
BeatmapID:4444110
BeatmapSetID:2116200

[Difficulty]
HPDrainRate:3
CircleSize:3
OverallDifficulty:4
ApproachRate:5
SliderMultiplier:1
SliderTickRate:1

[Events]
//Background and Video events
0,0,"background.jpg",0,0
//Break Periods
//Storyboard Layer 0 (Background)
//Storyboard Layer 1 (Fail)
//Storyboard Layer 2 (Pass)
//Storyboard Layer 3 (Foreground)
//Storyboard Layer 4 (Overlay)
//Storyboard Sound Samples

[TimingPoints]
574,335.195530726257,4,2,1,60,1,0
2752,-100,4,2,2,60,0,0
3255,-100,4,2,1,60,0,0
5937,-100,4,2,1,65,0,0
8115,-100,4,2,2,65,0,0
8618,-100,4,2,1,65,0,0
10797,-100,4,2,2,65,0,0
11300,-100,4,2,1,75,0,0
16663,-100,4,2,1,60,0,0
19344,-100,4,2,1,45,0,0
30071,-100,4,2,1,60,0,0
38115,-100,4,2,1,65,0,0
40797,-100,4,2,1,45,0,0
46160,-100,4,2,1,65,0,0
46997,-100,4,2,2,65,0,0
47501,-100,4,2,1,65,0,0
48338,-100,4,2,2,65,0,0
48842,-100,4,2,1,65,0,0
54205,-90.9090909090909,4,2,1,80,0,1
60405,-90.9090909090909,4,2,2,80,0,1
60909,-90.9090909090909,4,2,1,80,0,1
61746,-90.9090909090909,4,2,2,80,0,1
62249,-90.9090909090909,4,2,1,80,0,1
75657,-100,4,2,1,65,0,0
77835,-100,4,2,2,65,0,0
78339,-100,4,2,1,65,0,0
81020,-100,4,2,1,70,0,0
83199,-100,4,2,2,70,0,0
83702,-100,4,2,1,70,0,0
85881,-100,4,2,2,70,0,0
86216,-100,4,2,1,70,0,0

[Colours]
Combo1 : 255,236,0
Combo2 : 128,128,255

[HitObjects]
165,359,574,6,0,P|210:380|258:369,1,100,6|8,3:2|2:1,2:0:0:0:
349,323,1244,1,2,3:0:0:0:
349,323,1411,1,2,2:0:0:0:
431,380,1747,1,10,2:1:0:0:
512,321,2082,1,10,2:1:0:0:
484,230,2417,1,2,2:0:0:0:
484,230,2585,2,0,L|501:179,2,50,2|10|10,3:0|2:0|2:0,2:0:0:0:
384,223,3255,6,0,L|360:118,1,100,2|8,3:0|2:1,2:0:0:0:
289,65,3925,1,2,3:0:0:0:
289,65,4093,1,2,2:0:0:0:
365,0,4428,1,10,2:1:0:0:
118,42,5266,2,0,B|80:19|80:19|31:43,1,100,10|10,2:1|2:3,2:0:0:0:
1,139,5937,6,0,L|11:238,1,100,6|8,3:2|2:1,2:0:0:0:
103,289,6607,1,2,3:0:0:0:
103,289,6775,1,2,2:0:0:0:
185,232,7110,1,10,2:1:0:0:
126,150,7445,1,10,2:1:0:0:
204,87,7780,1,2,2:0:0:0:
204,87,7948,2,0,L|192:32,2,50,2|10|10,3:0|2:0|2:0,2:0:0:0:
286,142,8618,6,0,P|332:161|377:144,1,100,2|8,3:0|2:1,2:0:0:0:
462,89,9289,1,2,3:0:0:0:
462,89,9456,1,2,2:0:0:0:
509,177,9791,1,10,2:1:0:0:
389,267,10294,2,0,L|290:251,1,100,10|10,2:3|2:1,2:0:0:0:
252,282,10797,1,8,2:0:0:0:
252,282,10965,1,8,2:0:0:0:
159,320,11300,6,0,L|109:314,1,50,6|2,3:2|2:0,2:0:0:0:
66,288,11635,2,0,L|79:239,1,50,10|2,2:0|2:0,2:0:0:0:
55,196,11970,1,2,3:0:0:0:
111,114,12305,1,10,2:0:0:0:
111,114,12473,2,0,B|154:106|154:106|171:88|171:88|202:82,1,100,2|2,3:0|3:0,2:0:0:0:
247,114,12976,1,10,2:0:0:0:
247,114,13143,1,2,3:0:0:0:
201,203,13479,1,2,3:0:0:0:
272,273,13814,6,0,L|372:259,1,100,2|0,3:0|3:0,2:0:0:0:
414,284,14317,1,10,2:0:0:0:
497,228,14652,2,0,B|514:177|514:177|486:134,1,100,2|10,3:0|2:0,2:0:0:0:
447,110,15155,1,2,3:0:0:0:
349,131,15490,2,0,L|339:193,1,50,2|10,3:0|2:0,2:0:0:0:
299,208,15825,2,0,L|200:189,1,100,2|2,3:0|3:0,2:0:0:0:
171,148,16328,1,10,2:0:0:0:
84,198,16663,6,0,P|50:287|104:367,2,200,6|6|2,3:2|3:2|3:0,2:0:0:0:
171,148,18339,1,6,3:2:0:0:
470,155,19344,6,0,L|370:146,1,100,2|2,3:0|3:0,2:0:0:0:
250,233,20182,2,0,L|189:229,1,50,2|2,2:0|3:0,2:0:0:0:
153,211,20518,1,10,2:1:0:0:
198,122,20853,1,10,2:1:0:0:
139,43,21188,2,0,P|175:4|223:0,1,100,2|2,2:0|2:0,2:0:0:0:
366,28,22026,6,0,L|383:146,1,100,2|2,3:0|3:0,2:0:0:0:
488,230,22864,2,0,L|472:319,1,50,2|2,2:0|3:0,2:0:0:0:
471,328,23199,1,10,2:1:0:0:
374,352,23534,1,10,2:1:0:0:
303,281,23870,2,0,L|319:180,1,100,2|2,2:0|2:0,2:0:0:0:
343,139,24372,1,2,3:0:0:0:
293,51,24708,6,0,P|260:24|201:32,1,100,2|2,3:0|3:0,2:0:0:0:
117,150,25546,2,0,L|127:208,1,50,2|2,2:0|3:0,2:0:0:0:
136,248,25881,1,10,2:1:0:0:
234,266,26216,1,10,2:1:0:0:
299,190,26551,2,0,L|277:69,1,100,2|2,2:0|2:0,2:0:0:0:
146,26,27389,6,0,P|98:14|58:41,1,100,2|2,3:0|3:0,2:0:0:0:
83,190,28227,2,0,L|73:249,1,50,10|10,2:0|2:0,2:0:0:0:
85,289,28562,2,0,P|135:317|182:296,1,100,6|2,3:2|3:0,2:0:0:0:
209,270,29065,1,10,2:0:0:0:
209,270,29233,2,0,L|238:107,1,150,2|8,3:0|2:0,2:0:0:0:
299,45,30071,6,0,L|353:35,1,50,6|2,3:2|2:0,2:0:0:0:
396,49,30406,2,0,B|436:90|436:90|403:206,1,150,10|2,2:0|3:0,2:0:0:0:
392,278,31244,2,0,P|347:258|289:301,1,100,10|2,2:0|3:0,2:0:0:0:
257,365,31914,2,0,P|212:385|154:341,1,100,2|2,2:0|3:0,2:0:0:0:
131,331,32417,1,8,2:0:0:0:
171,239,32752,6,0,L|179:173,1,50,2|2,3:0|2:0,2:0:0:0:
213,155,33087,2,0,B|298:149|270:205|356:198,1,150,10|2,2:0|3:0,2:0:0:0:
449,176,33925,2,0,L|466:45,1,100,10|2,2:0|3:0,2:0:0:0:
441,38,34428,1,10,2:0:0:0:
441,38,34596,2,0,B|387:7|387:7|303:34,1,150,2|8,2:0|2:0,2:0:0:0:
248,118,35434,6,0,L|264:230,1,100,6|8,3:2|2:0,2:0:0:0:
235,260,35937,1,2,3:0:0:0:
235,260,36104,2,0,P|166:251|132:272,1,100,2|8,3:0|2:0,2:0:0:0:
109,302,36607,1,2,3:0:0:0:
18,274,36942,1,2,3:0:0:0:
18,274,37110,2,0,L|-1:372,2,100,10|2|10,2:0|3:0|2:0,2:0:0:0:
93,208,38115,6,0,L|84:140,1,50,10|8,2:0|2:0,2:0:0:0:
110,114,38451,2,0,L|218:96,1,100,8|2,2:0|3:0,2:0:0:0:
253,119,38953,1,10,2:0:0:0:
326,50,39289,2,0,P|386:66|417:39,1,100,2|2,3:0|3:0,2:0:0:0:
459,75,39791,1,10,2:0:0:0:
459,75,39959,2,0,L|439:196,1,100,2|8,3:0|2:3,2:0:0:0:
452,223,40462,1,8,2:3:0:0:
360,263,40797,6,0,B|329:241|329:241|272:267,1,100,2|0,3:0|2:0,2:0:0:0:
227,262,41300,1,2,3:0:0:0:
227,262,41467,2,0,P|203:210|236:169,1,100,2|8,3:0|2:1,2:0:0:0:
177,87,42138,2,0,B|146:65|146:65|89:91,1,100,2|0,3:0|2:0,2:0:0:0:
51,122,42641,1,2,3:0:0:0:
51,122,42808,2,0,L|33:235,1,100,2|8,3:0|2:1,2:0:0:0:
84,308,43479,6,0,P|139:335|178:319,1,100,2|0,3:0|2:0,2:0:0:0:
205,286,43981,1,2,3:0:0:0:
205,286,44149,2,0,L|316:264,1,100,2|8,3:0|2:1,2:0:0:0:
395,305,44819,2,0,B|419:269|419:269|391:195,1,100,2|0,3:0|2:0,2:0:0:0:
417,172,45322,1,2,3:0:0:0:
417,172,45490,1,2,3:0:0:0:
353,94,45825,1,8,2:1:0:0:
256,119,46160,6,0,P|227:165|256:208,1,100,6|0,3:2|2:0,2:0:0:0:
249,255,46663,1,2,3:0:0:0:
249,255,46830,2,0,L|263:312,2,50,2|8|8,3:0|2:0|2:0,2:0:0:0:
151,232,47501,2,0,P|102:260|46:242,1,100,2|0,3:0|2:0,2:0:0:0:
15,259,48004,1,2,3:0:0:0:
15,259,48171,2,0,L|29:329,2,50,2|8|8,3:0|2:0|2:0,2:0:0:0:
34,160,48842,6,0,L|47:53,1,100,6|0,3:2|3:0,2:0:0:0:
85,29,49344,1,10,2:0:0:0:
85,29,49512,1,2,3:0:0:0:
167,85,49847,1,2,3:0:0:0:
261,51,50182,2,0,L|276:150,1,100,2|2,3:0|3:0,2:0:0:0:
341,225,50853,1,2,3:0:0:0:
291,311,51188,1,2,3:0:0:0:
372,370,51523,6,0,B|434:357|434:357|454:333|454:333|508:323,2,150,14|10|10,2:0|2:0|2:0,2:0:0:0:
326,349,52696,2,0,P|302:285|319:259,1,100,6|2,3:2|2:0,2:0:0:0:
347,223,53199,1,2,2:0:0:0:
421,156,53534,2,0,L|406:52,1,100,2|4,2:0|2:3,2:0:0:0:
309,4,54205,6,0,L|243:13,1,55.0000016784668,6|2,3:2|2:0,2:0:0:0:
233,62,54540,2,0,L|243:121,1,55.0000016784668,10|2,2:0|2:0,2:0:0:0:
214,163,54875,1,2,3:0:0:0:
111,142,55210,1,10,2:0:0:0:
111,142,55378,2,0,P|88:205|112:251,1,110.000003356934,2|2,2:0|2:0,2:0:0:0:
143,279,55881,1,10,2:0:0:0:
249,253,56216,2,0,L|358:274,1,110.000003356934,2|8,3:0|2:0,2:0:0:0:
457,229,56886,6,0,L|468:170,1,55.0000016784668,2|2,3:2|2:0,2:0:0:0:
445,123,57222,2,0,L|371:135,1,55.0000016784668,10|2,2:0|2:0,2:0:0:0:
339,111,57557,1,2,3:0:0:0:
285,21,57892,1,10,2:0:0:0:
285,21,58060,2,0,P|228:43|174:20,1,110.000003356934,2|2,2:0|2:0,2:0:0:0:
134,4,58562,1,10,2:0:0:0:
49,74,58898,2,0,L|61:191,1,110.000003356934,2|8,3:0|2:0,2:0:0:0:
49,240,59400,1,10,2:0:0:0:
49,240,59568,6,0,P|100:266|153:244,1,110.000003356934,2|8,3:0|2:0,2:0:0:0:
180,207,60071,1,2,2:0:0:0:
180,207,60238,2,0,L|171:137,1,55.0000016784668,2|10,3:0|2:0,2:0:0:0:
207,109,60574,1,10,2:0:0:0:
310,148,60909,2,0,L|424:129,1,110.000003356934,2|8,3:0|2:0,2:0:0:0:
463,170,61411,1,2,2:0:0:0:
463,170,61579,2,0,L|451:229,1,55.0000016784668,2|10,3:0|2:0,2:0:0:0:
481,270,61914,1,10,2:0:0:0:
392,335,62249,6,0,L|320:348,1,55.0000016784668,2|2,3:0|2:0,2:0:0:0:
301,303,62585,2,0,L|313:247,1,55.0000016784668,10|2,2:0|2:0,2:0:0:0:
278,205,62920,1,2,3:0:0:0:
177,174,63255,1,10,2:0:0:0:
177,174,63423,2,0,B|134:196|134:196|73:173,1,110.000003356934,2|2,2:0|2:0,2:0:0:0:
24,192,63925,1,10,2:0:0:0:
45,300,64261,2,0,L|34:358,2,55.0000016784668,10|8|8,2:0|2:3|2:3,2:0:0:0:
153,282,64931,6,0,L|208:297,1,55.0000016784668,6|2,3:2|2:0,2:0:0:0:
252,267,65266,2,0,L|241:203,1,55.0000016784668,10|2,2:0|2:0,2:0:0:0:
274,167,65601,1,2,3:0:0:0:
177,125,65937,1,10,2:0:0:0:
177,125,66104,2,0,P|153:67|186:24,1,110.000003356934,2|2,2:0|2:0,2:0:0:0:
224,4,66607,1,10,2:0:0:0:
319,59,66942,1,2,3:0:0:0:
417,9,67277,1,10,2:0:0:0:
508,70,67613,6,0,L|492:183,1,110.000003356934,6|10,3:2|2:0,2:0:0:0:
511,287,68283,2,0,L|435:307,1,55.0000016784668,6|0,3:2|2:0,2:0:0:0:
403,294,68618,1,10,2:0:0:0:
338,383,68953,1,6,3:2:0:0:
257,308,69289,2,0,L|266:249,1,55.0000016784668,10|0,2:0|2:0,2:0:0:0:
305,215,69624,2,0,P|332:162|314:118,1,110.000003356934,2|10,3:0|2:0,2:0:0:0:
262,22,70294,6,0,B|295:-4|295:-4|370:21,2,110.000003356934,6|8|0,3:2|2:0|3:0,2:0:0:0:
211,31,71132,1,2,2:0:0:0:
211,31,71300,1,10,2:0:0:0:
127,103,71635,2,0,P|141:154|118:202,1,110.000003356934,2|8,3:0|2:0,2:0:0:0:
90,252,72138,1,0,2:0:0:0:
90,252,72305,2,0,P|75:303|98:351,1,110.000003356934,2|10,3:0|2:3,2:0:0:0:
193,294,72976,5,14,2:0:0:0:
272,371,73311,1,10,2:0:0:0:
365,313,73646,2,0,L|374:251,1,55.0000016784668,10|0,2:0|3:0,2:0:0:0:
348,210,73981,2,0,L|289:200,1,55.0000016784668,10|0,2:0|3:0,2:0:0:0:
256,160,74317,2,0,B|239:113|239:113|260:53,1,110.000003356934,10|8,2:0|2:0,2:0:0:0:
311,35,74819,1,0,3:0:0:0:
311,35,74987,2,0,L|422:51,1,110.000003356934,10|8,2:0|2:3,2:0:0:0:
490,122,75657,6,0,P|466:176|494:225,1,100,6|8,3:2|2:1,2:0:0:0:
451,310,76328,1,2,3:0:0:0:
451,310,76495,1,2,2:0:0:0:
359,270,76830,1,10,2:1:0:0:
293,345,77166,1,10,2:1:0:0:
201,319,77501,1,2,2:0:0:0:
201,319,77668,2,0,L|189:372,2,50,2|10|10,3:0|2:0|2:0,2:0:0:0:
164,225,78339,6,0,B|139:191|139:191|165:132,1,100,2|8,3:0|2:1,2:0:0:0:
143,45,79009,1,2,3:0:0:0:
143,45,79177,1,2,2:0:0:0:
44,62,79512,1,10,2:1:0:0:
293,37,80350,2,0,L|310:139,1,100,10|10,2:1|2:3,2:0:0:0:
334,234,81020,6,0,P|287:221|245:245,1,100,6|8,3:2|2:1,2:0:0:0:
173,315,81691,1,2,3:0:0:0:
173,315,81858,1,2,2:0:0:0:
83,271,82194,1,10,2:1:0:0:
141,189,82529,1,10,2:1:0:0:
72,126,82864,1,2,2:0:0:0:
72,126,83032,2,0,L|18:136,2,50,2|10|10,3:0|2:0|2:0,2:0:0:0:
124,41,83702,6,0,P|169:23|215:41,1,100,2|8,3:0|2:1,2:0:0:0:
274,128,84372,1,2,3:0:0:0:
274,128,84539,1,2,2:0:0:0:
203,199,84875,2,0,L|221:315,1,100,10|8,2:1|2:1,2:0:0:0:
249,337,85378,1,10,2:3:0:0:
340,293,85713,1,10,2:1:0:0:
340,293,85881,2,0,L|390:305,1,50,8|8,2:0|2:0,2:0:0:0:
435,287,86216,5,4,3:2:0:0:
256,192,86384,12,0,89065,2:0:0:0:
