osu file format v14

[General]
AudioFilename: audio.mp3
AudioLeadIn: 0
PreviewTime: 41589
Countdown: 0
SampleSet: Normal
StackLeniency: 0.7
Mode: 1
LetterboxInBreaks: 0
WidescreenStoryboard: 1

[Editor]
Bookmarks: 19506,42187,63521,68839,96839,118173
DistanceSpacing: 0.5
BeatDivisor: 4
GridSize: 32
TimelineZoom: 1.8

[Metadata]
Title:Eclipse
TitleUnicode:エクリプス
Artist:NACHERRY
ArtistUnicode:NACHERRY
Creator:_gt
Version:Muzukashii
Source:4人はそれぞれウソをつく
Tags:anime japanese jrock j-rock jpop j-pop rock pop opening op 4-nin 4nin yonin wa sorezore uso wo tsuku four people and their respective lies the little we all tell ナチェリ 田中ちえ美 tanaka chiemi 村上奈津実 murakami natsumi
BeatmapID:3906634
BeatmapSetID:1895626

[Difficulty]
HPDrainRate:6
CircleSize:5
OverallDifficulty:5
ApproachRate:5
SliderMultiplier:1.4
SliderTickRate:1

[Events]
//Background and Video events
0,0,"FfhAvqpaYAIW-RL.jpg",0,-110
//Break Periods
//Storyboard Layer 0 (Background)
//Storyboard Layer 1 (Fail)
//Storyboard Layer 2 (Pass)
//Storyboard Layer 3 (Foreground)
//Storyboard Layer 4 (Overlay)
//Storyboard Sound Samples

[TimingPoints]
840,333.333333333333,4,1,0,40,1,8
840,-100,4,1,0,40,0,8
2173,-142.857142857143,4,1,0,70,0,8
3506,333.333333333333,4,1,0,80,1,0
3506,-100,4,1,0,80,0,0
5839,-95.2380952380952,4,1,0,80,0,0
9005,-100,4,1,0,80,0,0
19505,-100,4,1,0,70,0,0
19839,-100,4,1,0,70,0,0
30339,-105.263157894737,4,1,0,70,0,0
38172,-100,4,1,0,70,0,0
42172,-90.9090909090909,4,1,0,90,0,8
42173,333.333333333333,4,1,0,90,1,9
42173,-90.9090909090909,4,1,0,90,0,9
44339,-93.4579439252336,4,1,0,90,0,9
44506,-90.9090909090909,4,1,0,90,0,9
44673,-93.4579439252336,4,1,0,90,0,9
44839,-90.9090909090909,4,1,0,90,0,9
46339,-93.4579439252336,4,1,0,90,0,9
46672,-90.9090909090909,4,1,0,90,0,9
46839,-93.4579439252336,4,1,0,90,0,9
47172,-90.9090909090909,4,1,0,90,0,9
47839,-100,4,1,0,90,0,9
50172,-95.2380952380952,4,1,0,90,0,9
52837,-90.9090909090909,4,1,0,90,0,9
55003,-93.4579439252336,4,1,0,90,0,9
55170,-90.9090909090909,4,1,0,90,0,9
55337,-93.4579439252336,4,1,0,90,0,9
55503,-90.9090909090909,4,1,0,90,0,9
57003,-93.4579439252336,4,1,0,90,0,9
57336,-90.9090909090909,4,1,0,90,0,9
57503,-93.4579439252336,4,1,0,90,0,9
57836,-90.9090909090909,4,1,0,90,0,9
58506,-95.2380952380952,4,1,0,90,0,9
63506,-95.2380952380952,4,1,0,90,0,8
63672,-95.2380952380952,4,1,0,80,0,8
68839,-95.2380952380952,4,1,0,70,0,8
69172,-100,4,1,0,70,0,8
80006,-111.111111111111,4,1,0,70,0,8
84839,-105.263157894737,4,1,0,70,0,8
92839,-100,4,1,0,70,0,0
96839,333.333333333333,4,1,0,90,1,1
96839,-90.9090909090909,4,1,0,90,0,9
99003,-93.4579439252336,4,1,0,90,0,9
99170,-90.9090909090909,4,1,0,90,0,9
99337,-93.4579439252336,4,1,0,90,0,9
99503,-90.9090909090909,4,1,0,90,0,9
101003,-93.4579439252336,4,1,0,90,0,9
101336,-90.9090909090909,4,1,0,90,0,9
101503,-93.4579439252336,4,1,0,90,0,9
101836,-90.9090909090909,4,1,0,90,0,9
102503,-100,4,1,0,90,0,9
104836,-95.2380952380952,4,1,0,90,0,9
107503,-90.9090909090909,4,1,0,90,0,9
109667,-93.4579439252336,4,1,0,90,0,9
109834,-90.9090909090909,4,1,0,90,0,9
110001,-93.4579439252336,4,1,0,90,0,9
110167,-90.9090909090909,4,1,0,90,0,9
111672,-93.4579439252336,4,1,0,90,0,9
111974,-90.9090909090909,4,1,0,90,0,9
112172,-93.4579439252336,4,1,0,90,0,9
112474,-90.9090909090909,4,1,0,90,0,9
113170,-95.2380952380952,4,1,0,90,0,9
118172,-95.2380952380952,4,1,0,90,0,8
118338,-95.2380952380952,4,1,0,80,0,8
118505,-100,4,1,0,80,0,8
126172,-95.2380952380952,4,1,0,80,0,0
129005,-95.2380952380952,4,1,0,70,0,0
129505,-105.263157894737,4,1,0,70,0,0
151506,333.333333333333,4,1,0,50,1,8
151839,-90.9090909090909,4,1,0,80,0,8
157172,-90.9090909090909,4,1,0,90,0,9
157672,-100,4,1,0,90,0,9
159506,-95.2380952380952,4,1,0,90,0,9
162172,-90.9090909090909,4,1,0,100,0,9
167505,-90.9090909090909,4,1,0,90,0,9
167839,-95.2380952380952,4,1,0,90,0,9
172839,-90.9090909090909,4,1,0,100,0,9
178172,-90.9090909090909,4,1,0,90,0,9
178506,-95.2380952380952,4,1,0,90,0,9
183505,-100,4,1,0,40,0,8
184839,-100,4,1,0,70,0,8
186172,-95.2380952380952,4,1,0,80,0,8
186173,333.333333333333,4,1,0,80,1,8
186173,-95.2380952380952,4,1,0,80,0,8
191506,-95.2380952380952,4,1,0,80,0,0
194672,-100,4,1,0,80,0,0

[HitObjects]
256,192,2173,12,0,3173,0:0:0:0:
18,189,3506,5,8,0:0:0:0:
18,189,3672,1,0,0:0:0:0:
18,189,3755,1,0,0:0:0:0:
18,189,3839,1,0,0:0:0:0:
18,189,4005,1,8,0:0:0:0:
18,189,4172,1,0,0:0:0:0:
18,189,4255,1,0,0:0:0:0:
18,189,4339,1,0,0:0:0:0:
18,189,4505,1,8,0:0:0:0:
18,189,4672,1,0,0:0:0:0:
18,189,4839,1,8,0:0:0:0:
112,171,5172,1,8,0:0:0:0:
112,171,5505,1,0,0:0:0:0:
112,171,5589,1,0,0:0:0:0:
112,171,5672,1,0,0:0:0:0:
112,171,5839,1,12,0:0:0:0:
112,171,6172,1,12,0:0:0:0:
153,165,6672,1,4,0:0:0:0:
201,125,7172,1,12,0:0:0:0:
193,127,7672,1,4,0:0:0:0:
219,114,8172,1,8,0:0:0:0:
219,114,8505,1,0,0:0:0:0:
151,170,8839,1,12,0:0:0:0:
200,165,9172,1,0,0:0:0:0:
200,165,9339,1,0,0:0:0:0:
200,165,9672,1,0,0:0:0:0:
200,165,9839,1,0,0:0:0:0:
200,165,10172,1,0,0:0:0:0:
200,165,10339,1,8,0:0:0:0:
77,151,10672,1,0,0:0:0:0:
92,153,10839,1,8,0:0:0:0:
92,153,11005,1,8,0:0:0:0:
40,159,11339,1,0,0:0:0:0:
188,159,11505,5,12,0:0:0:0:
39,174,11839,1,8,0:0:0:0:
39,174,12172,1,8,0:0:0:0:
39,174,12339,1,0,0:0:0:0:
188,159,12672,1,12,0:0:0:0:
39,174,13005,1,0,0:0:0:0:
39,174,13172,1,8,0:0:0:0:
39,174,13339,1,0,0:0:0:0:
39,174,13422,1,0,0:0:0:0:
39,174,13505,1,0,0:0:0:0:
39,174,13672,1,0,0:0:0:0:
39,174,13839,1,8,0:0:0:0:
156,154,14172,5,12,0:0:0:0:
39,174,14505,1,0,0:0:0:0:
39,174,14672,1,8,0:0:0:0:
39,174,15005,1,0,0:0:0:0:
39,174,15172,1,8,0:0:0:0:
39,174,15505,1,0,0:0:0:0:
39,174,15672,1,8,0:0:0:0:
39,174,16005,1,0,0:0:0:0:
39,174,16172,1,8,0:0:0:0:
39,174,16339,1,0,0:0:0:0:
39,174,16839,1,0,0:0:0:0:
39,174,17005,1,8,0:0:0:0:
39,174,17172,1,8,0:0:0:0:
39,174,17339,1,0,0:0:0:0:
39,174,17505,1,8,0:0:0:0:
39,174,17672,1,0,0:0:0:0:
174,151,18005,1,12,0:0:0:0:
104,119,18339,1,0,0:0:0:0:
104,119,18505,1,0,0:0:0:0:
104,119,18672,1,8,0:0:0:0:
104,119,18839,1,0,0:0:0:0:
104,119,19005,1,8,0:0:0:0:
104,119,19089,1,8,0:0:0:0:
104,119,19172,1,8,0:0:0:0:
104,119,19339,1,0,0:0:0:0:
174,152,19505,1,12,0:0:0:0:
110,116,20005,1,0,0:0:0:0:
110,116,20172,1,8,0:0:0:0:
110,116,20339,1,0,0:0:0:0:
110,116,20505,1,8,0:0:0:0:
110,116,20672,1,8,0:0:0:0:
110,116,20839,1,0,0:0:0:0:
110,116,21172,1,8,0:0:0:0:
110,116,21339,1,0,0:0:0:0:
110,116,21672,1,8,0:0:0:0:
110,116,22005,1,8,0:0:0:0:
110,116,22339,1,0,0:0:0:0:
110,116,22505,1,8,0:0:0:0:
110,116,22672,1,0,0:0:0:0:
110,116,22839,1,8,0:0:0:0:
110,116,23005,1,8,0:0:0:0:
110,116,23172,1,0,0:0:0:0:
110,116,23339,1,0,0:0:0:0:
110,116,23505,1,8,0:0:0:0:
110,116,23839,1,0,0:0:0:0:
110,116,24005,1,8,0:0:0:0:
154,103,24505,1,0,0:0:0:0:
154,103,24672,1,0,0:0:0:0:
173,150,24839,5,12,0:0:0:0:
242,124,25172,1,0,0:0:0:0:
242,124,25339,1,8,0:0:0:0:
242,124,25672,1,0,0:0:0:0:
242,124,25839,1,8,0:0:0:0:
242,124,26005,1,0,0:0:0:0:
242,124,26172,1,0,0:0:0:0:
242,124,26339,1,8,0:0:0:0:
242,124,26672,1,0,0:0:0:0:
242,121,27172,1,8,0:0:0:0:
242,121,27339,1,0,0:0:0:0:
242,121,27505,1,8,0:0:0:0:
260,123,27672,1,8,0:0:0:0:
260,123,27839,1,0,0:0:0:0:
260,123,28005,1,0,0:0:0:0:
260,123,28172,1,8,0:0:0:0:
260,123,28339,1,0,0:0:0:0:
260,123,28505,1,8,0:0:0:0:
259,122,28839,1,8,0:0:0:0:
262,121,29005,1,0,0:0:0:0:
262,121,29172,1,0,0:0:0:0:
262,121,29339,1,8,0:0:0:0:
262,121,29505,1,0,0:0:0:0:
262,121,29672,1,0,0:0:0:0:
262,121,29839,1,8,0:0:0:0:
277,137,30172,5,12,0:0:0:0:
324,146,30505,1,0,0:0:0:0:
324,146,30839,1,8,0:0:0:0:
324,146,31172,1,0,0:0:0:0:
324,146,31505,1,8,0:0:0:0:
324,146,31839,1,0,0:0:0:0:
324,146,32005,1,8,0:0:0:0:
324,146,32505,1,0,0:0:0:0:
324,146,32839,1,8,0:0:0:0:
324,146,33172,1,8,0:0:0:0:
324,146,33339,1,0,0:0:0:0:
324,146,33672,1,0,0:0:0:0:
324,146,34005,1,8,0:0:0:0:
324,146,34505,1,8,0:0:0:0:
324,146,34839,1,0,0:0:0:0:
324,146,35005,1,0,0:0:0:0:
166,120,35172,5,12,0:0:0:0:
166,120,35505,1,12,0:0:0:0:
386,144,35839,1,0,0:0:0:0:
386,144,36005,1,8,0:0:0:0:
386,144,36339,1,0,0:0:0:0:
386,144,36672,1,8,0:0:0:0:
386,144,37172,1,8,0:0:0:0:
386,144,37505,1,0,0:0:0:0:
166,120,38172,1,12,0:0:0:0:
111,200,38505,1,0,0:0:0:0:
111,200,38839,1,0,0:0:0:0:
111,200,39005,1,0,0:0:0:0:
166,120,39172,1,12,0:0:0:0:
166,120,39505,1,12,0:0:0:0:
111,200,39839,1,0,0:0:0:0:
166,120,40005,1,12,0:0:0:0:
111,200,40339,1,0,0:0:0:0:
166,120,40505,1,12,0:0:0:0:
116,162,41839,1,0,0:0:0:0:
157,160,42173,1,12,0:0:0:0:
157,160,42506,1,12,0:0:0:0:
172,137,42839,1,12,0:0:0:0:
172,137,43173,1,12,0:0:0:0:
172,137,43506,1,12,0:0:0:0:
172,137,43839,1,12,0:0:0:0:
172,137,44173,1,12,0:0:0:0:
171,168,44339,1,0,0:0:0:0:
168,117,44506,1,12,0:0:0:0:
171,168,44673,1,0,0:0:0:0:
168,117,44839,1,12,0:0:0:0:
168,117,45173,1,12,0:0:0:0:
168,117,45506,1,12,0:0:0:0:
168,117,45839,1,12,0:0:0:0:
168,117,46172,1,12,0:0:0:0:
165,167,46339,1,0,0:0:0:0:
171,168,46506,1,0,0:0:0:0:
168,117,46672,1,12,0:0:0:0:
165,167,46839,1,0,0:0:0:0:
171,168,47006,1,0,0:0:0:0:
168,117,47172,1,12,0:0:0:0:
146,116,47506,1,12,0:0:0:0:
155,151,48006,1,8,0:0:0:0:
155,151,48172,1,8,0:0:0:0:
155,151,48506,1,8,0:0:0:0:
151,202,48839,1,0,0:0:0:0:
163,104,49339,1,8,0:0:0:0:
163,104,49506,1,8,0:0:0:0:
151,202,49839,1,0,0:0:0:0:
152,110,50172,1,12,0:0:0:0:
218,175,50506,1,8,0:0:0:0:
218,175,50672,1,8,0:0:0:0:
218,175,51006,1,0,0:0:0:0:
144,185,51339,1,12,0:0:0:0:
218,175,51672,1,0,0:0:0:0:
149,224,51839,1,0,0:0:0:0:
160,128,52006,1,8,0:0:0:0:
160,128,52172,1,0,0:0:0:0:
160,128,52256,1,0,0:0:0:0:
218,175,52339,1,0,0:0:0:0:
160,128,52506,1,8,0:0:0:0:
160,128,52672,1,0,0:0:0:0:
148,184,52839,1,12,0:0:0:0:
148,184,53172,1,12,0:0:0:0:
148,184,53506,1,12,0:0:0:0:
148,184,53839,1,12,0:0:0:0:
148,184,54172,1,12,0:0:0:0:
148,184,54506,1,12,0:0:0:0:
148,184,54839,1,12,0:0:0:0:
81,164,55006,1,0,0:0:0:0:
148,184,55172,1,12,0:0:0:0:
81,164,55339,1,0,0:0:0:0:
148,184,55506,1,12,0:0:0:0:
148,184,55839,1,12,0:0:0:0:
148,184,56172,1,12,0:0:0:0:
148,184,56506,1,12,0:0:0:0:
146,136,56839,1,12,0:0:0:0:
125,141,57006,1,0,0:0:0:0:
125,141,57172,1,0,0:0:0:0:
146,136,57339,1,12,0:0:0:0:
124,141,57506,1,0,0:0:0:0:
124,141,57672,1,0,0:0:0:0:
146,136,57839,1,12,0:0:0:0:
146,136,58172,1,12,0:0:0:0:
92,129,58672,1,8,0:0:0:0:
92,129,58839,1,0,0:0:0:0:
92,129,59172,1,0,0:0:0:0:
75,120,59339,1,0,0:0:0:0:
92,129,59506,1,8,0:0:0:0:
72,120,59589,1,8,0:0:0:0:
72,120,59672,1,8,0:0:0:0:
72,120,59839,1,0,0:0:0:0:
72,120,60006,1,8,0:0:0:0:
86,109,60339,1,0,0:0:0:0:
81,109,60839,1,8,0:0:0:0:
86,109,61172,1,0,0:0:0:0:
86,109,61339,1,8,0:0:0:0:
81,109,61672,1,8,0:0:0:0:
86,109,62006,1,0,0:0:0:0:
146,157,62172,1,8,0:0:0:0:
61,83,62256,1,8,0:0:0:0:
61,83,62339,1,8,0:0:0:0:
61,83,62506,1,0,0:0:0:0:
61,83,62672,1,8,0:0:0:0:
61,83,62839,1,0,0:0:0:0:
61,83,62922,1,0,0:0:0:0:
61,83,63006,1,0,0:0:0:0:
61,83,63172,1,8,0:0:0:0:
61,83,63339,1,0,0:0:0:0:
61,83,63506,1,8,0:0:0:0:
206,169,64672,1,0,0:0:0:0:
206,169,64756,1,0,0:0:0:0:
206,169,64839,1,8,0:0:0:0:
207,169,66006,1,0,0:0:0:0:
207,169,66172,1,8,0:0:0:0:
153,174,66339,1,0,0:0:0:0:
153,174,66506,1,0,0:0:0:0:
170,177,66672,1,8,0:0:0:0:
153,174,66839,1,0,0:0:0:0:
153,174,67006,1,0,0:0:0:0:
170,177,67172,1,8,0:0:0:0:
153,174,67339,1,0,0:0:0:0:
170,177,67506,1,8,0:0:0:0:
164,173,67589,1,8,0:0:0:0:
164,173,67672,1,8,0:0:0:0:
170,177,67839,1,0,0:0:0:0:
126,166,67922,1,0,0:0:0:0:
166,173,68006,1,0,0:0:0:0:
164,173,68172,1,8,0:0:0:0:
130,152,68506,1,0,0:0:0:0:
146,135,68839,5,12,0:0:0:0:
194,226,69172,1,0,0:0:0:0:
194,226,69339,1,8,0:0:0:0:
194,226,69672,1,0,0:0:0:0:
194,226,70006,1,8,0:0:0:0:
194,226,70172,1,0,0:0:0:0:
194,226,70339,1,0,0:0:0:0:
194,226,70506,1,8,0:0:0:0:
157,159,70839,1,0,0:0:0:0:
157,159,71006,1,8,0:0:0:0:
157,159,71172,1,8,0:0:0:0:
157,159,71339,1,0,0:0:0:0:
157,159,71506,1,8,0:0:0:0:
157,159,71839,1,8,0:0:0:0:
153,158,72172,1,0,0:0:0:0:
153,158,72506,1,8,0:0:0:0:
153,158,72672,1,0,0:0:0:0:
153,158,72839,1,8,0:0:0:0:
153,158,73172,1,8,0:0:0:0:
153,158,73506,1,0,0:0:0:0:
153,158,73672,1,0,0:0:0:0:
153,158,73839,1,8,0:0:0:0:
153,158,74006,1,0,0:0:0:0:
146,135,74172,5,12,0:0:0:0:
128,128,74506,1,0,0:0:0:0:
128,128,74672,1,0,0:0:0:0:
128,128,74839,1,8,0:0:0:0:
128,128,75172,1,8,0:0:0:0:
123,125,75339,1,8,0:0:0:0:
123,125,75506,1,0,0:0:0:0:
123,125,75672,1,0,0:0:0:0:
108,121,76006,1,8,0:0:0:0:
108,121,76339,1,8,0:0:0:0:
108,121,76672,1,0,0:0:0:0:
102,108,76839,1,8,0:0:0:0:
102,108,77006,1,8,0:0:0:0:
102,108,77339,1,0,0:0:0:0:
102,108,77506,1,8,0:0:0:0:
103,187,77839,1,0,0:0:0:0:
103,187,78006,1,0,0:0:0:0:
103,187,78172,1,8,0:0:0:0:
103,187,78339,1,8,0:0:0:0:
103,187,78506,1,0,0:0:0:0:
103,187,78672,1,0,0:0:0:0:
103,187,78839,1,8,0:0:0:0:
160,231,79089,1,0,0:0:0:0:
160,231,79172,1,8,0:0:0:0:
160,231,79339,1,0,0:0:0:0:
146,135,79506,5,12,0:0:0:0:
152,229,80006,1,0,0:0:0:0:
152,229,80172,1,8,0:0:0:0:
152,229,80506,1,8,0:0:0:0:
152,229,80672,1,8,0:0:0:0:
152,229,80839,1,0,0:0:0:0:
152,229,81006,1,0,0:0:0:0:
152,229,81172,1,8,0:0:0:0:
152,229,81506,1,8,0:0:0:0:
144,135,81839,1,12,0:0:0:0:
144,135,82172,1,12,0:0:0:0:
152,229,82506,1,8,0:0:0:0:
152,229,82672,1,0,0:0:0:0:
152,229,82839,1,8,0:0:0:0:
152,229,83172,1,8,0:0:0:0:
152,229,83339,1,0,0:0:0:0:
152,229,83506,1,8,0:0:0:0:
152,229,83589,1,8,0:0:0:0:
152,229,83672,1,8,0:0:0:0:
152,229,83839,1,0,0:0:0:0:
152,229,84006,1,8,0:0:0:0:
152,229,84172,1,0,0:0:0:0:
152,229,84256,1,0,0:0:0:0:
152,229,84339,1,0,0:0:0:0:
152,229,84506,1,0,0:0:0:0:
83,138,84839,1,12,0:0:0:0:
152,229,85172,1,0,0:0:0:0:
152,229,85506,1,0,0:0:0:0:
152,229,85839,1,0,0:0:0:0:
152,229,86172,1,8,0:0:0:0:
152,229,86506,1,0,0:0:0:0:
152,229,86672,1,8,0:0:0:0:
152,229,87006,1,8,0:0:0:0:
152,229,87172,1,0,0:0:0:0:
152,229,87506,1,8,0:0:0:0:
152,229,87839,1,8,0:0:0:0:
152,229,88006,1,0,0:0:0:0:
152,229,88339,1,0,0:0:0:0:
152,229,88506,1,0,0:0:0:0:
152,229,88589,1,0,0:0:0:0:
152,229,88672,1,0,0:0:0:0:
152,229,88839,1,8,0:0:0:0:
152,229,89172,1,8,0:0:0:0:
152,229,89506,1,0,0:0:0:0:
152,229,89672,1,0,0:0:0:0:
106,146,89839,5,12,0:0:0:0:
83,138,90172,5,12,0:0:0:0:
139,166,90506,1,8,0:0:0:0:
139,166,90672,1,0,0:0:0:0:
139,166,91006,1,0,0:0:0:0:
139,166,91339,1,0,0:0:0:0:
139,166,91422,1,0,0:0:0:0:
139,166,91506,1,0,0:0:0:0:
139,166,91839,1,8,0:0:0:0:
139,166,92172,1,0,0:0:0:0:
83,138,92839,1,12,0:0:0:0:
105,187,93172,1,8,0:0:0:0:
105,187,93339,1,0,0:0:0:0:
105,187,93422,1,0,0:0:0:0:
105,187,93506,1,0,0:0:0:0:
139,166,93672,1,8,0:0:0:0:
139,166,93839,1,0,0:0:0:0:
139,166,94006,1,0,0:0:0:0:
139,166,94172,1,8,0:0:0:0:
139,166,94339,1,0,0:0:0:0:
139,166,94506,1,8,0:0:0:0:
128,209,94672,1,0,0:0:0:0:
128,209,94756,1,0,0:0:0:0:
128,209,94839,1,0,0:0:0:0:
128,209,95006,1,0,0:0:0:0:
128,209,95172,1,8,0:0:0:0:
155,169,96506,1,0,0:0:0:0:
157,160,96839,1,12,0:0:0:0:
157,160,97172,1,12,0:0:0:0:
172,137,97505,1,12,0:0:0:0:
172,137,97839,1,12,0:0:0:0:
172,137,98172,1,12,0:0:0:0:
172,137,98505,1,12,0:0:0:0:
172,137,98839,1,12,0:0:0:0:
171,168,99005,1,0,0:0:0:0:
168,117,99172,1,12,0:0:0:0:
171,168,99339,1,0,0:0:0:0:
168,117,99505,1,12,0:0:0:0:
168,117,99839,1,12,0:0:0:0:
168,117,100172,1,12,0:0:0:0:
168,117,100505,1,12,0:0:0:0:
168,117,100839,1,12,0:0:0:0:
165,167,101005,1,0,0:0:0:0:
171,168,101172,1,0,0:0:0:0:
168,117,101339,1,12,0:0:0:0:
165,167,101505,1,0,0:0:0:0:
171,168,101672,1,0,0:0:0:0:
168,117,101839,1,12,0:0:0:0:
146,116,102172,1,12,0:0:0:0:
155,151,102672,1,8,0:0:0:0:
155,151,102839,1,8,0:0:0:0:
155,151,103172,1,8,0:0:0:0:
151,202,103505,1,0,0:0:0:0:
163,104,104005,1,8,0:0:0:0:
163,104,104172,1,8,0:0:0:0:
151,202,104505,1,0,0:0:0:0:
152,110,104838,1,12,0:0:0:0:
218,175,105172,1,8,0:0:0:0:
218,175,105338,1,8,0:0:0:0:
218,175,105672,1,0,0:0:0:0:
144,185,106005,1,12,0:0:0:0:
218,175,106338,1,0,0:0:0:0:
149,224,106505,1,0,0:0:0:0:
160,128,106672,1,8,0:0:0:0:
160,128,106838,1,0,0:0:0:0:
160,128,106922,1,0,0:0:0:0:
218,175,107005,1,0,0:0:0:0:
160,128,107172,1,8,0:0:0:0:
160,128,107338,1,0,0:0:0:0:
148,184,107505,1,12,0:0:0:0:
148,184,107838,1,12,0:0:0:0:
148,184,108172,1,12,0:0:0:0:
148,184,108505,1,12,0:0:0:0:
148,184,108838,1,12,0:0:0:0:
148,184,109172,1,12,0:0:0:0:
148,184,109505,1,12,0:0:0:0:
81,164,109672,1,0,0:0:0:0:
148,184,109838,1,12,0:0:0:0:
81,164,110005,1,0,0:0:0:0:
148,184,110172,1,12,0:0:0:0:
148,184,110505,1,12,0:0:0:0:
148,184,110838,1,12,0:0:0:0:
148,184,111172,1,12,0:0:0:0:
146,136,111505,1,12,0:0:0:0:
125,141,111672,1,0,0:0:0:0:
125,141,111838,1,0,0:0:0:0:
146,136,112005,1,12,0:0:0:0:
124,141,112172,1,0,0:0:0:0:
124,141,112338,1,0,0:0:0:0:
146,136,112505,1,12,0:0:0:0:
146,136,112838,1,12,0:0:0:0:
92,129,113338,1,8,0:0:0:0:
92,129,113505,1,0,0:0:0:0:
92,129,113838,1,0,0:0:0:0:
75,120,114005,1,0,0:0:0:0:
92,129,114172,1,8,0:0:0:0:
72,120,114255,1,8,0:0:0:0:
72,120,114338,1,8,0:0:0:0:
72,120,114505,1,0,0:0:0:0:
72,120,114672,1,8,0:0:0:0:
86,109,115005,1,0,0:0:0:0:
81,109,115505,1,8,0:0:0:0:
86,109,115838,1,0,0:0:0:0:
86,109,116005,1,8,0:0:0:0:
81,109,116338,1,8,0:0:0:0:
86,109,116672,1,0,0:0:0:0:
146,157,116838,1,8,0:0:0:0:
61,83,116922,1,8,0:0:0:0:
61,83,117005,1,8,0:0:0:0:
61,83,117172,1,0,0:0:0:0:
61,83,117338,1,8,0:0:0:0:
61,83,117505,1,0,0:0:0:0:
61,83,117588,1,0,0:0:0:0:
61,83,117672,1,0,0:0:0:0:
61,83,117838,1,8,0:0:0:0:
61,83,118005,1,0,0:0:0:0:
61,83,118172,1,8,0:0:0:0:
86,147,118505,1,8,0:0:0:0:
200,189,118672,1,0,0:0:0:0:
200,189,118838,1,0,0:0:0:0:
194,193,119005,1,8,0:0:0:0:
123,154,119172,1,0,0:0:0:0:
123,154,119338,1,0,0:0:0:0:
194,193,119505,1,8,0:0:0:0:
118,156,119672,1,0,0:0:0:0:
108,155,119838,1,8,0:0:0:0:
105,149,120005,1,0,0:0:0:0:
108,155,120172,1,8,0:0:0:0:
108,155,120338,1,8,0:0:0:0:
104,149,120838,1,8,0:0:0:0:
123,160,121505,1,8,0:0:0:0:
143,171,121672,1,8,0:0:0:0:
146,175,121755,1,8,0:0:0:0:
139,176,121922,1,0,0:0:0:0:
139,176,122005,1,0,0:0:0:0:
100,177,122172,1,8,0:0:0:0:
160,277,122338,1,0,0:0:0:0:
102,174,122422,1,0,0:0:0:0:
160,277,122505,1,0,0:0:0:0:
102,174,122672,1,0,0:0:0:0:
102,174,122838,1,8,0:0:0:0:
160,277,123005,1,8,0:0:0:0:
100,177,123172,1,0,0:0:0:0:
160,277,123255,1,0,0:0:0:0:
102,174,123338,1,0,0:0:0:0:
122,179,123505,5,8,0:0:0:0:
288,195,124727,1,0,0:0:0:0:
288,195,124838,1,8,0:0:0:0:
156,131,125061,1,0,0:0:0:0:
156,131,125283,1,8,0:0:0:0:
156,131,125394,1,8,0:0:0:0:
288,195,125505,1,8,0:0:0:0:
288,195,125616,1,8,0:0:0:0:
122,179,126172,1,12,0:0:0:0:
122,179,126672,1,4,0:0:0:0:
122,179,127172,1,12,0:0:0:0:
122,179,127672,1,4,0:0:0:0:
128,206,128005,1,0,0:0:0:0:
238,154,128172,1,8,0:0:0:0:
336,161,128338,1,0,0:0:0:0:
336,161,128505,1,8,0:0:0:0:
34,138,128838,1,12,0:0:0:0:
266,143,129505,1,0,0:0:0:0:
266,143,129838,1,8,0:0:0:0:
286,153,130172,1,8,0:0:0:0:
266,143,130505,1,0,0:0:0:0:
286,153,130838,1,8,0:0:0:0:
253,110,131005,1,0,0:0:0:0:
253,110,131172,1,0,0:0:0:0:
253,110,131338,1,0,0:0:0:0:
253,110,131505,1,8,0:0:0:0:
253,110,131838,1,0,0:0:0:0:
253,110,132172,1,8,0:0:0:0:
253,110,132505,1,0,0:0:0:0:
223,199,132838,1,8,0:0:0:0:
223,199,133172,1,0,0:0:0:0:
223,199,133505,1,8,0:0:0:0:
223,199,133672,1,0,0:0:0:0:
223,199,133838,1,0,0:0:0:0:
223,199,134005,1,0,0:0:0:0:
93,139,134172,5,12,0:0:0:0:
223,199,134505,1,0,0:0:0:0:
223,199,134838,1,8,0:0:0:0:
223,199,135172,1,0,0:0:0:0:
223,199,135505,1,8,0:0:0:0:
223,199,135838,1,0,0:0:0:0:
223,199,136172,1,8,0:0:0:0:
223,199,136338,1,0,0:0:0:0:
223,199,136505,1,0,0:0:0:0:
223,199,136672,1,0,0:0:0:0:
223,199,136838,1,8,0:0:0:0:
223,199,137172,1,0,0:0:0:0:
223,199,137505,1,8,0:0:0:0:
223,199,137838,1,0,0:0:0:0:
149,188,138172,1,8,0:0:0:0:
100,164,138505,1,0,0:0:0:0:
149,188,138672,1,0,0:0:0:0:
154,187,138755,1,0,0:0:0:0:
223,199,138838,1,0,0:0:0:0:
224,177,139005,1,0,0:0:0:0:
224,177,139172,1,0,0:0:0:0:
224,177,139338,1,0,0:0:0:0:
98,121,139505,5,12,0:0:0:0:
208,193,140172,1,0,0:0:0:0:
239,229,140505,1,8,0:0:0:0:
239,229,140672,1,8,0:0:0:0:
239,229,140838,1,0,0:0:0:0:
239,229,141172,1,8,0:0:0:0:
239,229,141338,1,0,0:0:0:0:
203,155,141422,1,0,0:0:0:0:
226,224,141505,1,0,0:0:0:0:
221,224,141672,1,0,0:0:0:0:
221,224,141838,1,8,0:0:0:0:
205,221,142172,1,8,0:0:0:0:
205,221,142505,1,8,0:0:0:0:
205,221,142672,1,0,0:0:0:0:
106,162,142755,1,0,0:0:0:0:
191,215,142838,1,0,0:0:0:0:
205,221,143005,1,0,0:0:0:0:
205,221,143172,1,8,0:0:0:0:
151,207,143338,1,8,0:0:0:0:
191,215,143505,1,0,0:0:0:0:
191,215,143838,1,8,0:0:0:0:
191,215,144005,1,0,0:0:0:0:
104,163,144088,1,0,0:0:0:0:
180,207,144172,1,0,0:0:0:0:
191,215,144338,1,0,0:0:0:0:
191,215,144505,1,8,0:0:0:0:
93,99,144838,5,12,0:0:0:0:
95,160,145172,1,8,0:0:0:0:
87,172,145422,1,0,0:0:0:0:
87,172,145505,1,0,0:0:0:0:
138,194,145672,1,0,0:0:0:0:
138,194,145838,1,8,0:0:0:0:
89,101,146172,1,12,0:0:0:0:
138,194,146505,1,0,0:0:0:0:
85,169,146755,1,8,0:0:0:0:
138,194,146838,1,8,0:0:0:0:
138,194,147005,1,8,0:0:0:0:
138,194,147172,1,0,0:0:0:0:
89,102,147505,1,12,0:0:0:0:
173,236,147838,1,0,0:0:0:0:
173,236,148172,1,0,0:0:0:0:
89,102,148505,1,12,0:0:0:0:
88,112,148838,1,12,0:0:0:0:
149,224,149172,1,8,0:0:0:0:
149,224,149338,1,0,0:0:0:0:
149,224,149422,1,0,0:0:0:0:
149,224,149505,1,0,0:0:0:0:
142,223,149672,1,8,0:0:0:0:
142,223,149838,1,0,0:0:0:0:
142,223,149922,1,0,0:0:0:0:
142,223,150005,1,0,0:0:0:0:
93,144,150172,1,12,0:0:0:0:
93,144,150338,1,12,0:0:0:0:
88,139,150505,1,12,0:0:0:0:
86,137,150672,1,12,0:0:0:0:
190,220,151172,1,0,0:0:0:0:
96,145,151839,1,12,0:0:0:0:
116,215,152172,1,8,0:0:0:0:
116,215,152256,1,8,0:0:0:0:
116,215,152339,1,8,0:0:0:0:
116,215,152506,1,0,0:0:0:0:
116,215,152672,1,0,0:0:0:0:
116,215,152839,1,8,0:0:0:0:
116,215,152922,1,8,0:0:0:0:
116,215,153006,1,8,0:0:0:0:
122,219,153172,1,0,0:0:0:0:
124,219,153339,1,0,0:0:0:0:
122,218,153506,1,8,0:0:0:0:
124,219,153672,1,8,0:0:0:0:
124,219,153839,1,0,0:0:0:0:
122,219,154172,1,8,0:0:0:0:
124,219,154256,1,8,0:0:0:0:
124,219,154339,1,8,0:0:0:0:
122,218,154506,1,0,0:0:0:0:
124,219,154672,1,0,0:0:0:0:
119,216,154839,1,8,0:0:0:0:
186,144,155006,1,0,0:0:0:0:
122,219,155172,1,8,0:0:0:0:
83,163,155339,1,8,0:0:0:0:
122,218,155506,1,0,0:0:0:0:
119,216,155589,1,0,0:0:0:0:
119,216,155672,1,0,0:0:0:0:
119,216,155839,1,8,0:0:0:0:
122,219,156006,1,0,0:0:0:0:
122,219,156172,1,8,0:0:0:0:
174,125,156339,1,0,0:0:0:0:
122,218,156506,1,8,0:0:0:0:
119,216,156839,1,0,0:0:0:0:
122,218,156922,1,0,0:0:0:0:
122,218,157006,1,0,0:0:0:0:
95,143,157172,5,12,0:0:0:0:
135,205,157839,1,8,0:0:0:0:
151,202,158172,1,0,0:0:0:0:
163,104,158672,1,8,0:0:0:0:
163,104,158839,1,8,0:0:0:0:
151,202,159172,1,0,0:0:0:0:
152,110,159506,1,12,0:0:0:0:
218,175,159839,1,8,0:0:0:0:
218,175,160006,1,8,0:0:0:0:
218,175,160339,1,0,0:0:0:0:
91,140,160672,1,12,0:0:0:0:
119,181,161006,1,0,0:0:0:0:
91,140,161172,1,8,0:0:0:0:
216,249,161339,1,8,0:0:0:0:
154,223,161506,1,0,0:0:0:0:
154,223,161589,1,0,0:0:0:0:
154,223,161672,1,0,0:0:0:0:
154,223,161839,1,8,0:0:0:0:
139,214,162006,1,0,0:0:0:0:
149,171,162172,1,12,0:0:0:0:
260,146,162506,1,8,0:0:0:0:
260,146,162672,1,0,0:0:0:0:
260,146,162839,1,8,0:0:0:0:
260,146,163006,1,0,0:0:0:0:
260,146,163172,1,8,0:0:0:0:
260,146,163339,1,0,0:0:0:0:
260,146,163506,1,8,0:0:0:0:
84,165,163672,1,0,0:0:0:0:
93,165,163756,1,0,0:0:0:0:
93,165,163839,1,0,0:0:0:0:
260,146,164006,1,0,0:0:0:0:
260,146,164172,1,8,0:0:0:0:
260,146,164339,1,0,0:0:0:0:
260,146,164506,1,8,0:0:0:0:
260,146,164672,1,0,0:0:0:0:
151,185,164839,5,12,0:0:0:0:
183,137,165172,1,8,0:0:0:0:
198,153,165339,1,0,0:0:0:0:
198,153,165506,1,8,0:0:0:0:
196,148,165672,1,8,0:0:0:0:
196,148,165839,1,0,0:0:0:0:
114,172,165922,1,0,0:0:0:0:
196,148,166005,1,0,0:0:0:0:
183,137,166172,1,8,0:0:0:0:
171,190,166339,1,8,0:0:0:0:
185,137,166505,1,0,0:0:0:0:
171,190,166672,1,0,0:0:0:0:
185,174,166839,1,8,0:0:0:0:
171,190,167005,1,0,0:0:0:0:
163,161,167172,1,8,0:0:0:0:
185,174,167339,1,0,0:0:0:0:
139,161,167505,5,12,0:0:0:0:
92,129,168005,1,8,0:0:0:0:
92,129,168172,1,0,0:0:0:0:
92,129,168505,1,0,0:0:0:0:
75,120,168672,1,0,0:0:0:0:
92,129,168839,1,8,0:0:0:0:
72,120,168922,1,8,0:0:0:0:
72,120,169005,1,8,0:0:0:0:
72,120,169172,1,0,0:0:0:0:
72,120,169339,1,8,0:0:0:0:
86,109,169672,1,0,0:0:0:0:
81,109,170172,1,8,0:0:0:0:
86,109,170505,1,0,0:0:0:0:
86,109,170672,1,8,0:0:0:0:
81,109,171005,1,8,0:0:0:0:
86,109,171339,1,0,0:0:0:0:
146,157,171505,1,8,0:0:0:0:
61,83,171589,1,8,0:0:0:0:
61,83,171672,5,8,0:0:0:0:
61,83,171839,1,0,0:0:0:0:
61,83,172005,1,8,0:0:0:0:
61,83,172172,1,0,0:0:0:0:
61,83,172255,1,0,0:0:0:0:
61,83,172339,1,0,0:0:0:0:
61,83,172505,1,8,0:0:0:0:
61,83,172672,1,0,0:0:0:0:
138,158,172839,5,12,0:0:0:0:
217,152,173172,1,0,0:0:0:0:
176,118,173339,1,0,0:0:0:0:
138,130,173505,1,8,0:0:0:0:
235,261,173672,1,8,0:0:0:0:
89,206,174005,1,0,0:0:0:0:
108,199,174089,1,0,0:0:0:0:
89,206,174172,1,0,0:0:0:0:
235,261,174339,1,0,0:0:0:0:
235,261,174505,1,8,0:0:0:0:
235,261,174672,1,0,0:0:0:0:
220,159,174839,1,0,0:0:0:0:
220,159,175005,1,0,0:0:0:0:
129,155,175172,1,12,0:0:0:0:
129,155,175505,1,12,0:0:0:0:
241,195,175839,1,8,0:0:0:0:
241,195,176005,1,0,0:0:0:0:
102,105,176172,1,0,0:0:0:0:
241,195,176339,1,8,0:0:0:0:
241,195,176672,1,0,0:0:0:0:
102,105,176839,1,8,0:0:0:0:
241,195,177005,1,0,0:0:0:0:
83,208,177089,1,0,0:0:0:0:
83,208,177172,1,0,0:0:0:0:
241,195,177339,1,0,0:0:0:0:
241,195,177505,1,8,0:0:0:0:
241,195,177672,1,8,0:0:0:0:
241,195,177839,1,0,0:0:0:0:
241,195,178005,1,0,0:0:0:0:
125,154,178172,1,12,0:0:0:0:
266,266,178672,1,0,0:0:0:0:
266,266,178839,1,8,0:0:0:0:
182,141,179005,1,8,0:0:0:0:
300,155,179172,1,0,0:0:0:0:
286,185,179339,1,8,0:0:0:0:
286,185,179672,1,0,0:0:0:0:
286,185,179839,1,8,0:0:0:0:
286,185,180172,1,8,0:0:0:0:
286,185,180339,1,8,0:0:0:0:
286,185,180505,1,0,0:0:0:0:
286,185,180672,1,0,0:0:0:0:
282,193,180839,1,8,0:0:0:0:
282,193,181172,1,0,0:0:0:0:
275,189,181505,1,0,0:0:0:0:
122,152,181839,1,12,0:0:0:0:
269,183,182172,1,8,0:0:0:0:
269,183,182255,1,8,0:0:0:0:
269,183,182339,1,8,0:0:0:0:
269,183,182505,1,0,0:0:0:0:
269,183,182672,1,0,0:0:0:0:
306,137,182839,1,8,0:0:0:0:
0,179,183061,1,0,0:0:0:0:
306,137,183172,1,0,0:0:0:0:
306,137,183283,1,0,0:0:0:0:
340,114,183394,1,0,0:0:0:0:
256,192,184839,12,8,185505,0:0:0:0:
207,179,185839,5,0,0:0:0:0:
136,141,186173,5,12,0:0:0:0:
319,254,187673,1,0,0:0:0:0:
319,254,187839,1,8,0:0:0:0:
320,197,188061,1,0,0:0:0:0:
320,197,188173,1,0,0:0:0:0:
320,197,188395,1,8,0:0:0:0:
320,197,188506,1,8,0:0:0:0:
342,202,188728,1,0,0:0:0:0:
342,202,188839,1,8,0:0:0:0:
276,171,189173,1,0,0:0:0:0:
161,158,189256,1,0,0:0:0:0:
161,158,189339,1,0,0:0:0:0:
161,158,189506,1,8,0:0:0:0:
160,157,189673,1,0,0:0:0:0:
160,157,189839,1,8,0:0:0:0:
160,157,189923,1,8,0:0:0:0:
160,157,190006,1,8,0:0:0:0:
172,154,190173,1,0,0:0:0:0:
80,158,190339,1,8,0:0:0:0:
172,154,190506,1,8,0:0:0:0:
80,158,190673,1,0,0:0:0:0:
191,164,190839,1,8,0:0:0:0:
191,164,190923,1,8,0:0:0:0:
191,164,191006,1,8,0:0:0:0:
194,164,191173,1,0,0:0:0:0:
194,164,191256,1,0,0:0:0:0:
194,164,191339,1,0,0:0:0:0:
134,136,191506,5,12,0:0:0:0:
134,136,192006,1,4,0:0:0:0:
134,136,192506,1,12,0:0:0:0:
134,136,193006,1,4,0:0:0:0:
137,207,193339,1,0,0:0:0:0:
137,207,193506,1,8,0:0:0:0:
137,207,193673,1,0,0:0:0:0:
137,207,193839,1,8,0:0:0:0:
134,136,194173,1,12,0:0:0:0:
134,136,195339,1,12,0:0:0:0:
137,205,195673,1,8,0:0:0:0:
137,205,195839,1,8,0:0:0:0:
137,205,196006,1,0,0:0:0:0:
137,205,196173,1,8,0:0:0:0:
137,205,196339,1,0,0:0:0:0:
137,205,196506,1,0,0:0:0:0:
133,135,196673,1,12,0:0:0:0:
