osu file format v14

[General]
AudioFilename: audio.mp3
AudioLeadIn: 0
PreviewTime: 147756
Countdown: 0
SampleSet: Drum
StackLeniency: 0.2
Mode: 0
LetterboxInBreaks: 0
WidescreenStoryboard: 0

[Editor]
Bookmarks: 23031,33540,42014,116591,126930,137777,145912,148624,159811,160828,164896,180997
DistanceSpacing: 0.2
BeatDivisor: 4
GridSize: 8
TimelineZoom: 3.299999

[Metadata]
Title:NULL APOPHENIA
TitleUnicode:NULL APOPHENIA
Artist:N2
ArtistUnicode:N²
Creator:pocket-
Version:NOUMENON
Source:Arcaea
Tags:corsace open 2023 co2023 co23 knockout round stage grand finals gf ko2 nm4 paradogi deviouspanda meowusername 0pp 0ppinosu neurofunk dnb drum and bass electronic instrumental lethe memory archive
BeatmapID:4284814
BeatmapSetID:2051792

[Difficulty]
HPDrainRate:6
CircleSize:4
OverallDifficulty:9.5
ApproachRate:9.7
SliderMultiplier:2.6
SliderTickRate:1

[Events]
//Background and Video events
0,0,"corps sans.jpg",0,0
//Break Periods
//Storyboard Layer 0 (Background)
//Storyboard Layer 1 (Fail)
//Storyboard Layer 2 (Pass)
//Storyboard Layer 3 (Foreground)
//Storyboard Layer 4 (Overlay)
//Storyboard Sound Samples

[TimingPoints]
1337,338.983050847458,4,2,1,30,1,0
1337,-133.333333333333,4,2,1,30,0,0
2014,-200,4,2,1,30,0,0
3370,-133.333333333333,4,2,1,30,0,0
4048,-100,4,2,1,30,0,0
4387,-133.333333333333,4,2,1,30,0,0
4726,-200,4,2,1,30,0,0
6760,-133.333333333333,4,2,1,40,0,0
7099,-100,4,2,1,40,0,0
7438,-80,4,2,1,40,0,0
7862,-100,4,2,1,40,0,0
8286,-133.333333333333,4,2,1,40,0,0
8625,-100,4,2,1,40,0,0
9133,-66.6666666666667,4,2,1,40,0,0
9472,-100,4,2,1,40,0,0
10489,-133.333333333333,4,2,1,40,0,0
11337,-100,4,2,1,40,0,0
11675,-80,4,2,1,40,0,0
12014,-66.6666666666667,4,2,1,40,0,0
13201,-100,4,2,1,40,0,0
14896,-80,4,2,1,40,0,0
15743,-133.333333333333,4,2,1,40,0,0
17608,-80,4,2,1,40,0,0
20320,-133.333333333333,4,2,1,40,0,0
20574,-100,4,2,1,40,0,0
20743,-100,4,2,1,40,0,0
22184,-80,4,2,1,40,0,0
22353,-1000,4,2,1,40,0,0
23031,-100,4,2,1,45,0,0
23709,-500,4,2,1,45,0,0
24387,-80,4,2,1,45,0,0
25065,-250,4,2,1,45,0,0
25743,-66.6666666666667,4,2,1,45,0,0
26591,-500,4,2,1,45,0,0
27099,-66.6666666666667,4,2,1,45,0,0
28116,-100,4,2,1,45,0,0
29133,-500,4,2,1,45,0,0
29811,-80,4,2,1,45,0,0
32014,-500,4,2,1,45,0,0
33540,-66.6666666666667,4,2,1,45,0,0
33794,-66.6666666666667,4,2,1,5,0,0
33879,-476.190476190476,4,2,1,45,0,0
33964,-400,4,2,1,5,0,0
34161,-400,4,1,2,55,0,0
34218,-400,4,2,1,5,0,0
34444,-400,4,1,2,55,0,0
34500,-400,4,2,1,5,0,0
34726,-400,4,1,2,55,0,0
34782,-400,4,2,1,5,0,0
34969,-400,4,1,2,55,0,0
35025,-400,4,2,1,5,0,0
35235,-322.58064516129,4,2,1,45,0,0
35320,-285.714285714286,4,2,1,5,0,0
35468,-400,4,1,2,55,0,0
35524,-400,4,2,1,5,0,0
35680,-400,4,1,2,55,0,0
35736,-400,4,2,1,5,0,0
35892,-400,4,1,2,55,0,0
35948,-400,4,2,1,5,0,0
36103,-400,4,1,2,55,0,0
36159,-400,4,2,1,5,0,0
36294,-400,4,1,2,55,0,0
36350,-400,4,2,1,5,0,0
36506,-400,4,2,1,35,0,0
36591,-212.765957446809,4,2,1,35,0,0
36675,-200,4,2,1,5,0,0
36760,-400,4,1,2,55,0,0
36816,-400,4,2,1,5,0,0
36930,-400,4,1,2,55,0,0
36986,-400,4,2,1,5,0,0
37099,-400,4,1,2,55,0,0
37155,-400,4,2,1,5,0,0
37269,-400,4,1,2,55,0,0
37325,-400,4,2,1,5,0,0
37438,-400,4,1,2,55,0,0
37494,-400,4,2,1,5,0,0
37587,-400,4,1,2,55,0,0
37643,-400,4,2,1,5,0,0
37735,-400,4,1,2,55,0,0
37791,-400,4,2,1,5,0,0
37862,-400,4,2,1,35,0,0
37947,-100,4,2,1,35,0,0
37968,-100,4,2,1,5,0,0
37989,-400,4,1,2,55,0,0
38031,-400,4,2,1,5,0,0
38074,-400,4,1,2,65,0,0
38116,-400,4,2,1,5,0,0
38201,-400,4,1,2,65,0,0
38243,-400,4,2,1,5,0,0
38328,-400,4,1,2,65,0,0
38370,-400,4,2,1,5,0,0
38455,-400,4,1,2,65,0,0
38497,-400,4,2,1,5,0,0
38561,-400,4,1,2,65,0,0
38603,-400,4,2,1,5,0,0
38667,-400,4,1,2,65,0,0
38709,-400,4,2,1,5,0,0
38773,-400,4,1,2,65,0,0
38815,-400,4,2,1,5,0,0
38879,-400,4,1,2,65,0,0
38921,-400,4,2,1,5,0,0
38985,-400,4,1,2,65,0,0
39027,-400,4,2,1,5,0,0
39091,-400,4,1,2,65,0,0
39133,-400,4,2,1,5,0,0
39154,-400,4,1,2,65,0,0
39196,-400,4,2,1,5,0,0
39218,-400,4,2,1,5,0,0
39303,-46.5116279069767,4,2,1,45,0,0
39324,-43.4782608695652,4,2,1,5,0,0
39345,-43.4782608695652,4,1,2,65,0,0
39366,-43.4782608695652,4,2,1,5,0,0
39409,-43.4782608695652,4,1,2,65,0,0
39430,-43.4782608695652,4,2,1,5,0,0
39472,-43.4782608695652,4,1,2,65,0,0
39493,-43.4782608695652,4,2,1,5,0,0
39536,-43.4782608695652,4,1,2,65,0,0
39557,-43.4782608695652,4,2,1,5,0,0
39599,-43.4782608695652,4,1,2,65,0,0
39620,-43.4782608695652,4,2,1,5,0,0
39663,-43.4782608695652,4,1,2,65,0,0
39684,-43.4782608695652,4,2,1,5,0,0
39726,-43.4782608695652,4,1,2,65,0,0
39747,-43.4782608695652,4,2,1,5,0,0
39790,-43.4782608695652,4,1,2,65,0,0
39811,-43.4782608695652,4,2,1,5,0,0
39853,-43.4782608695652,4,1,2,65,0,0
39874,-43.4782608695652,4,2,1,5,0,0
39917,-43.4782608695652,4,1,2,65,0,0
39938,-43.4782608695652,4,2,1,5,0,0
39981,-43.4782608695652,4,1,2,65,0,0
40002,-43.4782608695652,4,2,1,5,0,0
40044,-43.4782608695652,4,1,2,65,0,0
40065,-43.4782608695652,4,2,1,5,0,0
40108,-43.4782608695652,4,1,2,65,0,0
40129,-43.4782608695652,4,2,1,5,0,0
40171,-43.4782608695652,4,1,2,65,0,0
40192,-43.4782608695652,4,2,1,5,0,0
40235,-43.4782608695652,4,1,2,65,0,0
40256,-43.4782608695652,4,2,1,5,0,0
40298,-43.4782608695652,4,1,2,65,0,0
40319,-43.4782608695652,4,2,1,5,0,0
40362,-43.4782608695652,4,1,2,65,0,0
40383,-43.4782608695652,4,2,1,5,0,0
40425,-43.4782608695652,4,1,2,65,0,0
40446,-43.4782608695652,4,2,1,5,0,0
40489,-43.4782608695652,4,1,2,65,0,0
40510,-43.4782608695652,4,2,1,5,0,0
40553,-43.4782608695652,4,1,2,65,0,0
40574,-43.4782608695652,4,2,1,5,0,0
40659,-15.6739811912226,4,2,1,45,0,0
40680,-14.6198830409357,4,2,1,5,0,0
40701,-43.4782608695652,4,1,2,75,0,0
40722,-43.4782608695652,4,2,1,5,0,0
40743,-43.4782608695652,4,1,2,75,0,0
40764,-43.4782608695652,4,2,1,5,0,0
40786,-43.4782608695652,4,1,2,75,0,0
40807,-43.4782608695652,4,2,1,5,0,0
40828,-43.4782608695652,4,1,2,75,0,0
40849,-43.4782608695652,4,2,1,5,0,0
40870,-43.4782608695652,4,1,2,75,0,0
40891,-43.4782608695652,4,2,1,5,0,0
40913,-43.4782608695652,4,1,2,75,0,0
40934,-43.4782608695652,4,2,1,5,0,0
40955,-43.4782608695652,4,1,2,75,0,0
40976,-43.4782608695652,4,2,1,5,0,0
40998,-43.4782608695652,4,1,2,75,0,0
41019,-43.4782608695652,4,2,1,5,0,0
41040,-43.4782608695652,4,1,2,75,0,0
41061,-43.4782608695652,4,2,1,5,0,0
41082,-43.4782608695652,4,1,2,75,0,0
41103,-43.4782608695652,4,2,1,5,0,0
41125,-43.4782608695652,4,1,2,75,0,0
41146,-43.4782608695652,4,2,1,5,0,0
41167,-43.4782608695652,4,1,2,75,0,0
41188,-43.4782608695652,4,2,1,5,0,0
41209,-43.4782608695652,4,1,2,75,0,0
41230,-43.4782608695652,4,2,1,5,0,0
41252,-43.4782608695652,4,1,2,75,0,0
41273,-43.4782608695652,4,2,1,5,0,0
41294,-43.4782608695652,4,1,2,75,0,0
41315,-43.4782608695652,4,2,1,5,0,0
41337,-43.4782608695652,4,1,2,75,0,0
41358,-43.4782608695652,4,2,1,5,0,0
41379,-43.4782608695652,4,1,2,75,0,0
41400,-43.4782608695652,4,2,1,5,0,0
41421,-43.4782608695652,4,1,2,75,0,0
41442,-43.4782608695652,4,2,1,5,0,0
41464,-43.4782608695652,4,1,2,75,0,0
41485,-43.4782608695652,4,2,1,5,0,0
41506,-43.4782608695652,4,1,2,75,0,0
41527,-43.4782608695652,4,2,1,5,0,0
41548,-43.4782608695652,4,1,2,75,0,0
41569,-43.4782608695652,4,2,1,5,0,0
41591,-43.4782608695652,4,1,2,75,0,0
41612,-43.4782608695652,4,2,1,5,0,0
41633,-43.4782608695652,4,1,2,75,0,0
41654,-43.4782608695652,4,2,1,5,0,0
41675,-43.4782608695652,4,1,2,75,0,0
41696,-43.4782608695652,4,2,1,5,0,0
41718,-43.4782608695652,4,1,2,75,0,0
41739,-43.4782608695652,4,2,1,5,0,0
41760,-43.4782608695652,4,1,2,75,0,0
41781,-43.4782608695652,4,2,1,5,0,0
41803,-43.4782608695652,4,1,2,75,0,0
41824,-43.4782608695652,4,2,1,5,0,0
41845,-43.4782608695652,4,1,2,75,0,0
41866,-43.4782608695652,4,2,1,5,0,0
41887,-43.4782608695652,4,1,2,75,0,0
41908,-43.4782608695652,4,2,1,5,0,0
42014,-86.9565217391304,4,2,1,45,0,0
43370,-66.6666666666667,4,3,1,55,0,0
43625,-57.1428571428571,4,3,1,55,0,0
44048,-1000,4,3,1,55,0,0
44133,-1000,4,3,1,5,0,0
44726,-80,4,3,1,70,0,0
44981,-100,4,3,1,70,0,0
45235,-66.6666666666667,4,3,1,70,0,0
45404,-80,4,3,1,70,0,0
45913,-66.6666666666667,4,3,1,70,0,0
46082,-57.1428571428571,4,3,1,70,0,0
46760,-111.111111111111,4,3,1,70,0,0
47438,-66.6666666666667,4,3,1,70,0,0
48116,-50,4,3,1,70,0,0
48794,-66.6666666666667,4,3,1,70,0,0
50150,-200,4,3,1,70,0,0
50404,-133.333333333333,4,3,1,70,0,0
50659,-100,4,3,1,70,0,0
50828,-80,4,3,1,70,0,0
51506,-66.6666666666667,4,3,1,70,0,0
52184,-57.1428571428571,4,3,1,70,0,0
52692,-50,4,3,1,70,0,0
52862,-100,4,3,1,70,0,0
53201,-28.5714285714286,4,3,1,70,0,0
53370,-50,4,3,1,70,0,0
53794,-40,4,3,1,70,0,0
54048,-26.6666666666667,4,3,1,70,0,0
54175,-40,4,3,1,5,0,0
54218,-40,4,3,1,70,0,0
54387,-66.6666666666667,4,3,1,70,0,0
54557,-33.3333333333333,4,3,1,70,0,0
54896,-80,4,3,1,70,0,0
55065,-133.333333333333,4,3,1,70,0,0
55404,-100,4,3,1,70,0,0
55489,-66.6666666666667,4,3,1,70,0,0
55574,-66.6666666666667,4,3,1,70,0,0
55744,-133.333333333333,4,3,1,70,0,0
56082,-26.6666666666667,4,3,1,70,0,0
56209,-40,4,3,1,5,0,0
56252,-66.6666666666667,4,3,1,70,0,0
56930,-50,4,3,1,70,0,0
57608,-133.333333333333,4,3,1,70,0,0
58286,-66.6666666666667,4,3,1,70,0,0
58540,-57.1428571428571,4,3,1,70,0,0
58964,-50,4,3,1,70,0,0
59599,-50,4,3,1,5,0,0
59642,-50,4,3,1,70,0,0
60151,-40,4,3,1,70,0,0
60320,-66.6666666666667,4,3,1,70,0,0
60998,-100,4,3,1,70,0,0
61675,-80,4,3,1,70,0,0
62354,-66.6666666666667,4,3,1,70,0,0
64387,-50,4,3,1,70,0,0
65023,-50,4,3,1,5,0,0
65066,-50,4,3,1,70,0,0
65744,-44.4444444444445,4,3,1,70,0,0
65913,-250,4,3,1,70,0,0
66252,-66.6666666666667,4,3,1,70,0,0
66422,-250,4,3,1,70,0,0
66591,-250,4,3,1,5,0,0
66675,-250,4,3,1,70,0,0
66845,-250,4,3,1,5,0,0
66930,-250,4,3,1,70,0,0
67099,-250,4,3,1,5,0,0
67184,-133.333333333333,4,3,1,70,0,0
67947,-250,4,3,1,5,0,0
68031,-133.333333333333,4,3,1,70,0,0
68201,-250,4,3,1,5,0,0
68286,-66.6666666666667,4,3,1,70,0,0
68370,-250,4,3,1,5,0,0
68455,-50,4,3,1,70,0,0
68964,-133.333333333333,4,3,1,70,0,0
69133,-200,4,3,1,70,0,0
69387,-50,4,3,1,70,0,0
70489,-40,4,3,1,70,0,0
70998,-66.6666666666667,4,3,1,70,0,0
71845,-100,4,3,1,70,0,0
72354,-80,4,3,1,70,0,0
72523,-66.6666666666667,4,3,1,70,0,0
73201,-57.1428571428571,4,3,1,70,0,0
73455,-50,4,3,1,70,0,0
73879,-40,4,3,1,70,0,0
74133,-36.3636363636364,4,3,1,70,0,0
74557,-40,4,3,1,70,0,0
75066,-66.6666666666667,4,3,1,70,0,0
75235,-40,4,3,1,70,0,0
76591,-50,4,3,1,70,0,0
76760,-66.6666666666667,4,3,1,70,0,0
76929,-100,4,3,1,70,0,0
77099,-133.333333333333,4,3,1,70,0,0
77269,-66.6666666666667,4,3,1,70,0,0
77777,-50,4,3,1,70,0,0
79981,-30.7692307692308,4,3,1,70,0,0
80235,-40,4,3,1,70,0,0
82014,-66.6666666666667,4,3,1,70,0,0
82099,-50,4,3,1,70,0,0
82184,-66.6666666666667,4,3,1,70,0,0
82693,-66.6666666666667,4,3,1,70,0,0
83032,-33.3333333333333,4,3,1,70,0,0
83159,-33.3333333333333,4,3,1,5,0,0
83201,-40,4,3,1,70,0,0
84133,-50,4,3,1,70,0,0
84727,-66.6666666666667,4,3,1,70,0,0
85235,-50,4,3,1,70,0,0
85489,-40,4,3,1,70,0,0
86591,-26.6666666666667,4,3,1,70,0,0
86718,-40,4,3,1,5,0,0
86760,-40,4,3,1,70,0,0
87608,-200,4,3,1,70,0,0
87947,-33.3333333333333,4,3,1,70,0,0
88116,338.983050847458,3,3,1,70,1,0
89132,-200,4,2,1,40,0,0
89810,-133.333333333333,4,2,1,40,0,0
91505,-200,4,2,1,40,0,0
92184,-200,4,2,1,45,0,0
94217,-133.333333333333,4,2,1,45,0,0
96251,-100,4,2,1,50,0,0
97438,-500,4,2,1,50,0,0
97946,-133.333333333333,4,2,1,50,0,0
98285,-100,4,2,1,50,0,0
100319,-100,4,2,1,55,0,0
102522,-133.333333333333,4,2,1,55,0,0
102861,-500,4,2,1,55,0,0
103370,-133.333333333333,4,2,1,55,0,0
103709,-100,4,2,1,55,0,0
104048,-80,4,2,1,55,0,0
104387,-80,4,2,1,60,0,0
104726,-100,4,2,1,60,0,0
105065,-500,4,2,1,60,0,0
106082,-133.333333333333,4,2,1,60,0,0
106421,-100,4,2,1,60,0,0
108116,-200,4,2,1,60,0,0
108455,-133.333333333333,4,2,1,65,0,0
109811,-100,4,2,1,60,0,0
110998,-133.333333333333,4,2,1,60,0,0
112184,-133.333333333333,4,2,1,70,0,0
114218,-666.666666666667,4,2,1,50,0,0
114557,-666.666666666667,4,2,1,40,0,0
115235,-666.666666666667,4,2,1,30,0,0
115574,-1000,4,2,1,25,0,0
116252,-1000,4,2,1,20,0,0
116591,-40,4,3,1,70,0,0
116930,-50,4,3,1,70,0,0
117100,-33.3333333333333,4,3,1,70,0,0
117608,338.983050847458,5,3,1,70,1,0
117608,-50,4,3,1,70,0,0
117862,-40,4,3,1,70,0,0
118116,-33.3333333333333,4,3,1,70,0,0
118286,-66.6666666666667,4,3,1,70,0,0
118455,-1000,4,3,1,70,0,0
118794,-1000,4,3,1,5,0,0
119133,-1000,4,3,1,70,0,0
119303,338.983050847458,3,3,1,70,1,0
119303,-40,4,3,1,70,0,0
119726,-133.333333333333,4,3,1,70,0,0
119896,-40,4,3,1,70,0,0
120320,338.983050847458,5,3,1,70,1,0
120320,-40,5,3,1,70,0,0
120828,-50,4,3,1,70,0,0
121082,-1000,4,3,1,70,0,0
121337,-1000,4,3,1,5,0,0
121675,-1000,4,3,1,70,0,0
122014,338.983050847458,4,3,1,70,1,0
122014,-40,4,3,1,70,0,0
122522,-33.3333333333333,4,3,1,70,0,0
122776,-44.4444444444445,4,3,1,70,0,0
123201,338.983050847458,4,3,1,70,1,0
123201,-50,4,3,1,70,0,0
124048,-40,4,3,1,70,0,0
124175,-40,4,3,1,5,0,0
124218,-40,4,3,1,70,0,0
124387,338.983050847458,4,3,1,70,1,0
124387,-40,4,3,1,70,0,0
125023,-40,4,3,1,5,0,0
125065,-40,4,3,1,70,0,0
125319,-36.3636363636364,4,3,1,70,0,0
125574,338.983050847458,4,3,1,70,1,0
125574,-50,4,3,1,70,0,0
125743,-66.6666666666667,4,3,1,70,0,0
125912,-40,4,3,1,70,0,0
126251,-66.6666666666667,4,3,1,70,0,0
126421,-100,4,3,1,70,0,0
126930,-200,4,3,1,55,0,0
127353,-200,4,3,1,5,0,0
127438,-66.6666666666667,4,3,1,55,0,0
127777,-57.1428571428571,4,3,1,55,0,0
127946,-50,4,3,1,55,0,0
128285,-66.6666666666667,4,3,1,55,0,0
129133,-133.333333333333,4,3,1,55,0,0
130150,-50,4,3,1,55,0,0
130404,-66.6666666666667,4,3,1,55,0,0
130997,-100,4,3,1,55,0,0
131506,-50,4,3,1,55,0,0
131845,-66.6666666666667,4,3,1,55,0,0
132353,-133.333333333333,4,3,1,55,0,0
132523,-100,4,3,1,55,0,0
132692,-66.6666666666667,4,3,1,55,0,0
132862,-50,4,3,1,55,0,0
133201,-100,4,3,1,55,0,0
133879,-66.6666666666667,4,3,1,55,0,0
134726,-50,4,3,1,55,0,0
135065,-133.333333333333,4,3,1,55,0,0
135404,-66.6666666666667,4,3,1,55,0,0
136421,-133.333333333333,4,3,1,55,0,0
136760,-66.6666666666667,4,3,1,55,0,0
137014,-57.1428571428571,4,3,1,55,0,0
137438,-133.333333333333,4,3,1,55,0,0
137777,338.983050847458,3,3,1,60,1,0
137777,-200,4,3,1,60,0,0
138031,-100,4,3,1,60,0,0
138285,-80,4,3,1,60,0,0
138454,-57.1428571428571,4,3,1,60,0,0
138793,-66.6666666666667,4,3,1,60,0,0
139048,-50,4,3,1,60,0,0
139302,-44.4444444444445,4,3,1,60,0,0
139471,-250,4,3,1,60,0,0
139810,-33.3333333333333,4,3,1,60,0,1
140319,-66.6666666666667,4,3,1,60,0,0
140658,-50,4,3,1,60,0,0
140785,-50,4,3,1,5,0,0
140827,-133.333333333333,4,3,1,60,0,0
141166,-100,4,3,1,60,0,0
141336,-80,4,3,1,60,0,0
141505,-50,4,3,1,60,0,0
141633,-50,4,3,1,5,0,0
141675,-66.6666666666667,4,3,1,60,0,0
141845,338.983050847458,4,3,1,60,1,0
141845,-66.6666666666667,4,3,1,60,0,0
142099,-80,4,3,1,60,0,0
142522,-50,4,3,1,60,0,0
143031,-66.6666666666667,4,3,1,60,0,0
143200,-100,4,3,1,60,0,0
143709,-80,4,3,1,60,0,0
143878,-66.6666666666667,4,3,1,60,0,0
145234,-50,4,3,1,60,0,0
145912,-57.1428571428571,4,3,1,60,0,0
145997,-57.1428571428571,4,3,1,5,0,0
146252,-57.1428571428571,4,3,1,60,0,0
148625,338.983050847458,3,3,1,85,1,1
148625,-40,4,3,1,85,0,1
149302,-250,4,3,1,85,0,0
149641,-30.7692307692308,4,3,1,85,0,1
149896,-33.3333333333333,4,3,1,85,0,1
150319,-133.333333333333,4,3,1,85,0,0
150658,-33.3333333333333,4,3,1,85,0,1
151336,-125,4,3,1,85,0,0
151675,-33.3333333333333,4,3,1,85,0,1
152353,-125,4,3,1,85,0,0
152692,-33.3333333333333,4,3,1,85,0,1
153370,-250,4,3,1,85,0,0
153709,-30.7692307692308,4,3,1,85,0,1
153963,-33.3333333333333,4,3,1,85,0,1
154387,-125,4,3,1,85,0,0
154726,-33.3333333333333,4,3,1,85,0,1
155404,-250,4,3,1,85,0,0
155743,-28.5714285714286,4,3,1,85,0,1
156252,-25,4,3,1,85,0,1
156421,-125,4,3,1,85,0,0
156760,-33.3333333333333,4,3,1,85,0,1
157438,-250,4,3,1,85,0,0
157777,-30.7692307692308,4,3,1,85,0,1
158285,-33.3333333333333,4,3,1,85,0,1
158455,-125,4,3,1,85,0,0
158794,-33.3333333333333,4,3,1,85,0,1
159472,-125,4,3,1,85,0,0
159811,-33.3333333333333,4,3,1,85,0,1
160489,-250,4,3,1,85,0,0
160828,-30.7692307692308,4,3,1,85,0,1
161506,-125,4,3,1,85,0,0
161845,-28.5714285714286,4,3,1,85,0,1
162353,-40,4,3,1,85,0,1
162523,-125,4,3,1,85,0,0
162862,-40,4,3,1,85,0,1
163370,-30.7692307692308,4,3,1,85,0,1
163540,-125,4,3,1,85,0,0
163709,-80,4,3,1,85,0,0
163879,-30.7692307692308,4,3,1,85,0,1
164048,-200,4,3,1,85,0,1
164387,-100,4,3,1,85,0,1
164726,-50,4,3,1,85,0,1
164896,338.983050847458,4,2,1,85,1,0
164896,-133.333333333333,4,2,1,85,0,0
165404,-133.333333333333,4,2,1,60,0,0
166252,-200,4,2,1,50,0,0
167607,-200,4,2,1,40,0,0
168963,-250,4,2,1,30,0,0
169811,-333.333333333333,4,2,1,30,0,0
171675,-333.333333333333,4,2,1,35,0,0
173031,-333.333333333333,4,2,1,40,0,0
174387,-263.157894736842,4,2,1,50,0,0
175743,-256.410256410256,4,2,2,40,0,0
177099,-256.410256410256,4,2,1,30,0,0
178455,-256.410256410256,4,2,2,20,0,0
179811,-256.410256410256,4,2,1,10,0,0
180997,-256.410256410256,4,2,1,5,0,0

[Colours]
Combo1 : 210,255,119
Combo2 : 41,250,135
Combo3 : 41,198,250
Combo4 : 194,87,253
Combo5 : 245,65,129
Combo6 : 164,198,223
Combo7 : 192,192,192
Combo8 : 255,207,119

[HitObjects]
432,163,1337,6,0,P|413:207|417:266,1,97.50000371933,8|0,0:1|0:0,0:0:0:0:
462,319,1675,1,0,0:0:0:0:
335,273,1845,1,0,0:0:0:0:
240,354,2014,2,0,P|187:319|123:319,1,130,2|0,0:0|0:0,0:0:0:0:
83,253,2523,1,0,0:0:0:0:
134,196,2692,5,2,0:3:0:0:
63,15,3031,1,0,0:0:0:0:
254,44,3370,1,0,0:0:0:0:
254,44,3413,6,0,P|164:47|106:109,1,170.625006508827,2|0,0:0|0:0,0:0:0:0:
63,15,3879,1,0,0:0:0:0:
225,121,4048,1,0,0:0:0:0:
225,121,4091,6,0,L|211:240,1,97.5,2|0,0:0|0:0,0:0:0:0:
36,370,4387,2,0,P|71:337|118:329,1,97.50000371933
316,180,4726,5,2,0:3:0:0:
393,196,4896,1,0,0:0:0:0:
394,169,5065,1,0,0:0:0:0:
386,143,5235,1,0,0:0:0:0:
316,180,5404,5,2,0:3:0:0:
435,274,5574,1,0,0:0:0:0:
488,218,5743,1,0,0:0:0:0:
471,143,5913,1,0,0:0:0:0:
316,180,6082,5,2,0:3:0:0:
488,218,6252,1,0,0:0:0:0:
434,51,6421,1,0,0:0:0:0:
316,180,6591,1,0,0:0:0:0:
266,35,6760,6,0,P|255:13|235:0,2,48.750001859665,12|0|0,0:1|0:0|0:0,0:0:0:0:
322,87,7014,1,0,0:0:0:0:
316,180,7099,2,0,P|286:196|236:190,1,65,2|0,0:0|0:0,0:0:0:0:
202,257,7269,2,0,P|170:250|144:231,1,65
25,78,7438,6,0,L|109:92,1,81.25,2|0,0:3|0:0,0:0:0:0:
217,112,7608,1,2,0:0:0:0:
70,294,7777,1,0,0:0:0:0:
81,276,7862,2,0,P|139:248|202:257,1,130
266,306,8116,5,2,0:3:0:0:
423,154,8286,2,0,P|428:180|423:204,1,48.750001859665
316,180,8455,2,0,P|333:200|341:223,1,48.750001859665
481,378,8625,6,0,L|352:357,1,130,2|0,0:0|0:0,0:0:0:0:
495,267,8964,1,0,0:0:0:0:
316,180,9133,2,0,L|509:156,1,195.00000743866,2|0,0:0|0:0,0:0:0:0:
276,384,9472,6,0,P|228:340|165:330,1,130,2|0,0:3|0:0,0:0:0:0:
135,258,9726,1,0,0:0:0:0:
101,284,9810,1,2,0:0:0:0:
86,324,9895,1,0,0:0:0:0:
95,366,9980,1,0,0:0:0:0:
206,203,10150,5,2,0:3:0:0:
20,182,10320,1,0,0:0:0:0:
36,176,10404,1,0,0:0:0:0:
69,103,10489,2,0,P|90:92|114:89,2,48.750001859665
206,203,10828,5,2,0:3:0:0:
294,21,10998,1,0,0:0:0:0:
289,3,11082,1,0,0:0:0:0:
221,48,11167,2,0,P|207:67|200:90,1,48.750001859665
206,203,11337,6,0,L|368:183,1,130,2|0,0:0|0:0,0:0:0:0:
431,20,11675,2,0,B|496:111|412:181|412:181|410:138|362:108,1,243.75,2|0,0:0|0:0,0:0:0:0:
335,187,12014,2,0,P|304:221|319:280,1,97.50000371933,2|0,0:0|0:0,0:0:0:0:
470,352,12184,6,0,B|507:376|507:376|357:356,1,195.00000743866,12|0,0:1|0:0,0:0:0:0:
252,344,12438,1,0,0:0:0:0:
242,327,12523,2,0,P|265:285|310:269,1,97.50000371933
386,127,12692,5,2,0:0:0:0:
438,139,12777,1,0,0:0:0:0:
490,151,12862,1,2,0:3:0:0:
436,152,12947,1,0,0:0:0:0:
382,154,13032,1,0,0:0:0:0:
279,23,13201,2,0,P|294:50|296:91,1,65,2|0,0:0|0:0,0:0:0:0:
195,233,13370,2,0,P|210:204|213:172,1,65
29,89,13540,5,2,0:3:0:0:
97,52,13709,1,0,0:0:0:0:
105,75,13793,1,0,0:0:0:0:
105,100,13878,1,0,0:0:0:0:
98,123,13963,1,0,0:0:0:0:
84,143,14047,1,0,0:0:0:0:
29,89,14218,5,2,0:3:0:0:
165,0,14387,1,0,0:0:0:0:
199,34,14471,1,0,0:0:0:0:
220,78,14556,1,0,0:0:0:0:
225,126,14641,1,0,0:0:0:0:
214,173,14725,1,0,0:0:0:0:
15,363,14896,6,0,B|50:342|50:342|69:221,1,162.5,12|0,0:1|0:0,0:0:0:0:
182,370,15150,1,0,0:0:0:0:
168,361,15235,2,0,B|143:339|143:339|138:291,1,81.25
84,143,15404,1,2,0:0:0:0:
293,188,15574,6,0,L|214:173,1,81.25,2|0,0:3|0:0,0:0:0:0:
98,65,15743,2,0,P|121:72|139:87,1,48.750001859665
69,220,15913,2,0,P|93:220|116:212,1,48.750001859665,2|0,0:0|0:0,0:0:0:0:
194,4,16082,2,0,P|206:24|211:48,1,48.750001859665
138,291,16252,5,2,0:3:0:0:
271,194,16421,1,0,0:0:0:0:
294,222,16505,1,0,0:0:0:0:
327,238,16590,1,0,0:0:0:0:
363,240,16675,1,0,0:0:0:0:
397,228,16759,1,0,0:0:0:0:
138,291,16930,5,2,0:3:0:0:
260,369,17099,1,0,0:0:0:0:
315,383,17183,1,0,0:0:0:0:
371,374,17268,1,0,0:0:0:0:
418,342,17353,1,0,0:0:0:0:
449,294,17437,1,0,0:0:0:0:
308,85,17608,6,0,B|336:107|336:107|349:165,2,81.25,12|0|0,0:1|0:0|0:0,0:0:0:0:
381,9,17862,1,0,0:0:0:0:
396,33,17947,2,0,P|431:51|471:48,1,81.25
317,228,18116,2,0,P|284:205|269:167,1,81.25
168,5,18286,6,0,L|153:100,1,81.25,2|0,0:3|0:0,0:0:0:0:
128,227,18455,1,0,0:0:0:0:
13,45,18625,1,0,0:0:0:0:
22,27,18709,2,0,B|78:85|78:85|54:164,1,162.5
26,239,18964,5,2,0:0:0:0:
234,377,19133,2,0,P|206:347|168:335,1,81.25
270,168,19303,2,0,P|234:186|194:184,1,81.25
157,254,19472,1,0,0:0:0:0:
412,103,19642,5,2,0:0:0:0:
176,103,19811,2,0,P|211:84|251:86,1,81.25
265,295,19981,2,0,P|298:273|316:237,1,81.25
341,137,20150,1,0,0:0:0:0:
497,383,20320,6,0,L|386:368,1,97.50000371933,12|0,0:1|0:0,0:0:0:0:
512,272,20574,2,0,L|382:287,2,130
408,178,20998,2,0,L|473:186,2,65,2|0|0,0:3|0:0|0:0,0:0:0:0:
482,55,21337,1,0,0:0:0:0:
495,71,21421,2,0,L|360:93,1,130
299,0,21675,6,0,P|296:32|280:60,2,65,2|0|0,0:0|0:0|0:0,0:0:0:0:
246,206,21930,2,0,P|243:173|227:145,2,65,2|0|0,0:0|0:0|0:0,0:0:0:0:
0,96,22184,2,0,L|105:84,1,81.25,2|0,0:0|0:0,0:0:0:0:
158,76,22353,6,0,L|207:70,1,45.5,2|0,0:3|0:0,0:0:0:0:
434,68,23031,6,0,B|407:22|336:17|364:51|284:49|259:-9,2,195,2|0|0,1:2|0:0|0:0,0:0:0:0:
354,197,23709,2,0,P|349:152|368:111,1,91
464,347,24387,6,0,B|523:356|533:278|506:252|393:243|388:340,2,243.75,2|0|0,1:2|0:0|0:0,0:0:0:0:
354,197,25065,2,0,P|306:227|175:213,1,182
74,346,25743,6,0,B|92:388|92:388|154:317|109:252,1,195.00000743866,2|0,1:2|0:0,0:0:0:0:
266,195,25998,2,0,P|205:122|110:118,1,195.00000743866,2|0,0:0|0:0,0:0:0:0:
21,66,26252,2,0,B|34:118|34:118|31:84|55:59,1,97.50000371933,2|0,0:0|0:0,0:0:0:0:
109,252,26421,5,10,0:0:0:0:
199,26,26591,2,0,L|188:80,1,52,8|0,0:0|0:0,0:0:0:0:
266,195,27099,6,0,B|279:148|322:131|364:152|364:152|373:199|423:215,1,195.00000743866,2|0,1:2|0:0,0:0:0:0:
431,329,27353,2,0,P|413:250|451:134,1,195.00000743866,2|0,0:0|0:0,0:0:0:0:
346,39,27608,2,0,P|371:16|443:8,1,97.50000371933,2|0,0:0|0:0,0:0:0:0:
486,71,27777,5,10,0:0:0:0:
328,369,28116,2,0,L|360:374,2,32.5,8|8|8,0:0|0:0|0:0,0:0:0:0:
271,313,28286,1,8,0:0:0:0:
250,316,28370,1,8,0:0:0:0:
194,380,28455,6,0,B|163:341|109:348|109:348|163:330|176:278,2,195,2|0|0,1:2|0:0|0:0,0:0:0:0:
34,199,29133,2,0,P|78:190|118:208,1,91
281,214,29811,6,0,P|200:283|34:241,2,243.75,2|0|0,1:2|0:0|0:0,0:0:0:0:
169,0,30489,2,0,B|188:111|188:111|180:131|180:131|204:259,2,243.75,2|0|0,0:0|0:0|0:0,0:0:0:0:
393,156,31167,6,0,B|417:200|417:200|283:182,1,162.5,2|0,1:2|0:0,0:0:0:0:
200,238,31421,2,0,P|221:180|207:74,1,162.5
273,279,31675,2,0,P|243:310|191:317,1,81.25
27,128,31845,5,8,0:0:0:0:
84,370,32014,2,0,L|93:307,1,52,8|0,0:0|0:0,0:0:0:0:
129,56,32523,6,0,L|117:133,1,78,2|2,1:2|0:0,0:0:0:0:
117,133,33540,2,2,P|145:15|234:97,1,292.50001115799,2|0,0:0|0:0,0:0:0:0:
485,283,33879,6,2,B|477:279|485:283|485:283|488:281|488:281|487:284|487:284|496:291|501:301|499:312|499:312|503:314|503:314|499:316|499:316|497:324|491:334|480:338|480:338|480:341|480:341|478:339|478:339|468:342|457:340|448:333|448:333|445:334|445:334|446:331|446:331|439:324|436:312|439:301|439:301|436:300|436:300|439:299|439:299|443:289|452:281|463:279|463:279|463:276|463:276|458:280,1,204.749993751526,6|0,1:0|0:0,0:0:0:0:
408,161,35235,6,2,B|409:167|409:167|410:161|410:161|398:158|394:149|391:140|391:140|384:141|384:141|389:138|389:138|385:126|385:117|390:108|390:108|386:104|386:104|392:105|392:105|396:96|404:89|412:86|412:86|412:79|412:79|415:84|415:84|426:81|436:82|445:86|445:86|449:81|449:81|448:88|448:88|457:93|464:100|467:108|467:108|473:108|473:108|468:111|468:111|471:122|471:131|468:140|468:140|472:143|472:143|466:141|466:141|461:152|453:158|445:162|445:162|445:168|445:168|442:164|442:164|436:168|445:168,1,302.249988008881,2|2,0:1|0:1,0:0:0:0:
361,261,36591,6,2,B|340:261|351:259|362:261|362:261|365:252|365:252|366:262|366:262|376:264|386:271|393:279|393:279|402:274|402:274|395:281|395:281|401:291|405:302|405:313|405:313|414:314|414:314|404:316|404:316|404:327|400:338|392:347|392:347|398:354|398:354|390:349|390:349|383:357|373:363|361:365|361:365|361:374|361:374|358:365|358:365|348:366|337:364|326:358|326:358|320:365|320:365|324:357|324:357|315:352|307:342|303:331|303:331|293:332|293:332|302:328|302:328|299:319|299:307|303:295|303:295|294:291|294:291|304:293|304:293|309:284|315:274|325:268|325:268|322:259|322:259|325:263,1,458.24999300766,2|2,2:1|2:1,0:0:0:0:
195,151,37947,6,2,B|210:158|197:148|197:148|183:164|183:164|193:148|193:148|181:138|174:122|174:122|155:131|155:131|173:121|173:121|166:107|164:91|164:91|144:91|144:91|163:88|163:88|163:73|168:58|168:58|151:50|151:50|168:55|168:55|175:40|186:29|186:29|173:14|173:14|188:26|188:26|200:15|214:10|214:10|209:-7|209:-7|217:9|217:9|233:5|247:5|247:5|251:-14|251:-14|251:6|251:6|266:6|280:14|280:14|291:0|291:0|283:16|283:16|298:24|306:37|306:37|323:27|323:27|308:39|308:39|317:52|319:67|319:67|339:65|339:65|321:70|321:70|324:85|321:102|321:102|340:106|340:106|321:104|321:104|316:119|306:132|306:132|321:146|321:146|303:134|303:134|294:147|281:154|281:154|289:172|289:172|278:156|278:156|265:162|248:164|248:164|248:184|248:184|244:165,1,975,2|0,0:1|0:0,0:0:0:0:
211,318,39303,6,2,B|205:322|205:322|223:345|223:345|203:323|203:323|194:329|185:334|185:334|195:361|195:361|183:336|183:336|173:339|163:342|163:342|167:370|167:370|160:343|160:343|150:344|139:344|139:344|138:373|138:373|137:344|137:344|126:344|116:342|116:342|108:370|108:370|113:342|113:342|104:339|94:335|94:335|81:359|81:359|91:333|91:333|82:329|74:322|74:322|56:343|56:343|71:321|71:321|63:314|56:304|56:304|33:323|33:323|55:302|55:302|48:293|42:284|42:284|16:296|16:296|42:282|42:282|37:273|34:263|34:263|6:268|6:268|33:259|33:259|31:250|30:239|30:239|2:239|2:239|30:237|30:237|30:226|32:216|32:216|4:210|4:210|33:213|33:213|35:204|39:193|39:193|13:181|13:181|40:191|40:191|44:182|51:173|51:173|28:156|28:156|52:171|52:171|58:163|66:156|66:156|48:133|48:133|69:153|69:153|77:147|85:141|85:141|72:115|72:115|87:139|87:139|97:135|107:131|107:131|100:103|100:103|110:130|110:130|119:128|130:127|130:127|130:99|130:99|132:126|132:126|143:126|153:127|153:127|158:100|158:100|156:128|156:128|166:129|176:133|176:133|187:107|187:107|179:134|179:134|188:137|197:144|197:144|215:121|215:121|199:145|199:145|208:151|216:159|216:159|239:139|239:139|220:161|220:161|227:169|232:177|232:177|257:164|257:164|234:179|234:179|239:189|242:198|242:198|269:191|269:191|243:201|243:201|247:211|248:222|248:222|276:219|276:219|249:224|249:224|249:234|249:245|249:245|276:250|276:250|248:248|248:248|247:258|243:268|243:268|269:278|269:278|242:270|242:270|239:280|234:289|234:289|257:305|257:305|233:292,1,2096.25003198624,2|0,0:1|2:0,0:0:0:0:
500,132,40659,6,2,B|459:148|459:148|502:138|502:138|503:144|505:149|505:149|462:162|462:162|506:156|506:156|507:162|508:167|508:167|464:174|464:174|508:172|508:172|509:178|509:184|509:184|465:187|465:187|509:190|509:190|509:195|508:201|508:201|464:200|464:200|508:207|508:207|507:213|506:219|506:219|462:213|462:213|505:225|505:225|504:230|502:235|502:235|459:226|459:226|501:241|501:241|500:247|499:253|499:253|455:238|455:238|496:257|496:257|494:263|491:268|491:268|449:250|449:250|489:273|489:273|486:278|482:284|482:284|442:261|442:261|479:288|479:288|476:293|472:297|472:297|436:271|436:271|469:302|469:302|465:307|461:311|461:311|427:281|427:281|457:315|457:315|453:319|448:323|448:323|417:289|417:289|444:326|444:326|439:330|435:333|435:333|407:298|407:298|430:336|430:336|425:339|420:342|420:342|396:305|396:305|415:345|415:345|410:348|405:350|405:350|384:311|384:311|400:352|400:352|394:354|388:356|388:356|372:315|372:315|383:358|383:358|377:360|372:361|372:361|359:319|359:319|366:362|366:362|360:363|354:364|354:364|346:320|346:320|348:365|348:365|344:365|338:366|338:366|334:321|334:321|331:366|331:366|325:366|319:366|319:366|320:321|320:321|315:365|315:365|309:364|303:364|303:364|308:319|308:319|298:363|298:363|292:361|286:360|286:360|296:317|296:317|281:358|281:358|275:356|270:354|270:354|284:313|284:313|264:352|264:352|259:350|254:348|254:348|271:307|271:307|249:345|249:345|244:342|239:339|239:339|260:300|260:300|234:337|234:337|230:333|225:330|225:330|251:293|251:293|221:327|221:327|216:323|212:319|212:319|241:285|241:285|207:316|207:316|203:312|199:307|199:307|232:275|232:275|195:303|195:303|193:298|189:293|189:293|224:265|224:265|185:288|185:288|182:284|179:279|179:279|217:254|217:254|176:274|176:274|173:269|170:263|170:263|211:243|211:243|168:258|168:258|166:253|164:248|164:248|206:230|206:230|162:242|162:242|161:236|159:231|159:231|203:218|203:218|158:226|158:226|157:220|156:214|156:214|200:205|200:205|155:208|155:208|155:202|154:196|154:196|199:193|199:193|154:191|154:191|154:185|154:179|154:179|199:179|199:179|155:173|155:173|155:167|156:162|156:162|201:166|201:166|157:156|157:156|158:150|159:144|159:144|204:154|204:154|161:139|161:139|162:133|164:129|164:129|208:141|208:141|166:124|166:124|168:118|170:113|170:113|213:131|213:131|173:107|173:107|176:102|179:98|179:98|219:119|219:119|182:93|182:93|185:88|189:83|189:83|226:108|226:108|192:78|192:78|195:73|199:70|199:70|235:98|235:98|203:65|203:65|207:61|212:57|212:57|244:89|244:89|216:53|216:53|221:49|225:45|225:45|254:80|254:80|230:42|230:42|235:39|240:36|240:36|264:73|264:73|245:33|245:33|250:30|254:28|254:28|276:68|276:68|259:25|259:25|264:23|270:21|270:21|287:63|287:63|275:19|275:19|281:17|286:15|286:15|300:59|300:59|292:14|292:14|298:13|303:11|303:11|312:56|312:56|308:11|308:11|314:10|319:9|319:9|325:55|325:55|325:9|325:9|331:9|337:9|337:9|338:55|338:55|343:9|343:9|348:10|354:11|354:11|350:57|350:57|360:11|360:11|366:13|372:14|372:14|363:59|363:59|377:15|377:15|383:17|388:19|388:19|376:63|376:63|394:21|394:21|400:23|405:25|405:25|388:68|388:68|410:28|410:28|415:31|420:34|420:34|400:73|400:73|425:37|425:37|430:40|435:42|435:42|410:81|410:81|439:46|439:46|444:50|448:53|448:53|420:89|420:89|453:57|453:57|457:62|461:66|461:66|430:99|430:99|465:70|465:70|469:74|472:79|472:79|438:108|438:108|476:83|476:83|479:88|482:93|482:93|445:119|445:119|485:98|485:98|488:102|491:107|491:107|451:131|451:131|494:113|494:113|496:119|498:124|498:124|457:142|457:142|500:132,1,6220.49981135188,2|0,0:1|0:0,0:0:0:0:
332,188,42014,5,4,1:0:0:0:
256,192,42099,12,0,43286,0:0:0:0:
182,381,43370,6,0,P|128:302|141:207,1,195.00000743866,2|0,1:2|0:0,0:0:0:0:
273,125,43625,6,0,P|300:231|221:305,1,227.500002169609,0|0,1:0|0:0,0:0:0:0:
96,279,43879,2,0,L|41:268,2,56.8750005424023,0|0|0,1:0|0:0|1:0,0:0:0:0:
424,264,44048,6,0,L|468:272,1,45.5,2|0,1:2|0:0,0:0:0:0:
309,311,44726,6,0,B|319:345|319:345|358:282|314:220,1,162.5,12|0,1:1|0:0,0:0:0:0:
509,184,44981,2,0,L|381:163,1,130,2|0,1:2|0:0,0:0:0:0:
169,135,45235,1,2,1:2:0:0:
148,131,45320,1,0,0:0:0:0:
309,311,45404,6,0,P|231:333|173:269,1,162.5,2|0,1:2|0:0,0:0:0:0:
265,97,45659,2,0,P|243:175|252:260,1,162.5,2|0,1:2|0:0,0:0:0:0:
53,206,45913,1,2,1:2:0:0:
24,212,45998,1,0,0:0:0:0:
49,347,46082,6,0,B|67:193|67:193|71:194|71:194|67:193|67:193|75:125,1,227.500002169609,8|0,1:0|0:0,0:0:0:0:
219,379,46337,2,0,B|176:361|176:361|155:181,1,227.500002169609,2|0,1:2|0:0,0:0:0:0:
60,17,46591,2,0,P|118:32|139:85,1,113.750001084805,2|0,1:2|0:0,0:0:0:0:
313,304,46760,6,0,B|389:286|389:286|376:280|376:280|461:260,2,175.499994644165,2|2|2,0:0|0:0|0:0,0:0:0:0:
457,261,47438,6,0,P|385:201|291:217,1,195.00000743866,6|0,1:2|0:0,0:0:0:0:
487,362,47692,2,0,P|475:286|508:173,1,195.00000743866,2|0,1:2|0:0,0:0:0:0:
363,55,47947,2,0,P|401:27|449:28,1,97.50000371933,2|0,1:2|0:0,0:0:0:0:
427,103,48116,6,0,B|271:78|271:78|246:19|246:19|280:34,1,260,10|0,1:3|0:0,0:0:0:0:
427,103,48370,2,0,L|297:116,1,130,8|0,0:0|1:0,0:0:0:0:
49,51,48540,1,8,0:0:0:0:
112,4,48625,2,0,B|159:16|159:16|189:91,1,130,8|0,0:0|0:0,0:0:0:0:
275,380,48794,6,0,P|248:287|274:194,1,195.00000743866,6|0,1:2|0:0,0:0:0:0:
391,332,49048,2,0,P|312:278|219:297,1,195.00000743866,2|0,1:2|0:0,0:0:0:0:
22,154,49303,2,0,P|25:202|7:247,1,97.50000371933,2|0,1:2|0:0,0:0:0:0:
137,357,49472,5,10,1:3:0:0:
160,361,49557,1,0,0:0:0:0:
77,306,49642,5,8,0:0:0:0:
211,291,49726,1,8,0:0:0:0:
168,219,49811,5,10,1:3:0:0:
170,207,49896,1,0,0:0:0:0:
172,195,49981,1,0,0:0:0:0:
174,183,50065,1,0,0:0:0:0:
186,104,50150,6,0,P|161:84|130:80,1,65,12|0,1:0|0:0,0:0:0:0:
27,39,50404,2,0,P|50:82|50:135,1,97.50000371933,2|0,1:2|0:0,0:0:0:0:
262,81,50659,2,0,P|267:112|257:143,1,65,2|0,1:2|0:0,0:0:0:0:
74,384,50828,6,0,P|100:308|80:230,1,162.5,2|0,1:2|0:0,0:0:0:0:
281,130,51082,2,0,P|226:187|147:181,1,162.5,2|0,1:2|0:0,0:0:0:0:
79,307,51337,5,2,1:2:0:0:
189,280,51421,1,0,0:0:0:0:
299,254,51506,2,0,B|330:248|365:260|387:298|387:298|358:292|322:301|300:341,1,195.00000743866,8|0,1:1|0:0,0:0:0:0:
371,376,51760,6,0,P|347:275|380:152,1,195.00000743866,2|0,1:2|0:0,0:0:0:0:
491,297,52014,2,0,P|474:360|453:386,1,97.50000371933,2|0,1:2|0:0,0:0:0:0:
273,163,52184,6,0,B|425:135|425:135|423:140|423:140|425:135|425:135|496:121,1,227.500002169609,2|0,1:2|0:0,0:0:0:0:
305,53,52438,2,0,B|341:24|341:24|407:36,1,113.750001084805,2|0,1:2|0:0,0:0:0:0:
511,199,52608,5,0,0:0:0:0:
503,218,52692,2,0,B|473:275|473:275|464:211,1,130,2|0,1:2|0:0,0:0:0:0:
286,142,52862,6,0,B|227:132|227:132|238:127|238:127|180:118,1,130,6|0,1:2|0:0,0:0:0:0:
167,115,53116,1,0,1:0:0:0:
26,74,53201,6,0,B|5:20|5:20|111:1|111:1|104:63,1,227.500002169609,8|0,0:3|0:0,0:0:0:0:
178,200,53370,2,0,B|158:242|158:242|77:258,1,130,0|0,1:2|0:0,0:0:0:0:
2,277,53540,6,0,L|260:304,1,260,8|0,1:3|0:0,0:0:0:0:
454,322,53794,2,0,B|339:335|339:335|353:290,1,162.5,8|0,0:0|1:0,0:0:0:0:
308,223,53964,1,0,0:0:0:0:
506,253,54048,6,2,P|413:181|300:213,1,243.750005811453,10|0,0:0|0:0,2:0:0:0:
119,326,54218,6,0,P|194:347|260:303,1,162.5,10|0,1:3|0:0,0:0:0:0:
305,4,54387,2,0,L|292:100,1,97.50000371933,0|0,0:0|1:0,0:0:0:0:
291,100,54557,6,2,B|436:60|436:60|371:71|371:71|370:67|370:67|371:71|371:71|206:99,1,390.00001487732,2|0,1:0|1:0,0:2:0:0:
110,91,54811,5,8,0:0:0:0:
206,77,54896,2,0,L|125:89,1,81.25,10|0,1:3|0:0,0:0:0:0:
64,9,55065,2,0,L|15:1,1,48.750001859665,8|0,1:3|1:0,0:0:0:0:
357,136,55404,6,0,P|371:130|388:130,1,32.5,10|0,0:0|0:0,0:0:0:0:
359,148,55489,2,0,P|383:152|405:164,1,48.750001859665,10|0,0:0|0:0,0:0:0:0:
231,240,55574,6,0,B|328:223|328:223|291:210|273:179|279:130,1,195.00000743866,6|0,1:2|0:0,0:0:0:0:
495,214,55828,5,2,1:0:0:0:
491,234,55913,1,2,0:0:0:0:
408,174,55998,1,2,0:0:0:0:
492,134,56082,6,0,B|454:132|426:157|419:197|419:197|413:230|413:230|416:229|416:229|413:231|413:231|404:281|404:281|345:300,1,243.750005811453,2|0,1:2|0:0,0:0:0:0:
180,347,56252,6,0,B|100:307|100:307|299:344,1,292.50001115799,2|0,1:2|0:0,0:0:0:0:
457,353,56591,5,2,1:3:0:0:
475,349,56675,1,0,0:0:0:0:
460,371,56760,1,0,0:0:0:0:
479,368,56845,1,0,0:0:0:0:
381,384,56930,6,0,B|333:368|333:368|294:157,1,260,6|0,1:2|0:0,0:0:0:0:
480,3,57184,2,0,B|508:52|508:52|471:131|471:131|357:107,1,260,2|0,1:2|0:0,0:0:0:0:
181,182,57439,2,0,B|168:122|168:122|234:106,1,130,2|0,1:2|0:0,0:0:0:0:
395,31,57608,5,10,0:2:0:0:
294,162,57744,5,8,0:2:0:0:
231,9,57879,5,8,0:2:0:0:
307,37,58015,5,0,0:0:0:0:
145,101,58151,5,0,0:0:0:0:
0,84,58286,6,0,B|-20:43|-20:43|74:45|72:147,1,195.00000743866,6|0,1:2|0:0,0:0:0:0:
200,23,58540,2,0,P|153:125|162:237,1,227.500002169609,2|0,1:2|0:0,0:0:0:0:
20,345,58795,2,0,P|74:348|115:312,1,113.750001084805,2|0,1:2|0:0,0:0:0:0:
291,381,58964,6,0,B|272:301|272:301|221:271,1,130,8|0,1:3|0:0,0:0:0:0:
63,134,59134,1,8,0:0:0:0:
1,223,59218,2,0,L|277:182,1,260,8|0,0:0|0:0,0:0:0:0:
475,153,59473,2,0,B|504:125|504:125|476:70|396:60|355:124,1,195,8|0,0:0|0:0,0:0:0:0:
288,59,59642,6,0,P|355:167|351:295,1,260,6|0,1:2|0:0,0:0:0:0:
193,273,59896,2,0,P|201:376|272:301,1,260,2|0,1:2|0:0,0:0:0:0:
475,153,60151,2,0,P|426:118|416:205,1,162.5,2|0,1:2|0:0,0:0:0:0:
481,351,60320,5,2,1:2:0:0:
471,369,60404,1,0,0:0:0:0:
448,326,60490,1,0,0:0:0:0:
459,281,60574,1,0,0:0:0:0:
512,222,60659,5,8,0:0:0:0:
475,153,60744,1,8,0:0:0:0:
391,115,60829,1,8,0:0:0:0:
291,143,60913,1,8,0:0:0:0:
225,233,60998,6,0,B|246:242|246:242|213:174|135:196,1,130,12|0,1:0|0:0,0:0:0:0:
45,106,61252,2,0,P|70:147|69:239,1,130,2|0,1:2|0:0,0:0:0:0:
309,282,61506,2,0,P|284:309|248:314,1,65,2|0,1:2|0:0,0:0:0:0:
23,343,61675,6,0,P|95:308|175:316,1,162.5,2|0,1:2|0:0,0:0:0:0:
373,227,61930,2,0,P|335:298|339:378,1,162.5,2|0,1:2|0:0,0:0:0:0:
426,338,62184,1,2,1:2:0:0:
420,315,62269,1,0,0:0:0:0:
289,153,62354,5,8,1:1:0:0:
380,136,62439,2,0,L|476:119,1,97.50000371933,2|0,0:2|1:0,0:0:0:0:
229,48,62608,2,0,B|251:103|251:103|404:129,1,195.00000743866,2|0,1:2|0:0,0:0:0:0:
512,287,62862,2,0,B|526:241|526:241|489:190,1,97.50000371933,2|0,1:2|0:0,0:0:0:0:
309,14,63031,5,8,1:2:0:0:
385,2,63116,1,10,0:2:0:0:
311,29,63201,1,8,0:2:0:0:
387,17,63286,1,10,1:2:0:0:
222,236,63455,1,0,0:2:0:0:
203,153,63539,1,2,1:2:0:0:
37,0,63709,5,6,1:2:0:0:
13,87,63794,2,0,P|45:123|49:171,1,97.50000371933
154,306,63963,2,0,B|138:347|138:347|76:277|125:192,1,195.00000743866,2|0,1:2|0:0,0:0:0:0:
129,129,64217,2,0,P|82:136|49:171,1,97.50000371933,2|0,0:2|0:0,0:0:0:0:
60,383,64387,6,0,B|147:366|147:366|156:343|156:343|335:309,1,260,10|0,1:3|0:0,0:0:0:0:
504,302,64642,2,0,B|490:367|490:367|423:354,1,130,8|0,0:0|1:0,0:0:0:0:
250,226,64812,1,8,0:0:0:0:
426,271,64896,6,2,P|348:216|254:235,1,195,10|0,0:0|0:0,0:2:0:0:
187,305,65066,6,0,P|240:337|300:317,1,130,6|0,1:2|0:0,0:0:0:0:
390,117,65235,1,0,0:0:0:0:
410,123,65320,1,0,0:0:0:0:
474,24,65405,6,0,P|414:4|361:37,1,130,6|0,1:2|0:0,0:0:0:0:
313,135,65574,1,0,0:0:0:0:
293,129,65659,1,0,0:0:0:0:
184,13,65744,6,0,L|214:174,1,146.250005578995,10|0,1:3|0:0,0:0:0:0:
119,380,65913,6,0,L|104:303,1,78,10|0,0:0|0:0,0:0:0:0:
13,127,66252,6,0,L|32:231,1,97.50000371933,2|0,0:0|0:0,0:0:0:0:
24,379,66422,6,0,B|34:355|34:355|29:329,1,52,8|0,1:0|0:0,0:0:0:0:
124,348,66676,2,0,B|120:322|120:322|103:302,1,52
195,271,66930,2,0,B|179:250|179:250|154:241,1,52
220,347,67183,5,0,0:0:0:0:
238,357,67268,1,0,0:0:0:0:
260,323,67353,1,0,0:0:0:0:
326,384,67438,2,0,L|331:352,4,24.3750009298325
436,247,67692,1,0,0:0:0:0:
424,327,67777,6,0,B|463:357|463:357|509:343,1,97.50000371933,8|0,1:0|0:0,0:0:0:0:
377,181,68031,2,0,B|396:226|396:226|443:237,1,97.50000371933
413,22,68286,2,0,B|406:70|406:70|442:103,1,97.50000371933,0|0,1:0|0:0,0:0:0:0:
246,97,68455,6,2,B|224:39|296:-10|264:39|337:35|337:-39|272:-73|170:-47|124:31|139:106|219:147|258:148|258:148|266:143|266:143|239:208|326:234|373:190|362:86|290:75,1,650,4|0,0:1|1:0,0:1:0:0:
320,88,68964,2,0,P|344:86|371:122,1,48.750001859665
427,341,69133,6,0,B|432:378|432:378|421:346,1,65,6|0,1:2|0:0,0:0:0:0:
510,375,69387,6,0,B|365:353|365:353|345:295|345:295|273:283,1,260,8|0,1:3|0:0,0:0:0:0:
34,257,69642,2,0,P|88:273|129:205,1,130,2|0,1:2|0:0,0:0:0:0:
280,371,69812,5,10,1:3:0:0:
201,382,69896,1,0,0:0:0:0:
187,372,69981,1,0,0:0:0:0:
213,297,70066,5,8,0:0:0:0:
239,222,70151,1,0,1:3:0:0:
265,147,70235,1,0,0:0:0:0:
190,121,70320,6,0,B|176:60|176:60|258:43,1,130,8|0,0:0|0:0,0:0:0:0:
445,59,70489,6,0,B|536:109|536:109|319:64,1,325,6|0,1:2|0:0,0:0:0:0:
51,124,70743,2,0,B|73:18|73:18|124:-1,2,162.5,8|0|0,1:3|0:0|0:0,0:0:0:0:
16,296,70998,2,0,B|44:318|44:318|34:258,1,97.50000371933,2|0,1:2|0:0,0:0:0:0:
144,85,71167,5,10,1:3:0:0:
148,109,71252,1,0,0:0:0:0:
242,46,71336,5,8,0:0:0:0:
224,190,71421,1,8,0:0:0:0:
295,141,71506,5,8,1:3:0:0:
319,368,71675,1,2,0:2:0:0:
73,316,71845,6,0,B|36:287|-1:297|-1:297|26:318|61:319,1,130,12|0,1:0|0:0,0:0:0:0:
212,383,72100,2,0,P|199:320|206:256,1,130,8|0,1:3|0:0,0:0:0:0:
190,121,72354,2,0,P|204:83|234:56,1,81.25,2|0,1:2|0:0,0:0:0:0:
439,208,72523,6,0,P|349:171|254:184,1,195.00000743866,10|0,1:3|0:0,0:0:0:0:
442,289,72778,2,0,P|405:232|434:84,1,195.00000743866,2|0,1:2|0:0,0:0:0:0:
366,351,73032,2,0,P|338:311|294:290,1,97.50000371933,2|0,1:2|0:0,0:0:0:0:
20,135,73201,6,0,L|132:149,1,113.750001084805,8|0,1:0|0:0,0:0:0:0:
216,249,73370,1,0,0:0:0:0:
2,330,73455,6,0,B|19:281|19:281|228:239,1,260,8|0,1:3|0:0,0:0:0:0:
24,16,73709,2,0,B|44:55|44:55|129:68,1,130,2|0,1:2|0:0,0:0:0:0:
510,140,73879,6,0,B|479:43|348:53|388:95|258:105|229:-3,1,325,10|0,1:3|0:0,0:0:0:0:
133,149,74133,2,0,P|225:154|283:72,1,178.750001704693,2|0,1:2|0:0,0:0:0:0:
457,0,74302,1,0,0:0:0:0:
436,108,74387,2,0,B|423:187|423:187|406:201|406:201|392:294,1,178.750001704693,2|0,1:2|0:0,0:0:0:0:
374,379,74557,6,0,B|463:272|463:272|282:318,1,325,6|0,1:2|0:0,0:0:0:0:
265,322,74812,1,2,1:2:0:0:
180,380,74896,5,8,0:0:0:0:
184,359,74981,1,0,0:0:0:0:
207,207,75066,2,0,B|239:241|239:241|190:253,1,97.50000371933,2|0,1:2|0:0,0:0:0:0:
6,341,75235,5,10,1:3:0:0:
83,327,75320,1,0,0:0:0:0:
88,309,75405,1,0,0:0:0:0:
29,259,75490,5,8,0:0:0:0:
51,176,75574,1,0,1:0:0:0:
0,107,75659,5,8,0:0:0:0:
60,167,75743,1,2,0:2:0:0:
145,157,75829,1,2,0:2:0:0:
191,76,75913,6,0,P|249:23|324:44,1,162.5,6|0,1:2|0:0,0:0:0:0:
388,207,76082,1,0,0:0:0:0:
406,210,76166,1,0,0:2:0:0:
506,343,76251,6,0,P|430:363|373:311,1,162.5,6|0,1:2|0:0,0:0:0:0:
315,169,76421,1,0,0:0:0:0:
297,166,76505,1,0,0:2:0:0:
511,83,76591,6,0,L|382:104,1,130,6|0,1:2|0:0,0:0:0:0:
183,268,76760,6,0,L|279:252,1,97.50000371933,4|0,0:1|0:0,0:0:0:0:
449,287,76930,6,0,L|384:297,1,65
270,384,77099,6,0,L|318:376,1,48.750001859665
318,376,77269,6,0,L|210:363,1,97.50000371933,6|0,1:2|0:0,0:0:0:0:
23,332,77438,1,0,0:0:0:0:
91,292,77523,2,0,B|118:313|118:313|128:375,1,97.50000371933,2|0,1:2|0:0,0:0:0:0:
0,193,77692,5,0,0:0:0:0:
176,154,77777,2,0,B|205:191|205:191|191:272,1,130,2|0,1:2|0:0,0:0:0:0:
47,122,77946,5,2,1:2:0:0:
59,104,78030,1,0,0:0:0:0:
65,84,78116,1,0,0:0:0:0:
62,62,78201,1,0,0:0:0:0:
161,0,78286,5,2,1:2:0:0:
150,79,78370,1,2,0:2:0:0:
238,146,78455,5,2,0:2:0:0:
226,97,78540,1,2,0:2:0:0:
118,216,78625,6,0,P|177:190|241:197,1,130,2|0,1:3|0:0,0:0:0:0:
431,112,78794,1,0,0:0:0:0:
398,41,78878,5,2,1:2:0:0:
418,118,78963,1,2,0:2:0:0:
392,194,79048,1,2,0:2:0:0:
318,226,79133,2,0,B|309:193|280:175|280:175|316:168|343:125,1,130,2|0,1:2|0:0,0:0:0:0:
265,89,79303,5,8,0:2:0:0:
293,313,79439,5,8,0:2:0:0:
479,179,79574,5,8,0:2:0:0:
318,226,79710,5,0,0:0:0:0:
438,347,79845,5,0,0:0:0:0:
509,253,79981,5,6,1:2:0:0:
509,253,80023,6,0,B|375:279|375:279|419:365|419:365|335:382,1,316.875009065867,2|0,0:2|0:0,0:0:0:0:
105,205,80235,2,0,P|182:193|239:247,1,162.5,2|0,1:2|0:0,0:0:0:0:
265,322,80405,5,2,0:2:0:0:
230,253,80490,1,2,1:2:0:0:
239,173,80574,1,2,0:2:0:0:
296,118,80659,6,0,B|306:42|306:42|194:24,1,162.5,8|0,1:3|0:0,0:0:0:0:
0,83,80828,1,0,0:0:0:0:
61,27,80913,5,8,0:0:0:0:
86,73,80998,1,2,1:2:0:0:
74,125,81082,1,2,0:2:0:0:
32,157,81167,5,8,0:0:0:0:
110,147,81252,1,0,0:0:0:0:
157,209,81337,1,2,1:3:0:0:
153,230,81421,1,2,0:2:0:0:
123,376,81506,5,2,1:2:0:0:
90,287,81591,2,0,B|167:234|284:275|318:376|318:376|274:338,1,325,2|0,1:0|0:0,0:0:0:0:
242,265,81845,5,2,1:2:0:0:
240,171,81930,5,2,1:2:0:0:
295,96,82014,6,0,P|279:66|254:46,1,48.750001859665,2|0,1:2|0:0,0:0:0:0:
383,64,82099,6,0,L|401:-36,1,65,2|0,0:2|0:0,0:0:0:0:
456,124,82184,6,0,P|479:100|511:91,1,48.750001859665,2|0,1:2|0:0,0:0:0:0:
483,212,82269,5,2,1:2:0:0:
426,289,82353,5,2,1:2:0:0:
428,301,82438,1,2,1:2:0:0:
431,315,82523,1,2,1:2:0:0:
434,329,82608,1,2,1:2:0:0:
512,366,82692,6,0,B|430:353|430:353|406:363|406:363|321:349,1,195.00000743866,6|0,1:2|0:0,0:0:0:0:
302,346,82947,1,0,0:0:0:0:
169,156,83032,6,0,B|247:187|260:275|206:343|206:343|186:292|131:280,1,292.50001115799,8|0,0:0|0:0,0:0:0:0:
88,265,83201,2,0,P|146:214|221:238,1,162.5,0|0,1:0|0:0,0:0:0:0:
489,102,83371,6,0,P|369:126|197:23,1,325,2|0,1:2|0:0,0:0:0:0:
100,352,83625,1,2,1:2:0:0:
31,317,83710,2,0,P|2:259|34:158,1,162.5
99,9,83878,6,0,B|40:-7|40:-7|64:91,1,162.5,8|0,0:0|0:0,0:0:0:0:
31,177,84048,5,2,1:3:0:0:
200,28,84133,2,0,B|164:49|164:49|148:149,1,130,2|0,1:2|0:0,0:0:0:0:
120,348,84302,1,0,1:0:0:0:
100,352,84387,5,8,0:0:0:0:
147,275,84471,1,2,0:2:0:0:
232,247,84556,1,2,1:2:0:0:
316,278,84641,5,2,0:2:0:0:
280,84,84726,1,8,0:0:0:0:
284,104,84811,2,0,L|301:199,1,97.50000371933,0|0,1:0|0:0,0:0:0:0:
496,354,84980,5,8,1:3:0:0:
423,380,85066,1,2,0:2:0:0:
349,356,85151,1,2,1:2:0:0:
308,289,85235,2,0,P|333:230|392:206,1,130,8|0,0:0|0:0,0:0:0:0:
471,0,85404,5,6,1:2:0:0:
492,76,85489,2,0,B|507:123|507:123|395:108,1,162.5,2|0,1:2|1:0,0:0:0:0:
177,184,85658,2,0,B|197:78|197:78|251:56,2,162.5,2|0|0,1:2|0:0|0:0,0:0:0:0:
138,384,85912,2,0,B|124:315|124:315|112:303|112:303|95:222,1,162.5,2|0,1:2|0:0,0:0:0:0:
1,53,86082,6,0,L|335:103,1,325,10|0,1:3|0:0,0:0:0:0:
507,123,86337,2,0,B|395:138|395:138|410:91,1,162.5,8|0,0:0|1:0,0:0:0:0:
302,2,86506,1,0,0:0:0:0:
359,216,86591,6,2,P|285:125|309:9,1,243.750005811453,10|0,0:0|1:0,0:0:0:0:
466,247,86761,6,0,P|413:304|335:297,1,162.5,6|0,1:2|0:0,0:0:0:0:
177,184,86930,1,0,0:0:0:0:
158,179,87015,1,0,0:0:0:0:
65,46,87100,6,0,P|143:38|195:96,1,162.5,6|0,1:2|0:0,0:0:0:0:
229,248,87269,1,0,0:0:0:0:
248,253,87354,1,0,0:0:0:0:
104,373,87439,6,0,L|81:212,1,162.5,8|0,1:3|0:0,0:0:0:0:
181,0,87608,6,0,L|195:100,1,97.5,8|0,1:3|0:0,0:0:0:0:
0,163,87947,6,2,B|169:185|169:185|179:198|179:198|385:226,1,390.00001487732,8|12,1:3|1:0,0:0:0:0:
489,61,89132,6,0,P|406:58|308:136,1,195,2|0,3:0|0:0,0:0:0:0:
226,0,89810,2,0,L|238:99,1,97.50000371933
102,251,90149,5,2,3:0:0:0:
41,170,90319,1,0,0:0:0:0:
49,172,90404,1,0,0:0:0:0:
57,174,90488,1,2,0:3:0:0:
126,118,90658,1,0,0:0:0:0:
208,149,90827,1,0,0:0:0:0:
55,378,91166,5,2,3:0:0:0:
55,378,91505,2,0,L|86:384,1,32.5,2|0,0:3|0:0,0:0:0:0:
151,311,91675,2,0,L|175:332,1,32.5
268,307,91844,1,0,0:0:0:0:
270,315,91929,1,0,0:0:0:0:
272,323,92014,1,0,0:0:0:0:
274,331,92099,1,0,0:0:0:0:
276,339,92183,6,0,P|339:281|470:277,1,195,8|0,3:1|3:0,0:0:0:0:
323,74,92861,2,0,P|328:96|327:111,1,32.5,2|0,0:3|0:0,0:0:0:0:
486,121,93031,2,0,P|479:142|470:155,1,32.5
369,244,93200,5,2,3:0:0:0:
426,19,93539,1,0,0:0:0:0:
203,83,93878,1,2,0:3:0:0:
259,187,94217,6,0,P|215:167|164:171,1,97.50000371933,2|0,3:0|0:0,0:0:0:0:
318,7,94556,2,0,L|334:103,1,97.50000371933,2|0,3:0|0:0,0:0:0:0:
364,283,94895,1,0,0:0:0:0:
366,291,94980,1,0,0:0:0:0:
368,299,95065,1,0,0:0:0:0:
370,307,95150,1,0,0:0:0:0:
372,315,95234,6,0,P|325:328|294:365,1,97.50000371933,2|0,3:0|0:0,0:0:0:0:
105,266,95573,1,2,3:0:0:0:
153,257,95657,1,0,3:0:0:0:
201,249,95742,1,0,3:0:0:0:
439,366,95912,6,0,L|487:374,3,48.750001859665,0|0|0|0,3:0|0:0|0:0|0:0,0:0:0:0:
372,314,96251,5,8,3:1:0:0:
333,172,96422,1,2,0:3:0:0:
426,56,96591,2,0,P|370:87|306:87,1,130,2|0,0:3|0:0,0:0:0:0:
449,263,96930,2,0,P|364:216|268:219,1,195
203,262,97268,5,2,3:0:0:0:
32,86,97438,2,0,L|41:147,1,52
134,61,97946,2,0,L|122:172,1,97.50000371933
65,7,98285,5,2,3:3:0:0:
162,229,98454,1,2,0:3:0:0:
306,34,98623,1,2,0:3:0:0:
231,57,98794,1,0,0:0:0:0:
306,34,98963,5,2,0:3:0:0:
236,203,99133,1,2,0:3:0:0:
361,340,99302,2,0,L|216:323,1,130,2|0,3:3|0:0,0:0:0:0:
383,162,99641,5,2,3:0:0:0:
391,210,99726,1,0,3:0:0:0:
400,258,99810,1,0,3:0:0:0:
174,382,99980,1,2,3:0:0:0:
166,380,100065,1,0,0:0:0:0:
158,378,100150,1,0,0:0:0:0:
150,376,100235,1,0,0:0:0:0:
111,284,100319,6,0,P|63:326|0:334,1,130,8|0,3:1|0:0,0:0:0:0:
99,191,100658,1,2,0:3:0:0:
64,376,100827,1,2,0:3:0:0:
242,313,100997,1,2,0:3:0:0:
19,210,101166,1,2,0:3:0:0:
219,68,101336,6,0,P|196:138|210:208,1,130,2|0,3:0|0:0,0:0:0:0:
14,10,101675,2,0,L|142:27,1,130,2|0,0:3|0:0,0:0:0:0:
274,246,102014,2,0,P|348:187|441:201,1,195,2|0,0:3|0:0,0:0:0:0:
505,254,102353,5,2,3:0:0:0:
381,143,102522,2,0,L|391:88,2,48.750001859665
340,360,102861,6,0,L|330:308,1,52,2|0,3:0|0:0,0:0:0:0:
421,384,103370,6,0,L|436:274,1,97.50000371933,2|0,3:0|0:0,0:0:0:0:
212,334,103709,2,0,L|269:217,1,130,2|0,3:0|3:0,0:0:0:0:
83,160,104048,5,2,3:0:0:0:
141,109,104161,5,0,3:0:0:0:
96,235,104274,5,0,3:0:0:0:
8,132,104387,6,0,P|47:200|28:277,1,162.5,8|0,3:1|0:0,0:0:0:0:
171,5,104726,2,0,P|212:52|275:62,1,130,2|0,0:3|0:0,0:0:0:0:
458,176,105065,6,0,L|407:167,1,52,2|0,0:0|3:0,0:0:0:0:
444,80,105573,1,0,0:0:0:0:
436,82,105658,1,0,0:0:0:0:
428,84,105743,1,0,0:0:0:0:
374,12,105912,1,0,0:0:0:0:
505,251,106082,6,0,L|360:272,1,146.250005578995,2|0,0:3|0:0,0:0:0:0:
309,347,106421,6,0,P|257:306|193:308,1,130,2|0,3:3|0:0,0:0:0:0:
261,66,106760,2,0,P|294:129|282:203,1,130,2|0,3:0|0:0,0:0:0:0:
252,223,107014,1,0,0:0:0:0:
206,197,107099,1,2,0:0:0:0:
199,201,107184,1,0,0:0:0:0:
191,203,107268,1,0,0:0:0:0:
5,383,107438,5,0,3:0:0:0:
44,214,107607,1,0,3:0:0:0:
170,332,107777,1,0,3:0:0:0:
6,292,107946,5,0,0:0:0:0:
110,159,108116,2,0,L|179:173,1,65
77,62,108455,6,0,L|250:35,1,146.250005578995,8|0,3:1|0:0,0:0:0:0:
300,30,108794,1,2,3:3:0:0:
344,236,108964,1,2,0:3:0:0:
269,103,109133,1,2,3:3:0:0:
423,248,109303,1,2,0:3:0:0:
285,181,109472,5,2,3:0:0:0:
277,183,109557,1,0,0:0:0:0:
269,185,109642,2,0,P|263:217|250:237,1,48.750001859665
393,375,109811,2,0,L|265:350,1,130,2|0,3:0|0:0,0:0:0:0:
194,384,110066,1,0,0:0:0:0:
70,294,110150,5,2,3:0:0:0:
24,317,110234,1,0,0:0:0:0:
34,365,110319,1,0,0:0:0:0:
83,366,110404,1,0,0:0:0:0:
147,317,110489,6,0,P|112:269|126:131,1,195,2|0,3:0|0:0,0:0:0:0:
174,81,110828,1,2,3:2:0:0:
7,222,110998,2,0,L|57:213,1,48.750001859665,2|0,0:2|0:0,0:0:0:0:
258,179,111167,5,0,3:0:0:0:
296,204,111252,1,0,0:0:0:0:
317,251,111337,1,0,0:0:0:0:
364,229,111421,1,0,0:0:0:0:
410,235,111506,6,0,P|406:209|413:186,1,48.750001859665,0|0,3:0|0:0,0:0:0:0:
362,98,111675,2,0,P|371:73|389:57,1,48.750001859665
484,329,111845,6,0,P|462:316|438:314,1,48.750001859665,0|0,3:0|0:0,0:0:0:0:
317,251,112014,2,0,P|292:253|271:265,1,48.750001859665
239,9,112184,5,2,3:0:0:0:
245,36,112269,1,0,0:0:0:0:
221,112,112354,1,2,3:0:0:0:
227,139,112439,1,0,0:0:0:0:
194,241,112523,5,12,3:1:0:0:
283,308,114218,5,2,0:0:0:0:
375,325,114388,1,2,0:0:0:0:
468,342,114557,2,0,P|491:359|506:384,1,58.4999982147217,2|0,0:0|0:0,0:0:0:0:
468,342,115235,2,0,L|463:315,1,19.4999994049072,2|0,0:0|0:0,0:0:0:0:
377,203,115574,2,0,L|383:163,1,39,2|0,0:0|0:0,0:0:0:0:
409,17,116252,5,2,0:0:0:0:
402,11,116591,5,6,1:2:0:0:
488,37,116675,2,0,B|406:45|406:45|441:113|441:113|353:121|353:121|352:119|352:119|353:121|353:121|338:123|338:123|339:126|339:126|338:123|338:123|275:130,1,325,2|0,1:2|0:0,0:0:0:0:
204,9,116930,2,0,P|265:-1|325:57,1,130,2|0,1:2|0:0,0:0:0:0:
450,191,117100,5,2,0:2:0:0:
448,203,117184,1,0,1:0:0:0:
507,257,117269,1,2,0:0:0:0:
505,268,117354,5,0,1:0:0:0:
456,381,117439,1,0,1:0:0:0:
382,280,117523,1,0,1:0:0:0:
336,370,117608,6,0,B|244:354|244:354|246:361|246:361|244:354|244:354|196:345|196:345|192:347|192:347|182:341|182:341|177:342|177:342|141:335|141:335|125:285,1,260,6|0,1:2|0:0,0:0:0:0:
68,132,117862,2,0,B|65:153|65:153|59:157|59:157|57:166|57:166|68:158|68:158|66:168|66:168|61:171|61:171|49:237|49:237|46:240|46:240|49:245|49:245|46:251|46:251|42:289|42:289|39:292|39:292|40:298|40:298|31:354|31:354|18:373|18:373|26:315,1,325,2|0,1:2|0:0,0:0:0:0:
107,59,118116,2,0,B|142:78|142:78|152:126|152:126|157:127|157:127|152:126|152:126|176:229,1,195.00000743866,2|0,1:2|0:0,0:0:0:0:
257,336,118286,6,0,L|353:351,1,97.50000371933,8|0,1:2|0:0,0:0:0:0:
198,122,118455,6,0,L|249:130,1,52,8|2,1:2|0:0,0:0:0:0:
304,188,119217,1,2,0:0:0:0:
465,19,119302,5,6,1:2:0:0:
416,5,119386,1,0,0:0:0:0:
368,21,119471,1,0,0:0:0:0:
338,62,119556,1,0,0:0:0:0:
396,211,119641,5,2,1:2:0:0:
416,87,119726,2,0,L|405:162,1,48.750001859665,0|0,0:0|1:0,0:0:0:0:
473,330,119896,6,0,B|516:342|527:391|527:391|514:328|514:328|516:323|516:323|514:313|514:313|510:309|510:309|501:266|501:266|497:262|497:262|494:250|494:250|503:261|503:261|501:249|501:249|497:245|497:245|485:184,1,325,2|0,0:2|1:0,0:0:0:0:
348,348,120150,2,0,B|391:326|391:326|396:280|396:280|400:281|400:281|396:280|396:280|404:212,1,162.5
509,86,120320,6,0,P|385:-9|236:39,1,325,6|0,1:2|0:0,0:0:0:0:
3,185,120574,2,0,B|98:168|98:168|103:164|103:164|142:157|142:157|149:158|149:158|214:145|214:145|218:147|218:147|219:144|219:144|265:134|265:134|271:130|271:130|322:122,1,325,2|0,1:2|0:0,0:0:0:0:
492,94,120828,2,0,P|454:39|382:16,1,130,2|0,1:2|0:0,0:0:0:0:
133,194,120997,5,8,1:2:0:0:
143,114,121082,2,0,L|148:66,1,45.5,8|2,1:2|0:0,0:0:0:0:
149,57,121760,1,2,0:0:0:0:
151,46,121845,1,2,0:0:0:0:
153,35,121930,1,2,0:0:0:0:
11,167,122014,6,0,B|37:195|92:202|83:165|141:177|169:213,1,162.5,6|0,1:2|0:0,0:0:0:0:
64,108,122183,1,0,0:0:0:0:
151,285,122268,2,0,B|184:196|319:187|263:257|389:263|435:153,1,325,2|0,1:2|0:0,0:0:0:0:
377,26,122522,2,0,B|291:46|277:155|339:181|381:142|310:69,1,195.00000743866,2|0,1:2|0:0,0:0:0:0:
272,382,122691,5,2,1:3:0:0:
240,170,122776,2,0,P|264:238|243:307,1,146.250005578995,2|0,1:2|0:0,0:0:0:0:
409,365,122946,2,0,B|168:331|168:331|150:285,1,292.50001115799,2|0,1:2|0:0,0:0:0:0:
77,41,123201,6,0,P|201:23|299:113,1,260,6|0,1:2|0:0,0:0:0:0:
506,75,123455,1,2,1:2:0:0:
433,103,123539,2,0,B|397:120|397:120|377:208,1,130,2|0,0:2|0:0,0:0:0:0:
326,382,123709,5,2,1:2:0:0:
297,255,123794,1,2,1:2:0:0:
512,347,123878,2,0,L|383:327,1,130,2|0,1:3|0:0,0:0:0:0:
159,173,124048,2,0,B|216:194|233:266|194:326|194:326|173:285|127:279,1,243.75,2|0,1:2|0:0,0:0:0:0:
122,361,124217,2,0,P|74:310|101:220,1,162.5,2|0,1:2|0:0,0:0:0:0:
0,6,124387,6,0,P|135:86|285:38,1,325,6|0,1:2|0:0,0:0:0:0:
512,154,124641,1,2,1:2:0:0:
453,99,124725,2,0,P|374:86|309:132,1,162.5,8|0,0:0|0:0,0:0:0:0:
149,285,124895,2,0,B|72:312|72:312|231:285,1,243.75,2|0,1:2|0:0,0:0:0:0:
402,242,125064,6,0,B|374:204|374:204|322:249|343:310,1,162.5,10|0,1:3|0:0,0:0:0:0:
240,384,125234,1,0,0:0:0:0:
248,365,125319,2,0,P|251:277|203:203,1,178.750001704693,10|0,1:3|0:0,0:0:0:0:
35,90,125488,5,10,1:3:0:0:
240,126,125574,2,0,L|92:100,1,130,6|0,1:2|0:0,0:0:0:0:
149,285,125743,2,0,P|131:326|81:346,1,97.50000371933,0|0,1:0|0:0,0:0:0:0:
26,87,125912,6,2,B|132:71|132:71|146:43|146:43|330:18,1,325,2|0,1:0|1:0,0:2:0:0:
409,0,126167,5,8,0:0:0:0:
316,109,126251,2,0,L|426:125,1,97.50000371933,8|0,3:0|0:0,0:0:0:0:
454,200,126421,2,0,L|519:235,1,65,8|0,0:0|1:0,0:0:0:0:
246,384,126930,6,0,P|308:333|387:335,1,162.5,4|0,1:0|0:0,0:0:0:0:
467,333,127438,6,0,P|332:373|224:283,1,292.50001115799,8|0,1:3|0:0,0:0:0:0:
88,314,127777,2,0,P|81:258|111:211,1,113.750001084805,2|0,0:2|0:0,0:0:0:0:
202,20,127946,2,0,B|240:35|240:35|262:121,1,130,8|0,0:0|0:0,0:0:0:0:
284,199,128116,1,2,0:0:0:0:
290,219,128201,1,2,0:0:0:0:
262,121,128285,6,0,B|293:52|385:62|385:62|363:107,1,195.00000743866,2|0,1:2|0:0,0:0:0:0:
290,219,128540,2,0,P|196:189|66:222,1,195.00000743866,2|0,1:2|0:0,0:0:0:0:
37,249,128794,1,8,1:3:0:0:
29,236,128879,1,0,0:0:0:0:
21,204,128963,1,0,0:0:0:0:
39,156,129048,1,0,0:0:0:0:
100,108,129133,2,0,P|121:97|146:94,1,48.750001859665,0|0,1:0|0:0,0:0:0:0:
198,27,129302,5,8,0:0:0:0:
3,4,129387,2,0,L|99:15,1,97.50000371933,2|0,1:2|0:0,0:0:0:0:
178,185,129641,5,2,0:0:0:0:
181,204,129709,5,2,0:0:0:0:
176,231,129777,5,2,0:0:0:0:
154,265,129845,5,2,0:0:0:0:
111,282,129912,6,0,L|103:320,1,39.000001487732,2|0,0:0|0:0,0:0:0:0:
432,370,130150,6,0,B|503:325|503:325|310:352,1,260,8|0,1:3|0:0,0:0:0:0:
231,360,130404,2,0,B|301:374|301:374|329:231,1,195.00000743866,2|0,1:2|0:0,0:0:0:0:
386,202,130658,5,2,1:2:0:0:
280,124,130771,5,2,1:2:0:0:
332,3,130884,5,2,1:2:0:0:
498,138,130997,6,0,P|439:111|376:122,1,130,0|0,1:0|0:0,0:0:0:0:
212,32,131252,2,0,L|364:10,1,130,0|0,1:0|0:0,0:0:0:0:
498,138,131506,6,0,P|397:214|272:193,1,260,8|0,1:3|0:0,0:0:0:0:
118,125,131760,1,8,0:0:0:0:
194,109,131845,1,0,0:0:0:0:
199,128,131930,1,0,0:0:0:0:
123,144,132014,5,8,0:0:0:0:
47,160,132099,1,0,0:0:0:0:
45,175,132183,1,0,0:0:0:0:
43,190,132268,1,0,0:0:0:0:
21,327,132353,6,0,P|47:327|66:308,1,48.750001859665,6|0,1:2|0:0,0:0:0:0:
132,382,132523,2,0,P|147:355|139:316,1,65,2|0,0:0|0:0,0:0:0:0:
260,309,132692,2,0,P|236:268|190:254,1,97.50000371933,2|0,0:0|0:0,0:0:0:0:
47,160,132862,6,0,L|305:185,1,260,8|0,1:3|0:0,0:0:0:0:
322,186,133116,1,0,0:0:0:0:
372,70,133201,2,0,L|387:147,1,65,0|0,1:0|0:0,0:0:0:0:
497,334,133370,1,8,1:3:0:0:
444,350,133454,1,0,0:0:0:0:
392,330,133539,1,0,0:0:0:0:
365,282,133624,1,0,0:0:0:0:
447,263,133709,5,2,1:2:0:0:
498,0,133879,2,0,B|486:83|486:83|471:93|471:93|458:185,2,195.00000743866,2|10|2,0:2|1:3|0:0,0:0:0:0:
458,185,134387,5,0,1:0:0:0:
371,70,134472,1,8,1:3:0:0:
362,85,134557,2,0,P|321:110|273:107,1,97.50000371933,0|0,1:0|0:0,1:0:0:0:
106,45,134726,2,0,B|35:15|35:15|141:31|141:31|145:28|145:28|141:30|141:30|206:39,1,260,8|0,1:3|0:0,0:0:0:0:
224,42,134980,1,2,0:0:0:0:
275,223,135065,6,0,P|217:180|145:182,1,146.250005578995,2|0,1:2|0:0,0:0:0:0:
19,11,135404,6,0,P|65:94|50:189,1,195.00000743866,8|0,1:3|0:0,0:0:0:0:
275,222,135658,2,0,P|247:261|202:278,1,97.50000371933,8|0,1:3|0:0,0:0:0:0:
1,375,135828,1,0,0:0:0:0:
16,373,135912,1,0,0:0:0:0:
31,371,135997,1,0,0:0:0:0:
85,306,136082,5,8,1:3:0:0:
158,338,136167,5,0,1:0:0:0:
240,309,136252,5,2,1:2:0:0:
275,222,136336,5,2,1:2:0:0:
233,125,136421,6,0,P|228:102|229:78,1,48.750001859665,2|0,1:3|0:0,0:0:0:0:
453,167,136591,2,0,P|466:146|473:123,1,48.750001859665,2|0,1:3|0:0,0:0:0:0:
289,22,136760,6,0,P|353:93|365:188,1,195.00000743866,8|0,1:3|0:0,0:0:0:0:
479,338,137014,2,0,P|388:361|416:272,1,227.500002169609,8|0,1:3|0:0,0:0:0:0:
493,258,137268,1,0,1:0:0:0:
227,383,137438,2,0,L|179:374,3,48.750001859665,8|0|0|0,1:3|0:0|0:0|0:0,0:0:0:0:
34,183,137777,6,0,B|19:153|19:153|30:123,1,65,8|0,1:0|0:0,0:0:0:0:
0,261,138031,6,0,L|128:282,1,130,2|0,1:3|0:0,0:0:0:0:
106,143,138285,2,0,L|186:156,1,81.25,2|0,1:3|0:0,0:0:0:0:
0,261,138454,6,0,L|226:238,1,227.500002169609,8|0,1:3|0:0,0:0:0:0:
290,280,138709,1,0,0:0:0:0:
186,156,138793,6,0,P|226:106|359:125,1,195.00000743866,2|0,1:3|0:0,0:0:0:0:
337,342,139048,2,0,P|275:358|222:321,2,130,2|2|0,1:3|0:2|0:0,0:0:0:0:
444,382,139302,6,0,P|421:314|447:222,1,146.250005578995,2|0,1:3|0:0,0:0:0:0:
409,54,139471,2,0,P|447:56|481:75,1,78,10|0,1:3|0:0,0:0:0:0:
481,75,139810,6,0,B|398:57|330:82|279:139|279:139|306:82|278:20|278:20|308:30|315:65,1,390.00001487732,6|0,1:2|0:0,0:0:0:0:
497,162,140065,6,0,B|436:127|333:152|308:245|308:245|360:249|387:306|387:306|374:269|398:233,1,390.00001487732,6|0,1:2|0:0,0:0:0:0:
461,276,140319,6,0,P|476:257|500:246,1,48.750001859665,2|0,1:3|0:0,0:0:0:0:
463,290,140404,2,0,P|485:299|511:300,1,48.750001859665,0|0,1:0|0:0,0:0:0:0:
308,330,140488,2,0,P|265:313|180:334,1,97.50000371933,8|0,1:3|0:0,0:0:0:0:
126,119,140658,6,0,B|179:175|147:267|147:267|124:221,1,195,2|0,0:0|0:0,0:0:0:0:
101,342,140827,6,0,P|58:362|9:362,1,97.50000371933,2|0,1:3|0:0,0:0:0:0:
37,271,141082,5,0,1:0:0:0:
85,335,141166,2,0,P|55:348|23:350,1,65,2|0,1:3|0:0,0:0:0:0:
68,181,141336,2,0,P|29:169|-2:138,1,81.25,0|0,1:0|0:0,0:0:0:0:
208,73,141505,6,0,P|149:1|59:20,1,195,8|0,1:3|0:0,0:0:0:0:
59,20,141675,2,0,P|77:63|122:78,1,97.50000371933,2|0,0:0|0:0,0:0:0:0:
354,28,141845,6,0,P|307:44|284:86,1,97.50000371933,0|0,1:0|0:0,0:0:0:0:
233,227,142014,1,0,1:0:0:0:
305,194,142099,2,0,P|345:190|381:206,2,81.25,0|2|0,1:0|0:0|0:0,0:0:0:0:
181,165,142353,1,0,0:0:0:0:
290,334,142522,6,0,B|333:316|333:316|359:104,1,260,10|0,1:3|0:0,0:0:0:0:
505,382,142777,5,10,1:3:0:0:
485,374,142862,2,0,B|447:357|447:357|419:257,1,130
359,104,143031,2,0,P|387:102|440:164,1,97.50000371933,2|0,0:0|0:0,0:0:0:0:
290,333,143200,6,0,P|238:373|173:357,1,130,8|0,1:0|0:0,0:0:0:0:
223,297,143455,1,0,1:0:0:0:
215,219,143539,1,2,1:3:0:0:
158,164,143624,1,0,1:0:0:0:
78,156,143709,2,0,L|67:236,1,81.25,2|0,1:3|0:0,0:0:0:0:
99,349,143878,6,0,L|78:156,1,195.00000743866,0|2,1:0|0:0,0:0:0:0:
131,7,144133,1,0,1:0:0:0:
9,119,144217,2,0,P|41:84|88:77,1,97.50000371933,2|0,0:0|0:0,0:0:0:0:
215,219,144387,1,0,1:0:0:0:
238,224,144472,1,0,1:0:0:0:
302,177,144556,6,0,B|332:155|332:155|340:94,1,97.50000371933,2|0,1:3|0:0,0:0:0:0:
398,318,144726,1,2,0:0:0:0:
487,220,144811,6,0,P|405:214|318:313,1,195.00000743866,0|0,1:0|0:0,0:0:0:0:
435,27,145065,2,0,L|422:123,1,97.50000371933,2|0,1:3|0:0,0:0:0:0:
394,342,145234,6,0,B|439:286|439:286|253:315,1,260,2|0,1:3|1:0,0:0:0:0:
218,384,145489,1,0,1:0:0:0:
254,315,145573,1,0,1:0:0:0:
248,239,145658,1,0,1:0:0:0:
198,182,145743,1,2,1:2:0:0:
125,165,145827,1,2,1:2:0:0:
51,191,145912,6,0,B|29:179|29:179|40:126|0:90,1,113.750001084805,6|0,1:2|0:0,0:0:0:0:
436,28,146251,1,0,0:0:0:0:
449,34,146336,1,0,0:0:0:0:
466,111,146421,5,4,1:0:0:0:
67,4,146759,1,0,0:0:0:0:
217,28,146844,1,0,0:0:0:0:
143,16,146929,5,0,1:0:0:0:
256,192,147099,1,0,1:0:0:0:
256,192,147268,5,4,1:0:0:0:
261,200,147352,1,0,0:0:0:0:
264,212,147437,1,0,0:0:0:0:
260,228,147522,1,0,0:0:0:0:
233,242,147607,1,0,0:0:0:0:
195,234,147692,1,0,0:0:0:0:
169,194,147777,1,0,0:0:0:0:
181,139,147861,1,0,0:0:0:0:
237,105,147946,1,0,0:0:0:0:
310,121,148031,1,0,0:0:0:0:
356,195,148116,1,0,0:0:0:0:
334,290,148200,1,0,0:0:0:0:
245,349,148285,5,0,1:0:0:0:
260,350,148370,1,0,0:0:0:0:
242,365,148455,1,0,0:0:0:0:
258,366,148539,1,0,0:0:0:0:
3,234,148625,6,0,B|61:214|107:273|71:260|116:327|183:299|183:299|176:248|176:248|179:248|179:248|176:248|176:248|175:237|175:237|172:237|172:237|175:236|175:236|162:152,1,325,6|0,1:2|0:0,0:0:0:0:
22,310,148879,6,0,B|274:343|274:343|255:233,1,325,6|0,1:2|0:0,0:0:0:0:
229,46,149133,2,0,B|268:87|268:87|260:124|260:124|262:127|262:127|259:127|259:127|247:191,1,162.5,2|0,1:2|0:0,0:0:0:0:
439,383,149302,6,0,L|490:374,1,52,10|0,1:3|0:0,0:0:0:0:
248,188,149641,6,0,B|128:229|128:229|286:197|286:197|286:201|286:201|286:197|286:197|330:188|330:188|336:126|268:101,1,422.500012087822,6|0,1:2|0:0,0:0:0:0:
79,62,149896,6,0,B|157:71|157:71|170:63|170:63|464:106,1,390.00001487732,6|0,1:2|0:0,0:0:0:0:
439,383,150150,2,0,B|401:362|401:362|365:215,1,195.00000743866,2|0,1:2|0:0,0:0:0:0:
229,46,150319,6,0,L|290:37,1,48.750001859665,10|0,1:3|0:0,0:0:0:0:
368,17,150489,1,8,0:0:0:0:
389,13,150574,1,8,0:0:0:0:
512,261,150658,6,0,B|441:302|348:272|310:203|335:127|335:127|325:160|334:198|369:217,1,390.00001487732,6|0,1:2|0:0,0:0:0:0:
172,357,150913,6,0,P|323:241|512:261,1,390.00001487732,6|0,1:2|0:0,0:0:0:0:
347,379,151167,2,0,P|291:300|199:279,1,195.00000743866,2|0,1:2|0:0,0:0:0:0:
50,14,151336,5,10,1:3:0:0:
42,16,151421,1,2,0:0:0:0:
34,18,151506,2,0,L|25:81,1,52,2|0,0:0|0:0,0:0:0:0:
221,197,151675,6,0,B|180:138|97:130|38:152|38:152|98:133|110:105|82:84|134:41|183:61,1,390.00001487732,6|0,1:2|0:0,0:0:0:0:
313,244,151930,6,0,P|180:374|0:327,1,390.00001487732,6|0,1:2|0:0,0:0:0:0:
30,235,152184,2,0,P|105:295|199:278,1,195.00000743866,2|0,1:2|0:0,0:0:0:0:
397,10,152353,6,0,L|456:1,1,52,10|0,1:3|0:0,0:0:0:0:
410,87,152523,2,0,L|461:79,1,52,8|0,0:2|0:0,0:0:0:0:
164,37,152692,6,0,B|203:42|203:42|207:41|207:41|211:45|211:45|216:44|216:44|275:53|275:53|226:138|226:138|301:149|301:149|304:146|304:146|301:149|301:149|317:152|317:152|321:149|321:149|317:152|317:152|333:155|333:155|335:152|335:152|333:155|333:155|394:166,1,390.00001487732,6|0,1:2|0:0,0:0:0:0:
128,224,152946,6,0,B|158:267|158:267|343:250|343:250|346:253|346:253|343:250|343:250|436:241|436:241|456:187,1,390.00001487732,6|0,1:2|0:0,0:0:0:0:
119,106,153201,2,0,B|143:143|143:143|308:168,1,195.00000743866,2|0,1:2|0:0,0:0:0:0:
440,372,153370,5,10,1:3:0:0:
456,369,153455,1,2,0:0:0:0:
437,356,153540,1,2,0:0:0:0:
452,354,153625,1,2,0:0:0:0:
292,165,153709,6,0,B|290:218|339:239|339:239|390:260|366:321|366:321|317:315|317:315|319:317|319:317|317:315|317:315|298:312|298:312|300:314|300:314|298:312|298:312|258:306|258:306|253:309|253:309|239:307|239:307|254:303|254:303|240:301|240:301|235:303|235:303|181:294,1,422.500012087822,6|0,1:2|0:0,0:0:0:0:
0,382,153963,6,0,B|49:366|49:366|58:330|58:330|55:324|55:324|71:261|71:261|76:257|76:257|100:166|100:166|179:159|140:222|251:212,1,390.00001487732,6|0,1:2|0:0,0:0:0:0:
277,354,154218,2,0,B|129:330|129:330|128:333|128:333|129:330|129:330|85:322,1,195.00000743866,2|0,1:2|0:0,0:0:0:0:
1,86,154387,6,0,L|76:77,1,52,10|0,1:3|0:0,0:0:0:0:
130,11,154557,1,10,0:0:0:0:
125,37,154641,1,8,0:0:0:0:
1,86,154726,6,0,B|46:155|134:171|207:127|207:127|161:171|167:234|167:234|187:214|192:185,1,390.00001487732,6|0,1:2|0:0,0:0:0:0:
429,73,154980,6,0,B|392:0|294:-13|230:48|230:48|268:60|291:96|287:138|287:138|313:102|297:63,1,390.00001487732,6|0,1:2|0:0,0:0:0:0:
13,233,155235,2,0,P|106:252|187:202,1,195.00000743866,2|0,1:2|0:0,0:0:0:0:
478,328,155404,5,10,1:3:0:0:
497,198,155489,2,0,L|489:253,1,52,2|0,1:3|0:0,0:0:0:0:
308,382,155743,6,0,B|531:343|531:343|492:116,1,455.000004339218,14|0,1:2|0:0,0:0:0:0:
248,339,155997,2,0,B|208:112|208:112|432:73,1,455.000004339218,14|0,1:2|0:0,0:0:0:0:
403,258,156252,6,0,B|383:274|383:274|342:267|342:267|327:248|327:248|334:207|334:207|353:191|353:191|394:198|394:198|410:218|410:218|403:253,1,260,14|0,1:2|0:0,0:0:0:0:
166,376,156421,5,10,1:3:0:0:
158,378,156505,1,2,0:0:0:0:
150,380,156591,2,0,L|159:317,1,52,2|0,0:0|0:0,0:0:0:0:
0,91,156760,6,0,B|35:84|35:84|41:87|41:87|86:78|86:78|92:72|92:72|125:65|125:65|151:125|82:179|96:137|48:164|57:246|57:246|59:200|112:181,1,390.00001487732,6|0,1:2|0:0,0:0:0:0:
7,3,157014,6,0,B|56:11|56:11|55:8|55:8|56:11|56:11|105:19|105:19|111:17|111:17|156:25|156:25|160:29|160:29|207:37|207:37|220:57|220:57|282:68|282:68|287:66|287:66|295:67|295:67|286:72|286:72|295:73|295:73|298:71|298:71|335:78|335:78|333:76|333:76|335:78|335:78|402:89,1,390.00001487732,6|0,1:2|0:0,0:0:0:0:
136,255,157268,2,0,B|167:288|167:288|223:277|223:277|230:273|230:273|246:277|246:277|255:271|255:271|313:259,1,195.00000743866,2|0,1:2|0:0,0:0:0:0:
485,0,157438,6,0,L|477:51,1,52,10|0,1:3|0:0,0:0:0:0:
284,362,157777,6,0,B|265:383|265:383|304:371|304:371|313:326|313:326|317:325|317:325|313:326|313:326|326:261|326:261|322:264|322:264|326:260|326:260|335:219|335:219|370:213|370:213|367:209|367:209|370:213|370:213|426:202|426:202|433:205|433:205|465:199|465:199|470:195|470:195|535:183,1,422.500012087822,6|0,1:2|0:0,0:0:0:0:
199,304,158031,6,0,B|224:336|224:336|263:328|263:328|267:326|267:326|281:329|281:329|286:325|286:325|364:309|364:309|365:312|365:312|364:309|364:309|407:301|407:301|415:258|415:258|419:259|419:259|415:258|415:258|439:109,1,422.500012087822,6|0,1:2|0:0,0:0:0:0:
249,25,158285,2,0,B|273:-3|273:-3|308:3|308:3|308:-1|308:-1|308:3|308:3|356:14|356:14|371:92,1,195.00000743866,2|0,1:2|0:0,0:0:0:0:
499,374,158455,6,0,L|424:365,1,52,10|0,1:3|0:0,0:0:0:0:
281,241,158625,1,8,0:0:0:0:
248,234,158709,1,8,0:0:0:0:
51,359,158794,6,0,B|59:314|59:314|167:390|167:390|164:375|164:375|161:371|161:371|155:348|155:348|156:341|156:341|150:315|150:315|152:311|152:311|150:315|150:315|146:301|146:301|149:298|149:298|146:301|146:301|140:272|140:272|129:232|91:224,1,390.00001487732,6|0,1:2|0:0,0:0:0:0:
9,97,159048,6,0,B|27:32|96:0|178:34|178:34|145:48|130:86|148:126|148:126|197:138|217:93,1,390.00001487732,6|0,1:2|0:0,0:0:0:0:
0,187,159302,2,0,P|77:239|169:215,1,195.00000743866,2|0,1:2|0:0,0:0:0:0:
318,32,159472,5,10,1:3:0:0:
313,6,159557,1,2,0:0:0:0:
332,112,159641,2,0,L|340:163,1,52,8|0,0:2|0:0,0:0:0:0:
488,342,159811,6,0,P|411:372|416:290,1,195.00000743866,6|0,1:2|0:0,0:0:0:0:
332,112,159980,5,0,1:0:0:0:
352,114,160065,2,0,P|421:209|274:150,1,390.00001487732,6|0,1:2|0:0,0:0:0:0:
484,5,160319,2,0,P|442:93|448:189,1,195.00000743866,2|0,1:2|0:0,0:0:0:0:
253,345,160489,5,10,1:3:0:0:
255,360,160574,1,0,0:0:0:0:
237,348,160659,1,0,0:0:0:0:
240,364,160744,1,0,0:0:0:0:
54,210,160828,6,0,B|146:229|146:229|156:244|156:244|273:268,1,211.250006043911,6|0,1:2|1:0,0:0:0:0:
479,382,160997,1,0,1:0:0:0:
501,373,161082,5,6,1:2:0:0:
476,296,161166,1,0,1:0:0:0:
402,264,161251,1,0,1:0:0:0:
329,299,161336,2,0,P|257:374|157:349,1,211.250006043911,2|0,1:2|1:0,0:0:0:0:
31,72,161506,6,0,L|22:13,1,52,10|0,1:3|0:0,0:0:0:0:
89,134,161675,2,0,L|97:192,1,52,10|0,0:0|0:0,0:0:0:0:
474,76,161845,6,0,L|23:20,1,455.000004339218,14|2,1:2|1:2,0:0:0:0:
368,153,162099,5,14,1:2:0:0:
277,163,162183,1,0,1:2:0:0:
186,174,162268,1,0,1:2:0:0:
96,185,162353,2,0,B|23:168|23:168|53:206|53:206|91:197,1,162.5,8|0,1:2|1:0,0:0:0:0:
288,22,162523,6,0,L|279:73,1,52,10|0,1:3|0:0,0:0:0:0:
252,258,162692,1,10,0:0:0:0:
248,282,162777,1,8,0:0:0:0:
173,347,162862,6,0,P|309:375|394:198,1,325,6|0,1:2|1:0,0:0:0:0:
493,19,163116,5,6,1:2:0:0:
384,39,163200,1,2,1:2:0:0:
340,124,163285,1,0,1:0:0:0:
487,197,163370,2,0,P|387:216|320:134,1,211.250006043911,6|0,1:2|1:0,0:0:0:0:
25,325,163540,6,0,L|36:247,1,52,10|0,1:3|0:0,0:0:0:0:
64,23,163709,2,0,L|76:114,1,81.25,10|8,1:3|0:0,0:0:0:0:
153,384,163879,6,0,L|124:174,1,211.250006043911,6|0,1:2|0:0,0:0:0:0:
208,0,164048,6,0,L|222:101,1,97.5,2|0,1:2|0:0,0:0:0:0:
345,368,164387,6,0,L|316:158,1,195,2|0,0:2|0:0,0:0:0:0:
415,22,164726,6,0,L|435:168,1,130,2|0,0:0|0:0,0:0:0:0:
463,352,164896,6,0,P|476:372|496:384,3,48.750001859665,8|0|0|0,1:0|0:0|0:0|0:0,0:0:0:0:
495,280,165235,2,0,L|503:217,1,48.750001859665,2|0,0:0|0:0,0:0:0:0:
432,150,165404,5,0,3:0:0:0:
423,149,165489,1,0,0:0:0:0:
415,148,165574,1,0,0:0:0:0:
407,147,165658,1,0,0:0:0:0:
399,146,165743,1,0,0:0:0:0:
391,145,165828,1,0,0:0:0:0:
342,81,165913,2,0,L|333:27,3,48.750001859665,0|0|0|0,3:0|0:0|0:0|0:0,0:0:0:0:
365,226,166252,6,0,P|359:246|350:257,2,32.5,8|0|0,3:1|0:0|0:0,0:0:0:0:
266,129,166506,2,0,P|270:149|268:163,2,32.5,0|2|0,3:0|0:2|0:0,0:0:0:0:
135,80,166760,2,0,P|149:95|154:108,1,32.5,0|0,3:0|0:0,0:0:0:0:
143,222,166930,6,0,L|137:257,3,32.5
151,365,167268,2,0,L|109:372,1,32.5,0|0,3:0|0:0,0:0:0:0:
43,383,167438,1,0,3:0:0:0:
35,384,167523,1,0,3:0:0:0:
151,365,167607,6,0,P|159:347|159:323,3,32.5,8|0|0|0,3:1|0:0|0:0|0:0,0:0:0:0:
231,297,167946,2,0,P|228:277|216:256,1,32.5
26,258,168116,6,0,L|77:268,3,32.5,0|0|0|0,3:0|0:0|0:0|0:0,0:0:0:0:
231,297,168455,2,0,L|262:303,3,32.5,0|0|0|0,3:0|0:0|0:0|0:0,0:0:0:0:
90,171,168794,1,0,3:0:0:0:
98,170,168879,1,0,3:0:0:0:
106,169,168963,6,0,L|110:141,5,26,8|0|0|0|0|0,3:1|0:0|0:0|0:0|0:0|0:0,0:0:0:0:
41,43,169472,2,0,L|69:39,1,26,0|0,3:0|0:0,0:0:0:0:
255,12,169641,6,0,L|283:8,1,26,2|0,0:0|0:0,0:0:0:0:
153,27,169811,6,0,L|181:23,5,19.4999994049072,0|0|0|0|0|0,3:0|0:0|0:0|0:0|0:0|0:0,0:0:0:0:
57,264,170319,5,8,3:1:0:0:
106,169,171675,5,8,0:1:0:0:
243,67,173031,5,8,0:1:0:0:
426,26,174387,6,0,B|489:-21|537:47|525:101|517:118|375:192|243:193|258:65|515:-70|347:-119|115:-90|-24:-23|-72:49|-41:161|100:319|175:292|164:188|299:271|224:139|288:104|431:130|507:273|422:337|422:337|470:284|435:212|377:218|377:218|351:244|368:280|368:280|285:233|200:278|142:338|303:394|90:453|1:414|-26:353|-10:244|31:222|110:253|99:313,1,1975.99997587891,6|0,2:3|2:0,2:0:0:0:
