osu file format v14

[General]
AudioFilename: audio.mp3
AudioLeadIn: 0
PreviewTime: 147756
Countdown: 0
SampleSet: Drum
StackLeniency: 0.4
Mode: 0
LetterboxInBreaks: 0
WidescreenStoryboard: 1

[Editor]
Bookmarks: 23031,33540,33879,42014,116591,126929,137777,145913,148624,159811,160828,164896,180997
DistanceSpacing: 0.2
BeatDivisor: 4
GridSize: 16
TimelineZoom: 3.299999

[Metadata]
Title:NULL APOPHENIA
TitleUnicode:NULL APOPHENIA
Artist:N2
ArtistUnicode:N²
Creator:pocket-
Version:EXPERT
Source:Arcaea
Tags:corsace open 2023 co2023 co23 knockout round stage grand finals gf ko2 nm4 paradogi deviouspanda meowusername 0pp 0ppinosu neurofunk dnb drum and bass electronic instrumental lethe memory archive
BeatmapID:4284810
BeatmapSetID:2051792

[Difficulty]
HPDrainRate:5
CircleSize:4
OverallDifficulty:9
ApproachRate:9.2
SliderMultiplier:2.1
SliderTickRate:1

[Events]
//Background and Video events
0,0,"corps sans.jpg",0,0
//Break Periods
//Storyboard Layer 0 (Background)
//Storyboard Layer 1 (Fail)
//Storyboard Layer 2 (Pass)
//Storyboard Layer 3 (Foreground)
//Storyboard Layer 4 (Overlay)
//Storyboard Sound Samples

[TimingPoints]
1337,338.983050847458,4,2,1,30,1,0
1337,-133.333333333333,4,2,1,30,0,0
4726,-200,4,2,1,30,0,0
6760,-133.333333333333,4,2,1,40,0,0
12184,-117.647058823529,4,2,1,40,0,0
22353,-250,4,2,1,40,0,0
23031,-100,4,2,1,45,0,0
26591,-200,4,2,1,45,0,0
27099,-100,4,2,1,45,0,0
33540,-66.6666666666667,4,2,1,45,0,0
33964,-66.6666666666667,4,2,1,5,0,0
35235,-66.6666666666667,4,2,1,45,0,0
35320,-66.6666666666667,4,2,1,5,0,0
36591,-66.6666666666667,4,2,1,45,0,0
36675,-66.6666666666667,4,2,1,5,0,0
37947,-66.6666666666667,4,2,1,45,0,0
38031,-66.6666666666667,4,2,1,5,0,0
39303,-66.6666666666667,4,2,1,45,0,0
39387,-66.6666666666667,4,2,1,5,0,0
40659,-66.6666666666667,4,2,1,45,0,0
40743,-66.6666666666667,4,2,1,5,0,0
42014,-1000,4,2,1,45,0,0
43286,-1000,4,2,1,5,0,0
43370,-100,4,3,1,55,0,0
44133,-100,4,3,1,5,0,0
44726,-100,4,3,1,70,0,0
46760,-133.333333333333,4,3,1,70,0,0
47438,-80,4,3,1,70,0,0
48116,-66.6666666666667,4,3,1,70,0,0
48794,-80,4,3,1,70,0,0
49981,-100,4,3,1,70,0,0
52862,-66.6666666666667,4,3,1,70,0,0
54175,-66.6666666666667,4,3,1,5,0,0
54218,-66.6666666666667,4,3,1,70,0,0
54387,-100,4,3,1,70,0,0
54557,-57.1428571428571,4,3,1,70,0,0
54896,-100,4,3,1,70,0,0
55574,-66.6666666666667,4,3,1,70,0,0
56209,-66.6666666666667,4,3,1,5,0,0
56252,-66.6666666666667,4,3,1,70,0,0
57608,-200,4,3,1,70,0,0
58201,-200,4,3,1,5,0,0
58286,-66.6666666666667,4,3,1,70,0,0
58794,-80,4,3,1,70,0,0
58964,-66.6666666666667,4,3,1,70,0,0
59599,-66.6666666666667,4,3,1,5,0,0
59642,-80,4,3,1,70,0,0
60320,-66.6666666666667,4,3,1,70,0,0
60998,-100,4,3,1,70,0,0
63794,-80,4,3,1,70,0,0
64387,-66.6666666666667,4,3,1,70,0,0
65023,-66.6666666666667,4,3,1,5,0,0
65065,-57.1428571428571,4,3,1,70,0,0
65913,-133.333333333333,4,3,1,70,0,0
66252,-50,4,3,1,70,0,0
66591,-50,4,3,1,5,0,0
66675,-50,4,3,1,70,0,0
66845,-50,4,3,1,5,0,0
66930,-50,4,3,1,70,0,0
67099,-50,4,3,1,5,0,0
67184,-50,4,3,1,70,0,0
67438,-100,4,3,1,70,0,0
67947,-100,4,3,1,5,0,0
68031,-100,4,3,1,70,0,0
68201,-100,4,3,1,5,0,0
68286,-100,4,3,1,70,0,0
68370,-100,4,3,1,5,0,0
68455,-100,4,3,1,70,0,0
69133,-66.6666666666667,4,3,1,70,0,0
71845,-80,4,3,1,70,0,0
73201,-66.6666666666667,4,3,1,70,0,0
75913,-57.1428571428571,4,3,1,70,0,0
76760,-100,4,3,1,70,0,0
77269,-80,4,3,1,70,0,0
78286,-133.333333333333,4,3,1,70,0,0
78625,-66.6666666666667,4,3,1,70,0,0
79303,-200,4,3,1,70,0,0
79896,-200,4,3,1,5,0,0
79981,-66.6666666666667,4,3,1,70,0,0
81337,-100,4,3,1,70,0,0
81591,-66.6666666666667,4,3,1,70,0,0
83159,-66.6666666666667,4,3,1,5,0,0
83201,-66.6666666666667,4,3,1,70,0,0
84048,-57.1428571428571,4,3,1,70,0,0
85616,-57.1428571428571,4,3,1,5,0,0
85659,-57.1428571428571,4,3,1,70,0,0
86718,-57.1428571428571,4,3,1,5,0,0
86760,-50,4,3,1,70,0,0
87608,-100,4,3,1,70,0,0
87947,-50,4,3,1,70,0,0
88116,338.983050847458,3,3,1,70,1,0
89133,-200,4,2,1,40,0,0
92184,-200,4,2,1,45,0,0
96252,-200,4,2,1,50,0,0
100320,-200,4,2,1,55,0,0
104048,-133.333333333333,4,2,1,55,0,0
104387,-133.333333333333,4,2,1,60,0,0
105574,-400,4,2,1,60,0,0
106082,-133.333333333333,4,2,1,60,0,0
108455,-133.333333333333,4,2,1,65,0,0
109811,-133.333333333333,4,2,1,60,0,0
112184,-133.333333333333,4,2,1,70,0,0
112523,-200,4,2,1,70,0,0
114218,-200,4,2,1,50,0,0
114557,-333.333333333333,4,2,1,40,0,0
115235,-500,4,2,1,30,0,0
115574,-1000,4,2,1,25,0,0
116252,-1000,4,2,1,20,0,0
116591,-66.6666666666667,4,3,1,70,0,0
117608,338.983050847458,5,3,1,70,1,0
117608,-66.6666666666667,5,3,1,70,0,0
118794,-66.6666666666667,4,3,1,5,0,0
119133,-133.333333333333,4,3,1,70,0,0
119303,338.983050847458,3,3,1,70,1,0
119303,-66.6666666666667,4,3,1,70,0,0
120320,338.983050847458,5,3,1,70,1,0
120320,-66.6666666666667,5,3,1,70,0,0
121337,-66.6666666666667,4,3,1,5,0,0
121675,-200,4,3,1,70,0,0
122014,338.983050847458,4,3,1,70,1,0
122014,-66.6666666666667,4,3,1,70,0,0
123201,338.983050847458,4,3,1,70,1,0
123201,-66.6666666666667,4,3,1,70,0,0
124175,-66.6666666666667,4,3,1,5,0,0
124218,-66.6666666666667,4,3,1,70,0,0
124387,338.983050847458,4,3,1,70,1,0
124387,-66.6666666666667,4,3,1,70,0,0
125023,-66.6666666666667,4,3,1,5,0,0
125065,-66.6666666666667,4,3,1,70,0,0
125574,338.983050847458,4,3,1,70,1,0
125574,-66.6666666666667,4,3,1,70,0,0
126251,-133.333333333333,4,3,1,70,0,0
126929,-100,4,3,1,55,0,0
127353,-100,4,3,1,5,0,0
127438,-66.6666666666667,4,3,1,55,0,0
128794,-100,4,3,1,55,0,0
129302,-133.333333333333,4,3,1,55,0,0
129641,-80,4,3,1,55,0,0
130658,-100,4,3,1,55,0,0
131506,-66.6666666666667,4,3,1,55,0,0
132099,-100,4,3,1,55,0,0
132862,-80,4,3,1,55,0,0
134726,-66.6666666666667,4,3,1,55,0,0
135065,-133.333333333333,4,3,1,55,0,0
135404,-66.6666666666667,4,3,1,55,0,0
136421,-100,4,3,1,55,0,0
136760,-66.6666666666667,4,3,1,55,0,0
137777,338.983050847458,3,3,1,60,1,0
137777,-200,4,3,1,60,0,0
138031,-133.333333333333,4,3,1,60,0,0
138285,-100,4,3,1,60,0,0
138455,-66.6666666666667,4,3,1,60,0,0
138794,-80,4,3,1,60,0,0
139472,-200,4,3,1,60,0,0
139810,-66.6666666666667,4,3,1,60,0,1
140065,-57.1428571428571,4,3,1,60,0,1
140488,-57.1428571428571,4,3,1,60,0,0
140658,-66.6666666666667,4,3,1,60,0,0
140785,-66.6666666666667,4,3,1,5,0,0
140828,-100,4,3,1,60,0,0
141633,-100,4,3,1,5,0,0
141675,-100,4,3,1,60,0,0
141845,338.983050847458,4,3,1,60,1,0
142523,-66.6666666666667,4,3,1,60,0,0
145913,-100,4,3,1,60,0,0
148625,338.983050847458,3,3,1,85,1,1
148625,-50,4,3,1,85,0,1
149302,-250,4,3,1,85,0,0
149641,-50,4,3,1,85,0,1
149896,-50,4,3,1,85,0,1
150319,-133.333333333333,4,3,1,85,0,0
150658,-50,4,3,1,85,0,1
151336,-200,4,3,1,85,0,0
151675,-50,4,3,1,85,0,1
152353,-125,4,3,1,85,0,0
152692,-50,4,3,1,85,0,1
153370,-250,4,3,1,85,0,0
153709,-50,4,3,1,85,0,1
153963,-50,4,3,1,85,0,1
154387,-125,4,3,1,85,0,0
154726,-50,4,3,1,85,0,1
155404,-250,4,3,1,85,0,0
155743,-40,4,3,1,85,0,1
156252,-50,4,3,1,85,0,1
156421,-125,4,3,1,85,0,0
156760,-50,4,3,1,85,0,1
157438,-250,4,3,1,85,0,0
157777,-50,4,3,1,85,0,1
158285,-50,4,3,1,85,0,1
158455,-125,4,3,1,85,0,0
158794,-50,4,3,1,85,0,1
159472,-125,4,3,1,85,0,0
159811,-50,4,3,1,85,0,1
160489,-250,4,3,1,85,0,0
160828,-50,4,3,1,85,0,1
161506,-250,4,3,1,85,0,0
161845,-40,4,3,1,85,0,1
162523,-125,4,3,1,85,0,0
162862,-50,4,3,1,85,0,1
163540,-125,4,3,1,85,0,0
163709,-80,4,3,1,85,0,0
163879,-30.7692307692308,4,3,1,85,0,1
164048,-100,4,3,1,85,0,1
164387,-400,4,3,1,85,0,1
164726,-50,4,3,1,85,0,1
164896,338.983050847458,4,2,1,85,1,0
164896,-133.333333333333,4,2,1,85,0,0
165404,-133.333333333333,4,2,1,60,0,0
166252,-133.333333333333,4,2,1,50,0,0
167607,-200,4,2,1,40,0,0
168963,-200,4,2,1,30,0,0
169811,-400,4,2,1,30,0,0
171675,-400,4,2,1,35,0,0
173031,-400,4,2,1,40,0,0
174387,-250,4,2,1,50,0,0
175743,-250,4,2,0,40,0,0
177099,-250,4,2,1,30,0,0
178455,-250,4,2,0,20,0,0
179811,-250,4,2,1,10,0,0
180997,-250,4,2,1,5,0,0

[Colours]
Combo1 : 210,255,119
Combo2 : 41,250,135
Combo3 : 41,198,250
Combo4 : 194,87,253
Combo5 : 245,65,129
Combo6 : 164,198,223
Combo7 : 192,192,192
Combo8 : 255,207,119

[HitObjects]
383,344,1337,6,0,P|396:307|394:268,2,78.7500030040742,8|0|0,0:1|0:0|0:0,0:0:0:0:
315,292,1845,1,0,0:0:0:0:
207,381,2014,6,0,P|142:343|44:362,2,157.500006008148,2|0|2,0:0|0:0|0:3,0:0:0:0:
248,235,3031,1,0,0:0:0:0:
120,99,3370,6,0,P|157:167|150:244,1,157.500006008148,2|0,0:0|0:0,0:0:0:0:
74,172,3879,1,0,0:0:0:0:
201,74,4048,6,0,P|234:54|273:52,1,78.7500030040742,2|0,0:0|0:0,0:0:0:0:
323,189,4387,2,0,L|336:112,1,78.7500030040742
497,17,4726,6,0,P|510:39|512:65,1,52.5,2|0,0:3|0:0,0:0:0:0:
437,67,5065,2,0,P|432:92|417:113,1,52.5
402,285,5404,6,0,P|415:262|417:236,1,52.5,2|0,0:3|0:0,0:0:0:0:
342,235,5743,2,0,P|337:209|322:188,1,52.5
172,154,6082,6,0,L|239:145,1,52.5,2|0,0:3|0:0,0:0:0:0:
174,166,6421,2,0,L|241:157,1,52.5
321,320,6760,5,12,0:1:0:0:
321,320,6845,2,0,L|308:376,2,39.3750015020371
259,260,7099,2,0,P|234:247|219:245,1,39.3750015020371,2|0,0:0|0:0,0:0:0:0:
183,253,7269,1,0,0:0:0:0:
94,358,7438,2,0,L|139:349,1,39.3750015020371,2|0,0:3|0:0,0:0:0:0:
209,331,7608,1,2,0:0:0:0:
97,232,7777,1,0,0:0:0:0:
104,217,7862,2,0,P|112:178|104:140,1,78.7500030040742
48,87,8116,6,0,L|57:39,2,39.3750015020371,2|0|0,0:3|0:0|0:0,0:0:0:0:
134,5,8455,1,0,0:0:0:0:
213,137,8625,2,0,L|197:46,2,78.7500030040742,2|0|0,0:0|0:0|0:0,0:0:0:0:
304,16,9133,1,2,0:0:0:0:
293,13,9218,1,0,0:0:0:0:
281,11,9303,2,0,L|287:49,1,39.3750015020371
212,137,9472,6,0,P|251:133|286:150,1,78.7500030040742,2|0,0:3|0:0,0:0:0:0:
332,219,9726,1,0,0:0:0:0:
332,219,9811,2,0,L|379:227,2,39.3750015020371,2|0|0,0:0|0:0|0:0,0:0:0:0:
257,366,10150,1,2,0:3:0:0:
188,303,10320,1,0,0:0:0:0:
188,303,10404,1,0,0:0:0:0:
188,303,10489,2,0,L|141:311,2,39.3750015020371
253,257,10828,5,2,0:3:0:0:
338,340,10998,2,0,L|415:351,1,78.7500030040742
491,212,11337,2,0,P|464:241|456:279,1,78.7500030040742,2|0,0:0|0:0,0:0:0:0:
359,147,11675,2,0,L|370:224,1,78.7500030040742,2|0,0:0|0:0,0:0:0:0:
432,44,12014,1,2,0:0:0:0:
450,143,12184,5,12,0:1:0:0:
320,71,12353,2,0,P|329:48|326:12,2,44.6250008511543
224,156,12692,1,2,0:0:0:0:
224,156,12777,1,0,0:0:0:0:
224,156,12862,2,0,P|233:179|230:215,2,44.6250008511543,2|0|0,0:3|0:0|0:0,0:0:0:0:
64,81,13201,2,0,L|162:91,1,89.2500017023087,2|0,0:0|0:0,0:0:0:0:
17,218,13540,5,2,0:3:0:0:
154,198,13709,2,0,L|142:254,4,44.6250008511543
239,344,14218,5,2,0:3:0:0:
102,364,14387,2,0,L|114:308,4,44.6250008511543
260,239,14896,5,12,0:1:0:0:
217,374,15065,2,0,L|260:364,2,44.6250008511543
356,265,15404,1,2,0:0:0:0:
356,265,15489,1,0,0:0:0:0:
356,265,15574,2,0,L|399:274,2,44.6250008511543,2|0|0,0:3|0:0|0:0,0:0:0:0:
249,162,15913,2,0,P|233:124|235:69,1,89.2500017023087,2|0,0:0|0:0,0:0:0:0:
276,0,16252,5,2,0:3:0:0:
325,133,16421,2,0,P|330:108|348:87,4,44.6250008511543
445,55,16930,5,2,0:3:0:0:
393,186,17099,2,0,P|413:170|440:165,4,44.6250008511543
249,162,17608,6,0,L|150:152,1,89.2500017023087,12|0,0:1|0:0,0:0:0:0:
109,94,17947,1,0,0:0:0:0:
137,230,18116,1,0,0:0:0:0:
5,186,18286,1,2,0:3:0:0:
82,171,18455,1,0,0:0:0:0:
159,253,18625,1,0,0:0:0:0:
164,268,18709,2,0,B|175:312|175:312|146:353,1,89.2500017023087
142,359,18964,6,0,L|286:338,2,133.875002553463,2|0|0,0:0|0:0|0:0,0:0:0:0:
374,256,19642,2,0,L|230:235,2,133.875002553463,2|0|0,0:0|0:0|0:0,0:0:0:0:
493,154,20320,5,12,0:1:0:0:
430,89,20489,1,0,0:0:0:0:
430,89,20574,1,0,0:0:0:0:
349,124,20743,1,0,0:0:0:0:
283,16,20913,1,0,0:0:0:0:
283,16,20998,2,0,L|292:67,2,44.6250008511543,2|0|0,0:3|0:0|0:0,0:0:0:0:
182,195,21337,2,0,L|195:106,1,89.2500017023087
42,9,21675,5,2,0:0:0:0:
107,136,21930,1,2,0:0:0:0:
6,236,22184,1,2,0:0:0:0:
6,236,22353,6,0,P|67:271|99:354,1,147,2|0,0:3|0:0,0:0:0:0:
18,357,23031,6,0,L|174:373,2,157.5,2|0|0,1:2|0:0|0:0,0:0:0:0:
107,253,23709,1,0,0:0:0:0:
487,266,24387,6,0,L|330:282,2,157.5,2|0|0,1:2|0:0|0:0,0:0:0:0:
389,165,25065,1,0,0:0:0:0:
70,8,25743,6,0,P|31:50|14:161,2,157.5,2|2|2,1:2|0:0|0:0,0:0:0:0:
95,193,26421,1,10,0:0:0:0:
145,49,26591,2,0,P|148:100|178:142,1,105,8|0,0:0|0:0,0:0:0:0:
226,3,27099,6,0,P|272:65|270:142,2,157.5,2|2|2,1:2|0:0|0:0,0:0:0:0:
394,127,27777,2,0,P|374:173|317:203,1,105,10|0,0:0|0:0,0:0:0:0:
302,276,28116,1,8,0:0:0:0:
422,361,28286,1,8,0:0:0:0:
422,361,28370,1,8,0:0:0:0:
422,361,28455,6,0,L|397:177,2,157.5,2|0|0,1:2|0:0|0:0,0:0:0:0:
493,270,29133,1,0,0:0:0:0:
103,313,29726,1,0,0:0:0:0:
103,313,29811,6,0,L|128:129,2,157.5,2|0|0,1:2|0:0|0:0,0:0:0:0:
35,226,30489,2,0,L|219:251,2,157.5,2|0|0,0:0|0:0|0:0,0:0:0:0:
9,301,31167,5,2,1:2:0:0:
191,247,31421,1,0,0:0:0:0:
54,117,31675,1,0,0:0:0:0:
54,117,31845,2,0,P|98:95|158:98,1,105,8|8,0:0|0:0,0:0:0:0:
229,11,32184,2,0,P|195:81|203:158,1,157.5
191,247,32523,6,0,P|288:332|307:204,1,315,2|2,1:2|0:0,0:0:0:0:
307,204,33540,6,2,P|326:76|423:161,1,315.000012016297,2|6,0:0|1:2,0:0:0:0:
256,192,33964,12,0,35235,0:0:0:0:
256,192,35320,12,0,36591,0:0:0:0:
256,192,36675,12,0,37947,0:0:0:0:
256,192,38031,12,0,39303,0:0:0:0:
256,192,39387,12,0,40659,0:0:0:0:
256,192,40743,12,0,41930,0:0:0:0:
252,299,42014,6,0,L|264:378,1,78.75,4|0,1:0|0:0,0:0:0:0:
337,365,43370,6,0,L|182:340,2,157.5,2|0|0,1:2|1:0|1:0,0:0:0:0:
415,311,43964,1,0,1:0:0:0:
423,337,44048,1,2,1:2:0:0:
297,162,44726,6,0,L|307:43,1,105,12|0,1:1|0:0,0:0:0:0:
435,17,44981,2,0,B|470:58|470:58|456:107,1,105,2|0,1:2|0:0,0:0:0:0:
383,82,45235,1,2,1:2:0:0:
505,247,45404,6,0,B|466:241|466:241|444:250|444:250|389:243,1,105,2|0,1:2|0:0,0:0:0:0:
297,162,45659,2,0,B|258:168|258:168|236:159|236:159|181:166,1,105,2|0,1:2|0:0,0:0:0:0:
120,178,45913,1,2,1:2:0:0:
8,377,46082,6,0,P|59:382|100:351,1,105,8|0,1:0|0:0,0:0:0:0:
292,284,46337,2,0,P|250:253|199:258,1,105,2|0,1:2|0:0,0:0:0:0:
177,333,46591,1,2,1:2:0:0:
40,215,46760,6,0,L|29:98,2,118.125004506111,2|2|2,0:0|0:0|0:0,0:0:0:0:
29,98,47438,6,0,P|74:53|142:54,1,131.25,6|0,1:2|0:0,0:0:0:0:
275,3,47692,2,0,P|248:62|248:127,1,131.25,2|0,1:2|0:0,0:0:0:0:
192,183,47947,2,0,P|201:218|220:243,1,65.625,2|0,1:2|0:0,0:0:0:0:
349,379,48116,6,0,B|320:362|320:362|309:318,1,78.7500030040742,10|0,1:3|0:0,0:0:0:0:
410,191,48286,1,0,0:0:0:0:
413,175,48370,2,0,B|384:192|384:192|373:235,1,78.7500030040742,8|0,0:0|1:0,0:0:0:0:
494,333,48540,1,8,0:0:0:0:
499,349,48624,2,0,B|470:332|470:332|459:288,1,78.7500030040742,8|0,0:0|0:0,0:0:0:0:
361,76,48794,6,0,P|425:81|480:43,1,131.25,6|0,1:2|0:0,0:0:0:0:
248,0,49048,2,0,P|277:65|270:140,1,131.25,2|0,1:2|0:0,0:0:0:0:
209,169,49303,2,0,P|199:202|172:231,1,65.625,2|0,1:2|0:0,0:0:0:0:
30,337,49472,5,10,1:3:0:0:
46,333,49556,1,0,0:0:0:0:
62,330,49641,1,8,0:0:0:0:
78,327,49726,1,8,0:0:0:0:
111,320,49811,1,10,1:3:0:0:
49,199,49981,2,0,L|110:212,1,52.5
245,374,50150,6,0,B|229:328|229:328|263:281,1,105,12|0,1:0|0:0,0:0:0:0:
342,171,50404,2,0,L|362:288,1,105,2|0,1:2|0:0,0:0:0:0:
321,345,50659,1,2,1:2:0:0:
179,225,50828,6,0,L|199:108,1,105,2|0,1:2|0:0,0:0:0:0:
252,16,51082,2,0,P|201:14|160:46,1,105,2|0,1:2|0:0,0:0:0:0:
93,4,51337,1,2,1:2:0:0:
277,101,51506,6,0,L|382:86,1,105,8|0,1:1|0:0,0:0:0:0:
512,19,51760,2,0,B|471:33|471:33|461:96,1,105,2|0,1:2|0:0,0:0:0:0:
446,171,52014,1,2,1:2:0:0:
459,383,52184,6,0,P|493:345|494:293,1,105,2|0,1:2|0:0,0:0:0:0:
429,250,52438,2,0,L|358:237,1,52.5,2|0,1:2|0:0,0:0:0:0:
279,297,52608,1,0,0:0:0:0:
253,289,52692,1,2,1:2:0:0:
29,372,52862,6,0,B|185:335|185:335|137:275,1,236.250009012223,6|0,1:2|1:0,0:0:0:0:
0,140,53201,2,0,B|30:156|30:156|40:199,1,78.7500030040742,8|0,0:3|0:0,0:0:0:0:
57,276,53370,1,0,1:2:0:0:
5,56,53540,6,0,L|148:121,1,157.500006008148,8|0,1:3|0:0,0:0:0:0:
261,10,53794,2,0,P|208:19|178:59,1,78.7500030040742,8|0,0:0|1:0,0:0:0:0:
219,175,53964,1,0,0:0:0:0:
235,182,54048,2,2,P|288:173|318:133,1,78.7500030040742,8|0,0:0|0:0,0:2:0:0:
480,68,54218,5,10,1:3:0:0:
405,6,54387,2,0,P|380:13|367:35,1,52.5,0|0,0:0|1:0,0:0:0:0:
305,157,54557,2,2,B|334:280|334:280|340:288|340:288|343:278|343:278|321:152,1,275.625002628565,2|8,1:0|0:0,0:2:0:0:
391,112,54896,6,0,P|359:83|276:91,1,105,10|8,1:3|1:3,0:0:0:0:
392,357,55404,2,0,P|394:372|398:382,1,26.25,10|0,0:0|0:0,0:0:0:0:
402,354,55489,2,0,P|406:366|408:379,1,26.25,10|0,0:0|0:0,0:0:0:0:
481,328,55574,6,0,L|316:304,1,157.500006008148,6|0,1:2|0:0,0:0:0:0:
209,381,55828,2,0,B|233:363|233:363|244:302,2,78.7500030040742,2|0|2,1:0|0:0|0:0,0:0:0:0:
183,251,56082,5,2,1:2:0:0:
26,355,56252,1,2,1:2:0:0:
54,363,56336,1,0,0:0:0:0:
83,358,56421,1,0,0:0:0:0:
108,342,56506,1,0,0:0:0:0:
123,316,56590,1,2,1:3:0:0:
136,48,56930,6,0,B|174:42|174:42|153:116|153:116|112:125,1,157.500006008148,6|0,1:2|0:0,0:0:0:0:
11,198,57184,2,0,L|167:214,1,157.500006008148,2|0,1:2|0:0,0:0:0:0:
287,28,57438,2,0,B|260:42|260:42|243:105,1,78.7500030040742,2|0,1:2|0:0,0:0:0:0:
332,256,57608,6,0,B|434:275|401:188|517:219,1,183.75,10|0,0:2|2:0,0:0:0:0:
496,139,58286,6,0,P|470:209|484:303,1,157.500006008148,6|0,1:2|0:0,0:0:0:0:
368,384,58540,2,0,P|376:306|350:232,1,157.500006008148,2|0,1:2|0:0,0:0:0:0:
365,155,58794,2,0,P|347:129|318:113,1,65.625,2|0,1:2|0:0,0:0:0:0:
89,31,58964,6,0,B|70:46|70:46|131:56,1,78.7500030040742,8|0,1:3|0:0,0:0:0:0:
213,120,59133,1,8,0:0:0:0:
226,126,59218,2,0,B|238:105|238:105|177:116,1,78.7500030040742,8|0,0:0|0:0,0:0:0:0:
45,140,59387,1,0,0:0:0:0:
30,148,59472,2,0,B|10:163|10:163|64:172,1,78.7500030040742,8|0,0:0|0:0,0:0:0:0:
272,314,59642,6,0,P|208:308|145:348,1,131.25,6|0,1:2|0:0,0:0:0:0:
57,381,59896,2,0,L|74:232,1,131.25,2|0,1:2|0:0,0:0:0:0:
63,171,60150,2,0,L|74:83,1,65.625,2|0,1:2|0:0,0:0:0:0:
4,42,60320,5,2,1:2:0:0:
13,40,60404,1,0,0:0:0:0:
23,39,60489,1,0,0:0:0:0:
33,37,60574,1,0,0:0:0:0:
42,36,60658,1,8,0:0:0:0:
41,77,60743,1,8,0:0:0:0:
72,106,60828,1,8,0:0:0:0:
113,100,60913,1,8,0:0:0:0:
133,64,60998,6,0,L|237:49,1,105,12|0,1:0|0:0,0:0:0:0:
150,202,61252,2,0,L|254:187,1,105,2|0,1:2|0:0,0:0:0:0:
284,113,61506,1,2,1:2:0:0:
501,148,61675,6,0,L|396:133,1,105,2|0,1:2|0:0,0:0:0:0:
485,285,61929,2,0,L|380:270,1,105,2|0,1:2|0:0,0:0:0:0:
349,197,62183,1,2,1:2:0:0:
161,312,62353,5,8,1:1:0:0:
164,328,62438,2,0,L|174:379,1,52.5,2|0,0:2|1:0,0:0:0:0:
288,246,62608,2,0,L|268:382,1,105,2|0,1:2|0:0,0:0:0:0:
176,182,62862,2,0,L|189:243,2,52.5,2|0|8,1:2|0:0|1:2,0:0:0:0:
209,113,63116,1,10,0:2:0:0:
176,79,63201,1,8,0:2:0:0:
130,87,63286,5,10,1:2:0:0:
246,13,63455,1,0,0:2:0:0:
262,10,63540,2,0,L|313:0,1,52.5,2|0,1:2|0:0,0:0:0:0:
395,180,63709,5,6,1:2:0:0:
378,175,63794,2,0,P|358:150|351:119,1,65.625
444,26,63964,2,0,P|481:78|484:143,1,131.25,2|0,1:2|0:0,0:0:0:0:
512,217,64218,2,0,P|497:246|470:265,1,65.625,2|0,0:2|0:0,0:0:0:0:
281,357,64387,6,0,P|252:294|319:281,1,157.500006008148,10|0,1:3|0:0,0:0:0:0:
511,368,64642,2,0,P|437:341|360:355,1,157.500006008148,8|8,0:0|0:0,0:0:0:0:
214,177,64896,2,2,P|236:210|243:249,1,78.7500030040742,10|0,0:0|0:0,0:2:0:0:
66,357,65065,6,0,B|124:369|124:369|151:227,1,183.750001752377,6|0,1:2|0:0,0:0:0:0:
340,111,65404,2,0,B|316:-12|316:-12|258:0,1,183.750001752377,6|0,1:2|0:0,0:0:0:0:
7,182,65743,6,0,B|39:169|67:184|67:184|121:175,1,91.8750008761883,10|0,1:3|0:0,0:0:0:0:
238,369,65913,2,0,B|212:333|212:333|226:255,1,118.125004506111,10|0,0:0|0:0,0:0:0:0:
192,100,66252,6,0,B|203:149|203:149|361:207,1,210,2|8,0:0|1:0,0:0:0:0:
486,170,66675,1,0,0:0:0:0:
389,70,66930,1,0,0:0:0:0:
404,149,67184,5,0,0:0:0:0:
413,152,67269,1,0,0:0:0:0:
411,143,67353,1,0,0:0:0:0:
397,116,67438,2,0,P|385:119|374:126,4,26.25
334,231,67692,6,0,L|327:287,1,52.5,0|8,0:0|1:0,0:0:0:0:
103,363,68286,1,0,1:0:0:0:
140,273,68455,6,2,B|211:301|196:377|128:379|128:379|117:365|117:365|128:283,1,262.5,4|0,0:1|1:0,0:1:0:0:
99,272,68964,2,0,P|116:252|157:251,1,52.5
300,379,69133,6,0,P|266:308|271:230,1,157.500006008148,6|0,1:2|0:0,0:0:0:0:
189,51,69387,2,0,B|226:43|244:0|244:0|245:48|280:76,1,157.500006008148,8|0,1:3|0:0,0:0:0:0:
333,119,69642,2,0,P|302:143|263:146,1,78.7500030040742,2|0,1:2|0:0,0:0:0:0:
52,265,69811,6,0,B|29:234|29:234|33:194,1,78.7500030040742,10|0,1:3|0:0,0:0:0:0:
180,138,69981,1,0,0:0:0:0:
174,155,70065,2,0,B|158:189|158:189|122:206,1,78.7500030040742,8|0,0:0|1:3,0:0:0:0:
2,107,70236,1,0,0:0:0:0:
19,104,70320,2,0,B|56:99|56:99|88:123,1,78.7500030040742,8|0,0:0|0:0,0:0:0:0:
283,54,70489,6,0,B|381:29|381:29|436:72,1,157.500006008148,6|0,1:2|0:0,0:0:0:0:
487,229,70743,2,0,B|444:245|444:245|464:115,1,157.500006008148,8|0,1:3|0:0,0:0:0:0:
425,63,70998,2,0,B|455:39|455:39|495:42,1,78.7500030040742,2|0,1:2|0:0,0:0:0:0:
340,177,71167,5,10,1:3:0:0:
344,193,71251,1,0,0:0:0:0:
347,209,71336,1,8,0:0:0:0:
350,225,71421,1,8,0:0:0:0:
359,267,71506,1,8,1:3:0:0:
490,319,71675,1,2,0:2:0:0:
337,382,71845,6,0,P|277:347|213:357,1,131.25,12|0,1:0|0:0,0:0:0:0:
99,247,72099,2,0,L|119:387,1,131.25,8|0,1:3|0:0,0:0:0:0:
189,272,72353,1,2,1:2:0:0:
0,198,72523,6,0,L|20:58,1,131.25,10|0,1:3|0:0,0:0:0:0:
95,156,72777,2,0,P|158:163|211:126,1,131.25,2|0,1:2|0:0,0:0:0:0:
190,52,73031,1,2,1:2:0:0:
429,27,73201,6,0,B|449:124|449:124|401:166,1,157.500006008148,8|0,1:0|0:0,0:0:0:0:
288,152,73455,2,0,B|251:106|251:106|287:14,1,157.500006008148,8|0,1:3|0:0,0:0:0:0:
356,56,73709,1,2,1:2:0:0:
165,281,73879,6,0,B|226:270|226:270|245:245|245:245|324:231,1,157.500006008148,10|0,1:3|0:0,0:0:0:0:
405,162,74133,2,0,B|381:193|381:193|390:231,1,78.7500030040742,2|0,1:2|0:0,0:0:0:0:
344,365,74303,1,0,0:0:0:0:
337,384,74387,2,0,B|313:353|313:353|322:314,1,78.7500030040742,2|0,1:2|0:0,0:0:0:0:
471,210,74557,6,0,P|521:298|422:313,1,236.250009012223,6|2,1:2|1:2,0:0:0:0:
337,384,74896,2,0,P|286:362|236:369,1,78.7500030040742,8|0,0:0|0:0,0:0:0:0:
240,368,75065,1,2,1:2:0:0:
82,217,75235,6,0,B|94:306|138:259|151:355,1,157.500006008148,10|0,1:3|0:0,0:0:0:0:
82,217,75489,2,0,P|120:214|160:179,1,78.7500030040742,8|0,0:0|1:0,0:0:0:0:
121,62,75659,1,8,0:0:0:0:
104,55,75743,2,0,P|65:58|33:81,1,78.7500030040742,2|2,0:2|0:2,0:0:0:0:
96,138,75913,6,0,B|228:154|228:154|207:83,1,183.750001752377,6|0,1:2|0:0,0:0:0:0:
394,22,76252,2,0,B|262:6|262:6|276:54,1,183.750001752377,6|0,1:2|0:0,0:0:0:0:
300,269,76591,6,0,B|312:241|302:215|302:215|313:154,1,91.8750008761883,6|0,1:2|0:0,0:0:0:0:
461,67,76760,2,0,L|512:57,5,52.5,4|0|0|0|0|0,0:1|0:0|0:0|0:0|0:0|0:0,0:0:0:0:
405,135,77269,6,0,B|435:154|435:154|444:214|444:214|418:240,1,131.25,6|0,1:2|0:0,0:0:0:0:
286,373,77523,2,0,B|261:348|261:348|270:288|270:288|300:269,1,131.25,2|0,1:2|0:0,0:0:0:0:
412,353,77777,6,0,P|381:355|360:331,1,65.625,2|0,1:2|0:0,0:0:0:0:
216,212,77947,2,0,P|139:270|45:256,1,196.875,2|0,1:2|0:0,0:0:0:0:
0,192,78286,6,0,L|7:148,3,39.3750015020371,0|0|0|0,1:0|0:0|0:0|0:0,0:0:0:0:
45,256,78625,6,0,P|81:320|160:263,1,157.500006008148,2|0,1:3|0:0,0:0:0:0:
216,212,78879,1,2,1:2:0:0:
204,194,78964,2,0,P|191:157|195:118,1,78.7500030040742
107,25,79133,2,0,L|184:38,1,78.7500030040742,2|0,1:2|0:0,0:0:0:0:
441,102,79303,6,0,B|344:81|372:168|259:141,1,183.75,8|0,0:2|2:0,0:0:0:0:
299,226,79981,6,0,P|285:173|290:64,1,157.500006008148,6|0,1:2|0:0,0:0:0:0:
414,181,80235,2,0,P|428:234|423:343,1,157.500006008148,2|2,1:2|0:2,0:0:0:0:
384,363,80489,1,2,1:2:0:0:
338,354,80574,1,2,0:2:0:0:
297,376,80659,6,0,B|263:356|263:356|225:367,1,78.7500030040742,8|0,1:3|0:0,0:0:0:0:
184,215,80828,1,0,0:0:0:0:
203,227,80913,2,0,B|163:226|163:226|136:255,1,78.7500030040742,8|2,0:0|1:2,0:0:0:0:
30,145,81082,1,2,0:2:0:0:
53,146,81167,2,0,B|18:165|18:165|9:203,1,78.7500030040742,8|0,0:0|0:0,0:0:0:0:
58,337,81337,2,0,L|47:267,1,52.5,2|2,1:3|0:2,0:0:0:0:
141,79,81506,5,2,1:2:0:0:
153,66,81591,2,0,L|137:164,2,78.7500030040742,2|0|0,1:0|0:0|0:0,0:0:0:0:
316,7,81845,2,0,P|277:10|245:33,1,78.7500030040742,2|2,1:2|1:2,0:0:0:0:
262,110,82014,2,0,P|299:121|337:110,1,78.7500030040742,2|2,1:2|0:2,0:0:0:0:
488,184,82184,5,2,1:2:0:0:
451,174,82268,1,2,1:2:0:0:
413,183,82353,1,2,1:2:0:0:
383,208,82438,1,2,1:2:0:0:
354,233,82523,1,2,1:2:0:0:
316,242,82608,1,2,1:2:0:0:
278,232,82692,6,0,B|325:283|306:348|306:348|266:319,1,157.500006008148,6|0,1:2|0:0,0:0:0:0:
158,379,82947,1,0,0:0:0:0:
169,363,83031,2,0,P|189:288|163:214,1,157.500006008148,8|0,0:0|1:0,0:0:0:0:
4,94,83370,2,0,P|58:139|149:108,1,157.500006008148,2|0,1:2|0:0,0:0:0:0:
248,21,83625,6,0,P|209:21|175:46,1,78.7500030040742,2|0,1:2|0:0,0:0:0:0:
65,237,83794,1,0,0:0:0:0:
86,231,83879,2,0,L|172:212,1,78.7500030040742,8|0,0:0|0:0,0:0:0:0:
235,98,84048,5,2,1:3:0:0:
257,100,84133,2,0,B|326:111|326:111|356:147|356:147|422:157,1,183.750001752377,0|0,1:0|1:0,0:0:0:0:
487,1,84387,6,0,P|466:41|475:85,1,91.8750008761883,8|2,0:0|0:2,0:0:0:0:
341,181,84557,2,0,P|361:221|352:265,1,91.8750008761883,2|2,1:2|0:2,0:0:0:0:
455,378,84726,5,8,0:0:0:0:
468,362,84811,2,0,B|492:326|492:326|472:267,1,91.8750008761883,0|0,1:0|0:0,0:0:0:0:
281,234,84981,2,0,B|245:321|245:321|308:384,1,183.750001752377,8|2,1:3|1:2,0:0:0:0:
379,352,85235,1,8,0:0:0:0:
194,214,85404,5,6,1:2:0:0:
186,195,85489,2,0,P|196:164|256:147,1,91.8750008761883,2|0,1:2|0:0,0:0:0:0:
131,45,85659,2,0,L|313:67,1,183.750001752377,2|0,1:2|0:0,0:0:0:0:
382,25,85913,2,0,L|473:36,1,91.8750008761883,2|0,1:2|0:0,0:0:0:0:
394,211,86082,6,0,B|346:198|346:198|309:50,1,183.750001752377,10|0,1:3|0:0,0:0:0:0:
99,175,86337,2,0,B|64:223|64:223|186:195,1,183.750001752377,8|0,0:0|0:0,0:0:0:0:
239,32,86591,2,2,B|200:9|200:9|154:27,1,91.8750008761883,10|0,0:0|0:0,0:0:0:0:
51,25,86760,6,0,B|28:161|28:161|99:175,1,210,6|0,1:2|0:0,0:0:0:0:
217,373,87099,2,0,B|194:237|194:237|264:223,1,210,6|0,1:2|0:0,0:0:0:0:
461,102,87438,6,0,B|428:108|414:133|414:133|361:146,1,105,8|0,1:3|0:0,0:0:0:0:
298,310,87608,2,0,L|470:331,1,157.5,8|0,1:3|0:0,0:0:0:0:
511,384,87947,6,2,B|491:282|491:282|498:265|498:265|479:164,1,210,8|12,1:3|1:0,0:0:0:0:
228,350,89133,6,0,P|125:362|36:311,1,210,2|0,3:0|0:0,0:0:0:0:
132,165,90150,6,0,P|114:205|116:271,2,105,2|2|0,3:0|0:3|0:0,0:0:0:0:
0,46,91167,2,0,L|112:61,1,105,2|2,3:0|0:3,0:0:0:0:
121,62,91675,1,0,0:0:0:0:
204,27,91845,2,0,L|239:32,3,26.25
346,12,92184,6,0,P|319:53|317:176,1,157.5,8|0,3:1|3:0,0:0:0:0:
415,62,92862,2,0,P|417:89|426:113,1,52.5,2|0,0:3|0:0,0:0:0:0:
426,113,93116,1,0,0:0:0:0:
426,113,93201,1,2,3:0:0:0:
396,227,93540,1,0,0:0:0:0:
479,315,93879,1,2,0:3:0:0:
311,384,94218,6,0,L|370:373,1,52.5,2|0,3:0|0:0,0:0:0:0:
479,315,94557,2,0,L|420:304,1,52.5,2|0,3:0|0:0,0:0:0:0:
270,265,94896,2,0,L|299:259,3,26.25
214,325,95235,5,2,3:0:0:0:
85,190,95574,1,2,3:0:0:0:
81,215,95658,1,0,3:0:0:0:
77,241,95743,1,0,3:0:0:0:
180,200,95913,2,0,L|188:237,3,26.25,0|0|0|0,3:0|0:0|0:0|0:0,0:0:0:0:
213,130,96252,5,8,3:1:0:0:
172,64,96421,1,2,0:3:0:0:
93,65,96591,2,0,P|66:74|39:96,1,52.5,2|0,0:3|0:0,0:0:0:0:
230,6,96930,2,0,L|308:16,1,78.75
308,16,97269,5,2,3:0:0:0:
437,101,97438,2,0,L|314:118,1,105
310,119,97947,1,0,0:0:0:0:
491,324,98286,5,2,3:3:0:0:
450,215,98455,1,2,0:3:0:0:
377,306,98625,2,0,P|351:317|325:318,1,52.5,2|0,0:3|0:0,0:0:0:0:
267,381,98964,5,2,0:3:0:0:
289,242,99133,1,2,0:3:0:0:
184,147,99303,2,0,P|158:136|132:135,1,52.5,2|0,3:3|0:0,0:0:0:0:
32,218,99642,5,2,3:0:0:0:
57,214,99726,1,0,3:0:0:0:
83,210,99811,1,0,3:0:0:0:
47,315,99981,2,0,L|72:319,3,26.25,2|0|0|0,3:0|0:0|0:0|0:0,0:0:0:0:
133,375,100320,5,8,3:1:0:0:
139,380,100659,1,2,0:3:0:0:
198,333,100828,1,2,0:3:0:0:
216,259,100998,1,2,0:3:0:0:
272,309,101167,1,2,0:3:0:0:
347,311,101337,6,0,P|359:335|362:361,1,52.5,2|0,3:0|0:0,0:0:0:0:
449,218,101675,2,0,P|460:194|463:168,1,52.5,2|0,0:3|0:0,0:0:0:0:
389,31,102014,2,0,L|404:109,1,78.75,2|0,0:3|0:0,0:0:0:0:
403,108,102353,5,2,3:0:0:0:
303,10,102523,2,0,L|296:70,1,52.5
135,152,102862,2,0,P|185:159|227:129,1,105,2|0,3:0|0:0,0:0:0:0:
303,10,103370,6,0,L|314:75,1,52.5,2|0,3:0|0:0,0:0:0:0:
227,129,103709,2,0,L|258:170,1,52.5,2|0,3:0|3:0,0:0:0:0:
221,270,104048,2,0,L|270:288,2,52.5000020027161,2|0|0,3:0|3:0|3:0,0:0:0:0:
141,320,104387,6,0,P|105:303|67:306,1,78.7500030040742,8|0,3:1|0:0,0:0:0:0:
246,366,104726,2,0,P|284:369|319:352,1,78.7500030040742,2|0,0:3|0:0,0:0:0:0:
427,219,105065,2,0,L|401:383,1,157.500006008148,2|0,0:0|3:0,0:0:0:0:
357,172,105574,6,0,L|365:120,1,52.5
483,28,106082,2,0,P|444:28|411:49,1,78.7500030040742,2|0,0:3|0:0,0:0:0:0:
427,219,106421,6,0,P|446:185|444:146,1,78.7500030040742,2|0,3:3|0:0,0:0:0:0:
289,75,106760,2,0,L|186:89,1,78.7500030040742,2|0,3:0|0:0,0:0:0:0:
209,95,107014,1,0,0:0:0:0:
207,105,107099,1,2,0:0:0:0:
206,115,107184,1,0,0:0:0:0:
204,124,107268,1,0,0:0:0:0:
26,17,107438,5,0,3:0:0:0:
140,40,107608,1,0,3:0:0:0:
61,126,107777,1,0,3:0:0:0:
103,195,107947,2,0,L|148:188,4,39.3750015020371
30,383,108455,6,0,P|8:328|18:271,1,118.125004506111,8|0,3:1|0:0,0:0:0:0:
18,271,108794,1,2,3:3:0:0:
110,350,108964,1,2,0:3:0:0:
225,311,109133,1,2,3:3:0:0:
186,379,109303,1,2,0:3:0:0:
223,232,109472,6,0,P|233:194|261:167,1,78.7500030040742,2|0,3:0|0:0,0:0:0:0:
381,337,109811,2,0,L|303:325,1,78.7500030040742,2|0,3:0|0:0,0:0:0:0:
418,201,110150,2,0,L|495:189,1,78.7500030040742,2|0,3:0|0:0,0:0:0:0:
303,59,110489,2,0,P|313:97|341:124,1,78.7500030040742,2|0,3:0|0:0,0:0:0:0:
382,55,110828,5,2,3:2:0:0:
260,167,110998,1,2,0:2:0:0:
224,5,111167,1,0,3:0:0:0:
195,78,111337,1,0,0:0:0:0:
25,109,111506,6,0,P|10:89|6:65,3,39.3750015020371,0|0|0|0,3:0|0:0|0:0|0:0,0:0:0:0:
82,54,111845,2,0,P|83:29|95:8,3,39.3750015020371,0|0|0|0,3:0|0:0|0:0|0:0,0:0:0:0:
166,109,112184,2,0,L|156:159,1,39.3750015020371,2|0,3:0|0:0,0:0:0:0:
106,208,112353,2,0,L|96:258,1,39.3750015020371,2|0,3:0|0:0,0:0:0:0:
46,307,112523,5,12,3:1:0:0:
305,371,114218,2,0,P|332:362|358:360,1,52.5,2|2,0:0|0:0,0:0:0:0:
427,279,114557,6,0,P|387:273|335:254,1,94.499997116089,2|0,0:0|0:0,0:0:0:0:
282,198,115235,2,0,L|278:170,1,21,2|0,0:0|0:0,0:0:0:0:
212,337,115574,6,0,L|205:380,1,42,2|2,0:0|0:0,0:0:0:0:
205,378,116591,6,0,B|187:287|187:287|121:267,1,157.500006008148,6|0,1:2|0:0,0:0:0:0:
0,189,116845,1,0,0:0:0:0:
9,204,116930,2,0,B|32:235|32:235|73:208,1,78.7500030040742,2|0,1:2|0:0,0:0:0:0:
205,28,117099,6,0,B|192:76|210:49|192:110,2,78.7500030040742,2|0|2,0:2|1:0|0:0,0:0:0:0:
117,124,117353,2,0,B|104:75|122:102|104:41,2,78.7500030040742,0|0|0,1:0|1:0|1:0,0:0:0:0:
258,191,117608,6,0,B|353:171|353:171|374:100,1,157.500006008148,6|0,1:2|0:0,0:0:0:0:
483,19,117862,2,0,B|431:32|431:32|455:138,1,157.500006008148,2|0,1:2|0:0,0:0:0:0:
367,263,118116,2,0,B|398:240|398:240|371:199,1,78.7500030040742,2|0,1:2|0:0,0:0:0:0:
279,90,118285,5,8,1:2:0:0:
281,73,118369,1,0,0:0:0:0:
283,57,118454,1,8,1:2:0:0:
407,340,119133,2,0,P|417:361|418:381,1,39.3750015020371,2|2,0:0|0:0,0:0:0:0:
418,376,119303,6,0,B|351:331|351:331|266:354,1,157.500006008148,6|0,1:2|0:0,0:0:0:0:
180,243,119557,1,0,0:0:0:0:
167,228,119642,2,0,B|149:333|149:333|210:322,1,157.500006008148,2|0,1:2|1:0,0:0:0:0:
327,247,119896,6,0,L|309:157,2,78.7500030040742,2|0|0,0:2|0:0|1:0,0:0:0:0:
222,120,120150,1,0,0:0:0:0:
223,96,120235,1,0,0:0:0:0:
240,81,120320,6,0,B|139:50|139:50|85:95,1,157.500006008148,6|0,1:2|0:0,0:0:0:0:
8,274,120574,2,0,B|69:254|69:254|85:151,1,157.500006008148,2|0,1:2|0:0,0:0:0:0:
10,22,120828,2,0,L|24:118,1,78.7500030040742,2|0,1:2|0:0,0:0:0:0:
171,208,120998,5,8,1:2:0:0:
187,203,121082,1,8,1:2:0:0:
361,26,121675,2,0,L|386:30,3,26.25,2|2|2|2,0:0|0:0|0:0|0:0,0:0:0:0:
466,0,122014,6,0,B|481:97|481:97|411:111,1,157.500006008148,6|0,1:2|0:0,0:0:0:0:
279,172,122269,2,0,L|434:195,1,157.500006008148,2|0,1:2|0:0,0:0:0:0:
512,204,122523,1,2,1:2:0:0:
285,373,122777,6,0,B|264:342|264:342|274:294,1,78.7500030040742,2|0,1:2|0:0,0:0:0:0:
504,300,122947,2,0,L|332:325,1,157.500006008148,2|0,1:2|0:0,0:0:0:0:
285,373,123201,6,0,B|233:353|233:353|216:252,1,157.500006008148,6|0,1:2|0:0,0:0:0:0:
97,135,123455,2,0,B|139:171|139:171|120:271,1,157.500006008148,2|0,1:2|0:0,0:0:0:0:
145,351,123709,5,2,1:2:0:0:
142,359,123794,1,2,1:2:0:0:
136,351,123878,1,2,1:3:0:0:
6,254,124048,1,2,1:2:0:0:
156,190,124218,1,2,1:2:0:0:
25,92,124387,6,0,L|181:73,1,157.500006008148,6|0,1:2|0:0,0:0:0:0:
284,4,124642,1,2,1:2:0:0:
298,18,124726,2,0,B|269:41|269:41|261:82,1,78.7500030040742,8|0,0:0|0:0,0:0:0:0:
251,161,124896,1,2,1:2:0:0:
491,195,125065,6,0,B|504:116|504:116|454:58,1,157.500006008148,10|0,1:3|0:0,0:0:0:0:
346,87,125320,2,0,B|332:165|332:165|382:223,1,157.500006008148,10|10,1:3|1:3,0:0:0:0:
417,141,125574,5,6,1:2:0:0:
512,303,125743,2,0,L|434:290,1,78.7500030040742,0|0,1:0|0:0,0:0:0:0:
209,375,125913,2,2,B|370:346|370:346|318:295,1,236.250009012223,2|8,1:0|0:0,0:2:0:0:
251,161,126252,6,0,L|243:239,1,78.7500030040742,8|8,3:0|0:0,0:0:0:0:
17,65,126929,6,0,B|36:-20|165:-29|187:61|141:107|86:84,1,262.5,4|0,1:0|0:0,0:0:0:0:
92,86,127438,6,0,P|130:153|130:231,1,157.500006008148,8|0,1:3|0:0,0:0:0:0:
33,145,127777,2,0,P|35:181|17:225,1,78.7500030040742,2|0,0:2|0:0,0:0:0:0:
188,80,127946,2,0,P|218:103|237:138,1,78.7500030040742,8|0,0:0|0:0,0:0:0:0:
199,301,128116,1,2,0:0:0:0:
194,319,128201,1,2,0:0:0:0:
190,334,128285,6,0,B|290:316|290:316|308:253,1,157.500006008148,2|0,1:2|0:0,0:0:0:0:
426,384,128540,2,0,P|392:314|408:238,1,157.500006008148,2|0,1:2|0:0,0:0:0:0:
323,154,128794,6,0,L|374:164,1,52.5,8|0,1:3|0:0,0:0:0:0:
493,82,128963,2,0,L|442:92,1,52.5
441,92,129133,1,0,1:0:0:0:
287,0,129302,1,8,0:0:0:0:
277,15,129387,2,0,L|365:30,1,78.7500030040742,2|0,1:2|0:0,0:0:0:0:
323,154,129641,6,0,L|314:93,4,52.5,2|2|2|2|2,1:3|0:0|0:0|0:0|0:0,0:0:0:0:
485,298,130150,6,0,B|463:347|463:347|366:365,1,131.25,8|0,1:3|0:0,0:0:0:0:
301,238,130404,2,0,L|283:388,1,131.25,2|0,1:2|0:0,0:0:0:0:
196,333,130658,2,0,L|183:264,2,70,2|2|2,1:2|1:2|1:2,0:0:0:0:
223,186,130997,6,0,P|183:152|129:152,1,105,0|0,1:0|0:0,0:0:0:0:
9,286,131252,2,0,P|60:283|99:249,1,105,0|0,1:0|0:0,0:0:0:0:
132,67,131506,6,0,P|62:101|29:171,1,157.500006008148,8|0,1:3|0:0,0:0:0:0:
78,320,131760,1,8,0:0:0:0:
89,327,131845,2,0,L|101:236,1,78.7500030040742
213,178,132014,1,8,0:0:0:0:
223,186,132099,2,0,L|229:133,2,52.5
292,76,132353,6,0,P|287:44|270:18,1,52.5,6|0,1:2|0:0,0:0:0:0:
358,175,132523,2,0,P|347:198|345:225,1,52.5,2|0,0:0|0:0,0:0:0:0:
418,49,132692,2,0,P|413:17|396:-9,1,52.5,2|0,0:0|0:0,0:0:0:0:
466,207,132862,6,0,L|484:336,1,131.25,8|0,1:3|0:0,0:0:0:0:
484,336,133116,1,0,0:0:0:0:
484,336,133201,1,0,1:0:0:0:
397,384,133370,1,8,1:3:0:0:
324,319,133540,1,0,0:0:0:0:
324,319,133624,1,0,0:0:0:0:
324,319,133709,5,2,1:2:0:0:
177,384,133879,2,0,B|167:327|167:327|155:316|155:316|143:252,2,131.25,2|10|2,0:2|1:3|0:0,0:0:0:0:
258,193,134387,1,0,1:0:0:0:
255,211,134472,2,0,L|242:290,1,65.625,8|0,1:3|1:0,0:0:0:0:
61,226,134726,2,0,P|136:213|166:143,1,157.500006008148,8|0,1:3|0:0,0:0:0:0:
72,18,134980,1,2,0:0:0:0:
79,32,135065,6,0,P|88:69|85:151,1,118.125004506111,2|0,1:2|0:0,0:0:0:0:
261,167,135404,6,0,P|252:89|268:13,1,157.500006008148,8|0,1:3|0:0,0:0:0:0:
391,218,135658,2,0,B|305:207|325:269|226:250,1,157.500006008148,8|0,1:3|0:0,0:0:0:0:
23,355,135997,1,0,0:0:0:0:
15,373,136082,2,0,L|107:358,1,78.7500030040742,8|0,1:3|1:0,0:0:0:0:
168,384,136252,1,2,1:2:0:0:
189,341,136336,1,2,1:2:0:0:
161,300,136421,6,0,P|135:283|108:280,1,52.5,2|0,1:3|0:0,0:0:0:0:
308,355,136591,2,0,P|334:372|361:375,1,52.5,2|0,1:3|0:0,0:0:0:0:
476,198,136760,6,0,L|450:374,1,157.500006008148,8|0,1:3|0:0,0:0:0:0:
336,206,137014,1,8,1:3:0:0:
341,187,137099,2,0,B|372:203|372:203|386:256,2,78.7500030040742,0|0|0,0:0|0:0|1:0,0:0:0:0:
495,2,137438,2,0,B|338:35|338:35|358:129,1,236.250009012223,8|0,1:3|0:0,0:0:0:0:
486,107,137777,6,0,L|422:96,1,52.5,8|0,1:0|0:0,0:0:0:0:
341,187,138031,2,0,L|354:109,1,78.7500030040742,2|0,1:3|0:0,0:0:0:0:
251,13,138285,2,0,L|260:67,1,52.5,2|0,1:3|0:0,0:0:0:0:
37,159,138455,6,0,L|192:134,1,157.500006008148,8|0,1:3|0:0,0:0:0:0:
259,64,138709,1,0,0:0:0:0:
269,50,138794,6,0,P|220:8|157:14,1,131.25,2|0,1:3|0:0,0:0:0:0:
64,64,139048,2,0,L|76:0,2,65.625,2|2|0,1:3|0:2|0:0,0:0:0:0:
191,133,139302,2,0,P|166:153|135:162,1,65.625,2|0,1:3|0:0,0:0:0:0:
0,264,139472,6,0,L|87:274,1,78.75,10|0,1:3|0:0,0:0:0:0:
187,383,139811,6,0,B|159:286|159:286|196:243,1,157.500006008148,6|0,1:2|0:0,0:0:0:0:
82,352,140065,2,0,L|264:374,1,183.750001752377,6|0,1:2|0:0,0:0:0:0:
332,334,140319,1,2,1:3:0:0:
356,337,140404,1,0,1:0:0:0:
380,340,140489,5,8,1:3:0:0:
255,176,140658,2,0,B|284:196|284:196|295:238,1,78.7500030040742,2|0,0:0|0:0,0:0:0:0:
300,255,140828,6,0,L|315:94,1,157.5,2|0,1:3|1:0,0:0:0:0:
390,72,141167,2,0,L|404:122,1,52.5,2|0,1:3|0:0,0:0:0:0:
245,51,141336,2,0,L|222:98,1,52.5,0|0,1:0|0:0,0:0:0:0:
443,10,141506,2,0,L|481:46,2,52.5,8|0|2,1:3|0:0|0:0,0:0:0:0:
314,98,141845,5,0,1:0:0:0:
170,17,142014,1,0,1:0:0:0:
155,10,142099,2,0,P|103:11|59:39,1,105,0|0,1:0|0:0,0:0:0:0:
26,111,142353,2,0,L|33:162,1,52.5
152,297,142523,6,0,P|88:253|11:262,1,157.500006008148,10|0,1:3|0:0,0:0:0:0:
126,90,142777,2,0,L|144:202,1,78.7500030040742,10|0,1:3|0:0,0:0:0:0:
142,184,142946,1,0,0:0:0:0:
461,303,143201,6,0,B|476:267|476:267|403:271|383:331,1,157.500006008148,8|0,1:0|0:0,0:0:0:0:
295,372,143455,1,0,1:0:0:0:
300,353,143540,2,0,P|301:316|269:267,1,78.7500030040742,2|0,1:3|1:0,0:0:0:0:
215,243,143709,1,2,1:3:0:0:
423,168,143879,6,0,B|320:186|320:186|286:145,1,157.500006008148,0|2,1:0|0:0,0:0:0:0:
334,52,144133,2,0,L|422:63,2,78.7500030040742,0|2|0,1:0|0:0|0:0,0:0:0:0:
273,0,144387,1,0,1:0:0:0:
249,3,144472,1,0,1:0:0:0:
225,6,144557,5,2,1:3:0:0:
48,120,144726,1,2,0:0:0:0:
41,138,144811,2,0,B|115:163|115:163|175:105,1,157.500006008148,0|0,1:0|0:0,0:0:0:0:
185,97,145065,2,0,L|165:254,1,157.500006008148,2|2,1:3|1:3,0:0:0:0:
4,372,145404,5,0,1:0:0:0:
36,348,145489,1,0,1:0:0:0:
83,362,145574,1,0,1:0:0:0:
113,345,145658,1,0,1:0:0:0:
154,351,145743,1,2,1:2:0:0:
175,343,145828,1,2,1:2:0:0:
193,345,145913,5,6,1:2:0:0:
331,78,146252,2,0,L|317:17,2,52.5,0|0|4,0:0|0:0|1:0,0:0:0:0:
496,254,146759,1,0,0:0:0:0:
472,251,146844,1,0,0:0:0:0:
448,248,146929,1,0,1:0:0:0:
395,378,147099,1,0,1:0:0:0:
294,261,147268,5,4,1:0:0:0:
336,238,147353,1,0,0:0:0:0:
302,272,147438,1,0,0:0:0:0:
255,285,147523,1,0,0:0:0:0:
209,272,147607,1,0,0:0:0:0:
175,238,147692,1,0,0:0:0:0:
162,192,147777,1,0,0:0:0:0:
175,145,147862,1,0,0:0:0:0:
209,111,147946,1,0,0:0:0:0:
255,98,148031,1,0,0:0:0:0:
302,111,148116,1,0,0:0:0:0:
336,145,148201,1,0,0:0:0:0:
349,192,148285,2,0,L|276:182,3,52.5,0|0|0|0,1:0|0:0|0:0|0:0,0:0:0:0:
400,83,148625,6,0,B|437:62|431:-10|431:-10|454:57|509:63,1,210,6|0,1:2|0:0,0:0:0:0:
461,242,148879,2,0,B|430:311|524:283|542:190|446:123,1,210,6|0,1:2|0:0,0:0:0:0:
319,42,149133,2,0,P|406:95|502:61,1,210,2|10,1:2|1:3,0:0:0:0:
392,318,149557,1,0,0:0:0:0:
386,332,149641,6,0,P|299:385|203:351,1,210,6|0,1:2|0:0,0:0:0:0:
119,178,149896,2,0,P|206:182|161:257,1,210,6|0,1:2|0:0,0:0:0:0:
111,382,150150,2,0,P|133:302|108:151,1,210,2|10,1:2|1:3,0:0:0:0:
315,16,150489,1,8,0:0:0:0:
325,28,150574,1,8,0:0:0:0:
331,42,150658,6,0,P|286:128|190:108,1,210,6|0,1:2|0:0,0:0:0:0:
64,78,150913,2,0,P|118:37|279:78,1,210,6|0,1:2|0:0,0:0:0:0:
356,191,151167,2,0,B|215:171|215:171|187:101,1,210,2|10,1:2|1:3,0:0:0:0:
186,123,151421,1,2,0:0:0:0:
182,138,151506,1,2,0:0:0:0:
312,373,151675,6,0,B|361:365|361:365|386:270|386:270|324:278,1,210,6|0,1:2|0:0,0:0:0:0:
187,380,151930,2,0,B|202:299|202:299|244:271|244:271|262:179,1,210,6|0,1:2|0:0,0:0:0:0:
369,110,152184,2,0,L|398:317,2,210,2|10|8,1:2|1:3|0:2,0:0:0:0:
493,264,152692,6,0,P|394:278|357:185,1,210,6|0,1:2|0:0,0:0:0:0:
424,13,152946,2,0,P|461:109|433:208,1,210,6|0,1:2|0:0,0:0:0:0:
480,374,153201,2,0,P|446:334|398:317,1,105,2|0,1:2|0:0,0:0:0:0:
241,379,153370,6,0,L|208:374,3,21,10|2|2|2,1:3|0:0|0:0|0:0,0:0:0:0:
114,250,153709,6,0,B|48:283|48:283|204:302,1,210,6|0,1:2|0:0,0:0:0:0:
241,379,153963,2,0,B|214:243|214:243|277:189,1,210,6|0,1:2|0:0,0:0:0:0:
376,54,154218,2,0,B|349:190|349:190|412:244,1,210,2|10,1:2|1:3,0:0:0:0:
283,82,154557,2,0,L|276:41,1,42,10|8,0:0|0:0,0:0:0:0:
275,41,154726,6,0,P|204:113|104:100,1,210,6|0,1:2|0:0,0:0:0:0:
24,25,154980,2,0,P|124:12|195:84,1,210,6|0,1:2|0:0,0:0:0:0:
177,163,155235,1,2,1:2:0:0:
30,235,155404,1,10,1:3:0:0:
25,206,155489,1,2,1:3:0:0:
11,368,155743,6,0,B|56:208|56:208|85:220|118:216|118:216|131:381,2,393.75,14|14|14,1:2|1:2|1:2,0:0:0:0:
220,293,156421,2,0,L|226:251,2,42,10|2|2,1:3|0:0|0:0,0:0:0:0:
422,347,156760,6,0,B|290:366|290:366|307:266,1,210,6|0,1:2|0:0,0:0:0:0:
161,196,157014,2,0,P|262:204|349:109,1,210,6|0,1:2|0:0,0:0:0:0:
483,98,157268,2,0,P|407:30|310:56,1,210,2|10,1:2|1:3,0:0:0:0:
35,2,157777,6,0,B|91:-18|131:26|131:26|171:66|226:45,1,210,6|0,1:2|0:0,0:0:0:0:
126,266,158031,2,0,B|80:227|98:170|98:170|113:116|67:79,1,210,6|0,1:2|0:0,0:0:0:0:
310,56,158285,2,0,B|299:114|241:127|241:127|186:141|177:199,1,210,2|10,1:2|1:3,0:0:0:0:
415,298,158624,1,8,0:0:0:0:
422,285,158709,1,8,0:0:0:0:
424,270,158794,6,0,P|371:189|277:217,1,210,6|0,1:2|0:0,0:0:0:0:
389,380,159048,2,0,P|381:275|462:172,1,210,6|0,1:2|0:0,0:0:0:0:
505,150,159302,1,2,1:2:0:0:
381,15,159472,2,0,L|393:83,2,42,10|2|8,1:3|0:0|0:2,0:0:0:0:
424,270,159811,6,0,B|412:319|412:319|225:371,1,210,6|0,1:2|1:0,0:0:0:0:
142,279,160065,2,0,B|155:193|155:193|275:217,1,210,6|0,1:2|0:0,0:0:0:0:
352,233,160319,1,2,1:2:0:0:
242,101,160489,1,10,1:3:0:0:
244,90,160573,1,0,0:0:0:0:
246,80,160658,1,0,0:0:0:0:
248,70,160743,1,0,0:0:0:0:
251,59,160828,6,0,P|166:48|71:138,1,210,6|0,1:2|1:0,0:0:0:0:
17,290,161082,2,0,B|52:270|52:270|64:195,2,105,6|0|0,1:2|1:0|1:0,0:0:0:0:
1,368,161336,1,2,1:2:0:0:
156,193,161506,6,0,L|196:183,1,42,10|10,1:3|0:0,0:0:0:0:
434,359,161845,6,0,B|435:219|435:219|377:235|322:229|322:229|349:367,2,393.75,14|14|10,1:2|1:2|1:2,0:0:0:0:
306,279,162523,1,10,1:3:0:0:
422,184,162692,2,0,L|428:142,1,42,10|8,0:0|0:0,0:0:0:0:
476,74,162862,6,0,P|405:52|294:132,1,210,6|0,1:2|1:0,0:0:0:0:
128,231,163116,2,0,P|205:296|305:278,1,210,6|0,1:2|1:0,0:0:0:0:
198,55,163370,2,0,L|228:263,1,210,6|10,1:2|1:3,0:0:0:0:
109,31,163709,1,10,1:3:0:0:
111,17,163794,1,8,0:0:0:0:
113,3,163879,5,6,1:2:0:0:
96,128,164048,2,0,P|52:156|0:157,1,105,2|0,1:2|0:0,0:0:0:0:
128,231,164387,2,0,P|154:232|178:242,1,52.5,2|2,0:2|0:0,0:0:0:0:
26,376,164896,6,0,P|7:369|0:352,3,39.3750015020371,8|0|0|0,1:0|0:0|0:0|0:0,0:0:0:0:
57,270,165235,2,0,L|68:324,1,39.3750015020371,2|0,0:0|0:0,0:0:0:0:
192,378,165404,6,0,L|203:324,5,39.3750015020371,0|0|0|0|0|0,3:0|0:0|0:0|0:0|0:0|0:0,0:0:0:0:
310,306,165913,2,0,L|321:360,3,39.3750015020371,0|0|0|0,3:0|0:0|0:0|0:0,0:0:0:0:
501,384,166252,6,0,P|510:366|512:347,2,39.3750015020371,8|0|0,3:1|0:0|0:0,0:0:0:0:
455,289,166506,2,0,P|451:269|440:253,2,39.3750015020371,0|2|0,3:0|0:2|0:0,0:0:0:0:
359,246,166760,2,0,P|343:233|325:228,1,39.3750015020371,0|0,3:0|0:0,0:0:0:0:
310,306,166930,6,0,L|256:295,3,39.3750015020371
194,280,167268,1,0,3:0:0:0:
89,377,167438,1,0,3:0:0:0:
78,373,167523,1,0,3:0:0:0:
67,369,167607,6,0,L|61:331,3,26.25,8|0|0|0,3:1|0:0|0:0|0:0,0:0:0:0:
15,280,167946,2,0,L|21:242,1,26.25
177,369,168116,6,0,L|202:373,3,26.25,0|0|0|0,3:0|0:0|0:0|0:0,0:0:0:0:
310,306,168455,2,0,L|335:301,3,26.25,0|0|0|0,3:0|0:0|0:0|0:0,0:0:0:0:
423,377,168794,1,0,3:0:0:0:
434,373,168879,1,0,3:0:0:0:
445,369,168963,6,0,L|451:331,5,26.25,8|0|0|0|0|0,3:1|0:0|0:0|0:0|0:0|0:0,0:0:0:0:
497,280,169472,2,0,L|491:242,1,26.25,0|0,3:0|0:0,0:0:0:0:
418,224,169641,5,2,0:0:0:0:
335,300,169811,2,0,L|280:292,1,52.5,0|0,3:0|0:0,0:0:0:0:
256,384,170319,5,8,3:1:0:0:
208,308,171675,5,8,0:1:0:0:
310,212,173031,5,8,0:1:0:0:
261,102,174387,6,0,B|212:132|189:212|214:263|325:222|327:396|174:527|46:430|13:346|0:261|51:198|110:185|168:208|153:286|153:286|195:238|243:239|210:303|399:306|444:133|388:16|336:-53|218:-68|106:8|93:147|244:218|356:137|356:137|467:84|444:11|385:-7|344:23,1,1680,6|0,2:3|2:0,2:0:0:0:
