osu file format v14

[General]
AudioFilename: N.M.S.T. (3R2 & Ice) - Fluffie Partie_207575147_soundcloud.mp3
AudioLeadIn: 0
PreviewTime: -1
Countdown: 0
SampleSet: Normal
StackLeniency: 0.7
Mode: 3
LetterboxInBreaks: 0
SpecialStyle: 0
WidescreenStoryboard: 0

[Editor]
DistanceSpacing: 1.5
BeatDivisor: 8
GridSize: 4
TimelineZoom: 2.5

[Metadata]
Title:Fluffie Partie
TitleUnicode:Fluffie Partie
Artist:N.M.S.T. (3R2 & Ice)
ArtistUnicode:N.M.S.T. (3R2 & Ice)
Creator:Squishykorean
Version:Hand Split
Source:
Tags:
BeatmapID:813063
BeatmapSetID:371057

[Difficulty]
HPDrainRate:8
CircleSize:10
OverallDifficulty:8
ApproachRate:5
SliderMultiplier:1.4
SliderTickRate:1

[Events]
//Background and Video events
0,0,"fluffypartie.jpg",0,0
//Break Periods
//Storyboard Layer 0 (Background)
//Storyboard Layer 1 (Fail)
//Storyboard Layer 2 (Pass)
//Storyboard Layer 3 (Foreground)
//Storyboard Sound Samples

[TimingPoints]
1869.91283676699,461.538461538462,4,1,0,40,1,0

[HitObjects]
25,192,1869,128,0,5562:0:0:0:0:
281,192,2023,1,0,0:0:0:0:
332,192,2100,1,0,0:0:0:0:
384,192,2331,1,0,0:0:0:0:
281,192,2562,1,0,0:0:0:0:
384,192,2792,1,0,0:0:0:0:
281,192,3023,1,0,0:0:0:0:
384,192,3254,1,0,0:0:0:0:
486,192,3485,1,0,0:0:0:0:
435,192,3600,1,0,0:0:0:0:
281,192,3946,1,0,0:0:0:0:
384,192,4177,1,0,0:0:0:0:
281,192,4408,1,0,0:0:0:0:
384,192,4639,1,0,0:0:0:0:
486,192,4869,1,0,0:0:0:0:
435,192,5100,1,0,0:0:0:0:
332,192,5331,1,0,0:0:0:0:
384,192,5417,1,0,0:0:0:0:
230,192,5562,128,0,8331:0:0:0:0:
179,192,5562,128,0,8331:0:0:0:0:
281,192,5792,1,0,0:0:0:0:
384,192,6023,1,0,0:0:0:0:
281,192,6254,1,0,0:0:0:0:
384,192,6485,1,0,0:0:0:0:
281,192,6716,1,0,0:0:0:0:
384,192,6946,1,0,0:0:0:0:
486,192,7177,1,0,0:0:0:0:
435,192,7264,1,0,0:0:0:0:
281,192,7639,1,0,0:0:0:0:
384,192,7869,1,0,0:0:0:0:
281,192,8100,1,0,0:0:0:0:
384,192,8331,1,0,0:0:0:0:
486,192,8562,1,0,0:0:0:0:
25,192,8562,128,0,8792:0:0:0:0:
486,192,8792,1,0,0:0:0:0:
435,192,8831,1,0,0:0:0:0:
76,192,8831,1,0,0:0:0:0:
384,192,8869,1,0,0:0:0:0:
128,192,8869,1,0,0:0:0:0:
332,192,8908,1,0,0:0:0:0:
179,192,8908,1,0,0:0:0:0:
281,192,8946,1,0,0:0:0:0:
230,192,8946,1,0,0:0:0:0:
486,192,8985,1,0,0:0:0:0:
179,192,8985,1,0,0:0:0:0:
435,192,9023,1,0,0:0:0:0:
128,192,9023,1,0,0:0:0:0:
384,192,9062,1,0,0:0:0:0:
76,192,9062,1,0,0:0:0:0:
332,192,9100,1,0,0:0:0:0:
25,192,9100,1,0,0:0:0:0:
281,192,9139,1,0,0:0:0:0:
230,192,9139,1,0,0:0:0:0:
486,192,9177,1,0,0:0:0:0:
179,192,9177,1,0,0:0:0:0:
435,192,9216,1,0,0:0:0:0:
128,192,9216,1,0,0:0:0:0:
384,192,9254,1,0,0:0:0:0:
76,192,9254,1,0,0:0:0:0:
281,192,9485,1,0,0:0:0:0:
230,192,9629,1,0,0:0:0:0:
230,192,9716,1,0,0:0:0:0:
384,192,9716,1,0,0:0:0:0:
128,192,9946,1,0,0:0:0:0:
281,192,9946,1,0,0:0:0:0:
128,192,10177,1,0,0:0:0:0:
384,192,10177,1,0,0:0:0:0:
281,192,10408,1,0,0:0:0:0:
230,192,10552,1,0,0:0:0:0:
230,192,10639,1,0,0:0:0:0:
384,192,10639,1,0,0:0:0:0:
128,192,10869,1,0,0:0:0:0:
486,192,10869,1,0,0:0:0:0:
435,192,10956,1,0,0:0:0:0:
230,192,10985,1,0,0:0:0:0:
76,192,11100,1,0,0:0:0:0:
486,192,11331,1,0,0:0:0:0:
179,192,11475,1,0,0:0:0:0:
179,192,11562,1,0,0:0:0:0:
486,192,11562,1,0,0:0:0:0:
76,192,11792,1,0,0:0:0:0:
435,192,11792,1,0,0:0:0:0:
25,192,12023,1,0,0:0:0:0:
332,192,12023,1,0,0:0:0:0:
384,192,12254,1,0,0:0:0:0:
128,192,12398,1,0,0:0:0:0:
128,192,12485,1,0,0:0:0:0:
332,192,12485,1,0,0:0:0:0:
281,192,12716,1,0,0:0:0:0:
25,192,12716,1,0,0:0:0:0:
332,192,12802,1,0,0:0:0:0:
128,192,12831,1,0,0:0:0:0:
76,192,12946,1,0,0:0:0:0:
281,192,13177,1,0,0:0:0:0:
179,192,13321,1,0,0:0:0:0:
179,192,13408,1,0,0:0:0:0:
384,192,13408,1,0,0:0:0:0:
76,192,13639,1,0,0:0:0:0:
281,192,13639,1,0,0:0:0:0:
76,192,13869,1,0,0:0:0:0:
384,192,13869,1,0,0:0:0:0:
281,192,14100,1,0,0:0:0:0:
179,192,14244,1,0,0:0:0:0:
179,192,14331,1,0,0:0:0:0:
384,192,14331,1,0,0:0:0:0:
486,192,14562,1,0,0:0:0:0:
25,192,14562,1,0,0:0:0:0:
435,192,14648,1,0,0:0:0:0:
76,192,14677,1,0,0:0:0:0:
128,192,14792,1,0,0:0:0:0:
281,192,15023,1,0,0:0:0:0:
230,192,15167,1,0,0:0:0:0:
230,192,15254,1,0,0:0:0:0:
332,192,15254,1,0,0:0:0:0:
384,192,15485,1,0,0:0:0:0:
25,192,15485,1,0,0:0:0:0:
76,192,15716,1,0,0:0:0:0:
435,192,15716,1,0,0:0:0:0:
486,192,15946,1,0,0:0:0:0:
435,192,16033,1,0,0:0:0:0:
128,192,16091,1,0,0:0:0:0:
128,192,16177,1,0,0:0:0:0:
384,192,16264,1,0,0:0:0:0:
76,192,16408,1,0,0:0:0:0:
332,192,16494,1,0,0:0:0:0:
179,192,16523,1,0,0:0:0:0:
128,192,16639,1,0,0:0:0:0:
281,192,16869,1,0,0:0:0:0:
230,192,17014,1,0,0:0:0:0:
230,192,17100,1,0,0:0:0:0:
384,192,17100,1,0,0:0:0:0:
128,192,17331,1,0,0:0:0:0:
281,192,17331,1,0,0:0:0:0:
128,192,17562,1,0,0:0:0:0:
384,192,17562,1,0,0:0:0:0:
281,192,17792,1,0,0:0:0:0:
230,192,17937,1,0,0:0:0:0:
230,192,18023,1,0,0:0:0:0:
384,192,18023,1,0,0:0:0:0:
128,192,18254,1,0,0:0:0:0:
486,192,18254,1,0,0:0:0:0:
435,192,18341,1,0,0:0:0:0:
230,192,18369,1,0,0:0:0:0:
76,192,18485,1,0,0:0:0:0:
486,192,18716,1,0,0:0:0:0:
179,192,18860,1,0,0:0:0:0:
179,192,18946,1,0,0:0:0:0:
486,192,18946,1,0,0:0:0:0:
76,192,19177,1,0,0:0:0:0:
435,192,19177,1,0,0:0:0:0:
384,192,19408,1,0,0:0:0:0:
25,192,19408,1,0,0:0:0:0:
332,192,19639,1,0,0:0:0:0:
281,192,19725,1,0,0:0:0:0:
76,192,19783,1,0,0:0:0:0:
76,192,19869,1,0,0:0:0:0:
281,192,19985,1,0,0:0:0:0:
76,192,20100,1,0,0:0:0:0:
332,192,20100,1,0,0:0:0:0:
384,192,20187,1,0,0:0:0:0:
25,192,20331,1,0,0:0:0:0:
384,192,20562,1,0,0:0:0:0:
128,192,20706,1,0,0:0:0:0:
128,192,20792,1,0,0:0:0:0:
384,192,20792,1,0,0:0:0:0:
435,192,20908,1,0,0:0:0:0:
332,192,20994,1,0,0:0:0:0:
76,192,21023,1,0,0:0:0:0:
76,192,21485,1,0,0:0:0:0:
332,192,21485,1,0,0:0:0:0:
332,192,21716,1,0,0:0:0:0:
384,192,21831,1,0,0:0:0:0:
128,192,21917,1,0,0:0:0:0:
281,192,21917,1,0,0:0:0:0:
230,192,22321,1,0,0:0:0:0:
25,192,22408,1,0,0:0:0:0:
332,192,22408,1,0,0:0:0:0:
230,192,22639,1,0,0:0:0:0:
384,192,22639,1,0,0:0:0:0:
179,192,22869,1,0,0:0:0:0:
435,192,22869,1,0,0:0:0:0:
486,192,22956,1,0,0:0:0:0:
25,192,23216,1,0,0:0:0:0:
179,192,23216,1,0,0:0:0:0:
281,192,23216,1,0,0:0:0:0:
332,192,23216,1,0,0:0:0:0:
25,192,23446,1,0,0:0:0:0:
179,192,23446,1,0,0:0:0:0:
281,192,23446,1,0,0:0:0:0:
384,192,23446,1,0,0:0:0:0:
281,192,23677,1,0,0:0:0:0:
435,192,23677,1,0,0:0:0:0:
230,192,23677,1,0,0:0:0:0:
25,192,23677,1,0,0:0:0:0:
76,192,23764,1,0,0:0:0:0:
230,192,23764,1,0,0:0:0:0:
332,192,23764,1,0,0:0:0:0:
486,192,23764,1,0,0:0:0:0:
179,192,24023,128,0,25812:0:0:0:0:
76,192,24023,128,0,25812:0:0:0:0:
384,192,24946,1,0,0:0:0:0:
435,192,25264,1,0,0:0:0:0:
486,192,25639,1,0,0:0:0:0:
230,192,25869,128,0,26735:0:0:0:0:
332,192,25869,1,0,0:0:0:0:
25,192,25869,128,0,26735:0:0:0:0:
25,192,26792,128,0,27658:0:0:0:0:
179,192,26792,128,0,27658:0:0:0:0:
281,192,27023,1,0,0:0:0:0:
332,192,27139,1,0,0:0:0:0:
281,192,27254,1,0,0:0:0:0:
435,192,27485,1,0,0:0:0:0:
384,192,27716,1,0,0:0:0:0:
76,192,27716,128,0,29042:0:0:0:0:
179,192,27716,128,0,29042:0:0:0:0:
332,192,27802,1,0,0:0:0:0:
332,192,28062,1,0,0:0:0:0:
281,192,28148,1,0,0:0:0:0:
486,192,28408,1,0,0:0:0:0:
435,192,28494,1,0,0:0:0:0:
435,192,28754,1,0,0:0:0:0:
384,192,28841,1,0,0:0:0:0:
332,192,29100,1,0,0:0:0:0:
25,192,29100,128,0,29331:0:0:0:0:
179,192,29100,128,0,29562:0:0:0:0:
281,192,29331,1,0,0:0:0:0:
76,192,29331,128,0,29562:0:0:0:0:
332,192,29562,1,0,0:0:0:0:
128,192,29562,128,0,30427:0:0:0:0:
230,192,29562,128,0,30427:0:0:0:0:
384,192,29879,1,0,0:0:0:0:
384,192,30254,1,0,0:0:0:0:
25,192,30485,128,0,31350:0:0:0:0:
128,192,30485,128,0,31350:0:0:0:0:
281,192,30946,1,0,0:0:0:0:
332,192,31062,1,0,0:0:0:0:
384,192,31177,1,0,0:0:0:0:
435,192,31292,1,0,0:0:0:0:
486,192,31408,1,0,0:0:0:0:
76,192,31408,128,0,33196:0:0:0:0:
179,192,31408,128,0,33196:0:0:0:0:
281,192,32100,1,0,0:0:0:0:
332,192,33023,1,0,0:0:0:0:
384,192,33139,1,0,0:0:0:0:
332,192,33254,1,0,0:0:0:0:
76,192,33254,128,0,34119:0:0:0:0:
128,192,33254,128,0,34119:0:0:0:0:
486,192,33571,1,0,0:0:0:0:
435,192,33917,1,0,0:0:0:0:
230,192,34177,128,0,35042:0:0:0:0:
179,192,34177,128,0,35042:0:0:0:0:
332,192,34408,1,0,0:0:0:0:
281,192,34639,1,0,0:0:0:0:
332,192,34754,1,0,0:0:0:0:
384,192,34869,1,0,0:0:0:0:
435,192,34985,1,0,0:0:0:0:
486,192,35100,1,0,0:0:0:0:
25,192,35100,128,0,35706:0:0:0:0:
128,192,35100,128,0,35706:0:0:0:0:
281,192,35446,1,0,0:0:0:0:
486,192,35677,1,0,0:0:0:0:
435,192,35764,1,0,0:0:0:0:
76,192,35764,128,0,36629:0:0:0:0:
128,192,35764,128,0,36629:0:0:0:0:
384,192,36139,1,0,0:0:0:0:
384,192,36369,1,0,0:0:0:0:
332,192,36456,1,0,0:0:0:0:
384,192,36687,1,0,0:0:0:0:
76,192,36687,128,0,37552:0:0:0:0:
179,192,36687,128,0,37552:0:0:0:0:
486,192,37177,1,0,0:0:0:0:
435,192,37408,1,0,0:0:0:0:
332,192,37639,1,0,0:0:0:0:
128,192,37639,128,0,38735:0:0:0:0:
230,192,37639,128,0,38735:0:0:0:0:
281,192,37869,1,0,0:0:0:0:
332,192,37946,1,0,0:0:0:0:
435,192,38023,1,0,0:0:0:0:
486,192,38100,1,0,0:0:0:0:
281,192,38177,1,0,0:0:0:0:
384,192,38254,1,0,0:0:0:0:
435,192,38331,1,0,0:0:0:0:
486,192,38408,1,0,0:0:0:0:
332,192,38485,1,0,0:0:0:0:
435,192,38562,1,0,0:0:0:0:
486,192,38639,1,0,0:0:0:0:
281,192,38716,1,0,0:0:0:0:
179,192,38792,128,0,40581:0:0:0:0:
76,192,38792,128,0,40581:0:0:0:0:
435,192,38966,1,0,0:0:0:0:
486,192,39023,1,0,0:0:0:0:
384,192,39254,1,0,0:0:0:0:
332,192,39485,1,0,0:0:0:0:
281,192,39571,1,0,0:0:0:0:
281,192,39917,1,0,0:0:0:0:
332,192,39946,1,0,0:0:0:0:
281,192,40177,1,0,0:0:0:0:
486,192,40408,1,0,0:0:0:0:
281,192,40494,1,0,0:0:0:0:
25,192,40639,128,0,41504:0:0:0:0:
179,192,40639,128,0,41504:0:0:0:0:
332,192,40869,1,0,0:0:0:0:
281,192,40985,1,0,0:0:0:0:
332,192,41100,1,0,0:0:0:0:
384,192,41331,1,0,0:0:0:0:
435,192,41417,1,0,0:0:0:0:
230,192,41562,128,0,42427:0:0:0:0:
25,192,41562,128,0,42427:0:0:0:0:
435,192,41764,1,0,0:0:0:0:
486,192,41792,1,0,0:0:0:0:
384,192,42023,1,0,0:0:0:0:
332,192,42254,1,0,0:0:0:0:
281,192,42341,1,0,0:0:0:0:
25,192,42485,128,0,43812:0:0:0:0:
179,192,42485,128,0,43812:0:0:0:0:
435,192,42716,1,0,0:0:0:0:
332,192,42831,1,0,0:0:0:0:
435,192,42946,1,0,0:0:0:0:
281,192,43177,1,0,0:0:0:0:
332,192,43408,1,0,0:0:0:0:
384,192,43639,1,0,0:0:0:0:
435,192,43725,1,0,0:0:0:0:
25,192,43869,128,0,44273:0:0:0:0:
128,192,43869,128,0,44100:0:0:0:0:
486,192,43956,1,0,0:0:0:0:
179,192,44100,128,0,44273:0:0:0:0:
384,192,44187,1,0,0:0:0:0:
230,192,44331,128,0,45196:0:0:0:0:
128,192,44331,128,0,45196:0:0:0:0:
281,192,44408,1,0,0:0:0:0:
332,192,44485,1,0,0:0:0:0:
384,192,44600,1,0,0:0:0:0:
435,192,44677,1,0,0:0:0:0:
486,192,44792,1,0,0:0:0:0:
384,192,44908,1,0,0:0:0:0:
332,192,45023,1,0,0:0:0:0:
281,192,45139,1,0,0:0:0:0:
25,192,45254,128,0,46119:0:0:0:0:
128,192,45254,128,0,46119:0:0:0:0:
332,192,45369,1,0,0:0:0:0:
384,192,45369,1,0,0:0:0:0:
486,192,45369,1,0,0:0:0:0:
486,192,45571,1,0,0:0:0:0:
384,192,45571,1,0,0:0:0:0:
281,192,45571,1,0,0:0:0:0:
435,192,45802,1,0,0:0:0:0:
384,192,45802,1,0,0:0:0:0:
281,192,45802,1,0,0:0:0:0:
281,192,46023,1,0,0:0:0:0:
332,192,46023,1,0,0:0:0:0:
384,192,46023,1,0,0:0:0:0:
76,192,46177,128,0,47966:0:0:0:0:
179,192,46177,128,0,47966:0:0:0:0:
384,192,46264,1,0,0:0:0:0:
332,192,46379,1,0,0:0:0:0:
384,192,46494,1,0,0:0:0:0:
435,192,46725,1,0,0:0:0:0:
384,192,46841,1,0,0:0:0:0:
435,192,46956,1,0,0:0:0:0:
486,192,47216,1,0,0:0:0:0:
332,192,47331,1,0,0:0:0:0:
486,192,47446,1,0,0:0:0:0:
384,192,47648,1,0,0:0:0:0:
281,192,47764,1,0,0:0:0:0:
384,192,47879,1,0,0:0:0:0:
25,192,48023,128,0,48889:0:0:0:0:
128,192,48023,128,0,48889:0:0:0:0:
435,192,48110,1,0,0:0:0:0:
486,192,48139,1,0,0:0:0:0:
384,192,48254,1,0,0:0:0:0:
332,192,48485,1,0,0:0:0:0:
384,192,48716,1,0,0:0:0:0:
281,192,48802,1,0,0:0:0:0:
76,192,48946,128,0,49812:0:0:0:0:
230,192,48946,128,0,49812:0:0:0:0:
435,192,49264,1,0,0:0:0:0:
486,192,49292,1,0,0:0:0:0:
435,192,49408,1,0,0:0:0:0:
384,192,49639,1,0,0:0:0:0:
332,192,49725,1,0,0:0:0:0:
76,192,49869,128,0,50504:0:0:0:0:
25,192,49869,128,0,50504:0:0:0:0:
281,192,49985,1,0,0:0:0:0:
332,192,50100,1,0,0:0:0:0:
435,192,50216,1,0,0:0:0:0:
332,192,50331,1,0,0:0:0:0:
435,192,50446,1,0,0:0:0:0:
486,192,50562,1,0,0:0:0:0:
25,192,50562,128,0,51427:0:0:0:0:
128,192,50562,128,0,51427:0:0:0:0:
281,192,50908,5,0,0:0:0:0:
384,192,51023,1,0,0:0:0:0:
435,192,51139,1,0,0:0:0:0:
384,192,51254,1,0,0:0:0:0:
435,192,51369,1,0,0:0:0:0:
332,192,51485,1,0,0:0:0:0:
179,192,51485,128,0,52350:0:0:0:0:
128,192,51485,128,0,52350:0:0:0:0:
384,192,51600,1,0,0:0:0:0:
486,192,51716,1,0,0:0:0:0:
384,192,51831,1,0,0:0:0:0:
281,192,51946,1,0,0:0:0:0:
332,192,52062,1,0,0:0:0:0:
384,192,52177,1,0,0:0:0:0:
435,192,52292,1,0,0:0:0:0:
281,192,52408,1,0,0:0:0:0:
128,192,52408,128,0,53562:0:0:0:0:
230,192,52408,128,0,53562:0:0:0:0:
332,192,52523,1,0,0:0:0:0:
435,192,52639,1,0,0:0:0:0:
486,192,52754,1,0,0:0:0:0:
281,192,52869,1,0,0:0:0:0:
384,192,52985,1,0,0:0:0:0:
435,192,53100,1,0,0:0:0:0:
281,192,53216,1,0,0:0:0:0:
332,192,53331,1,0,0:0:0:0:
435,192,53446,1,0,0:0:0:0:
486,192,53562,1,0,0:0:0:0:
25,192,53562,128,0,53908:0:0:0:0:
281,192,53639,1,0,0:0:0:0:
486,192,53716,1,0,0:0:0:0:
281,192,53792,1,0,0:0:0:0:
486,192,53869,1,0,0:0:0:0:
128,192,53908,128,0,54023:0:0:0:0:
281,192,53966,1,0,0:0:0:0:
486,192,54023,1,0,0:0:0:0:
230,192,54023,128,0,54254:0:0:0:0:
281,192,54110,1,0,0:0:0:0:
486,192,54177,1,0,0:0:0:0:
281,192,54254,1,0,0:0:0:0:
76,192,54254,1,0,0:0:0:0:
486,192,54331,1,0,0:0:0:0:
230,192,54369,128,0,54485:0:0:0:0:
281,192,54408,1,0,0:0:0:0:
486,192,54485,1,0,0:0:0:0:
128,192,54485,1,0,0:0:0:0:
281,192,54571,1,0,0:0:0:0:
76,192,54600,128,0,54716:0:0:0:0:
486,192,54716,1,0,0:0:0:0:
128,192,54716,128,0,54831:0:0:0:0:
281,192,54831,1,0,0:0:0:0:
230,192,54831,128,0,54946:0:0:0:0:
486,192,54946,1,0,0:0:0:0:
128,192,54946,1,0,0:0:0:0:
230,192,55023,1,0,0:0:0:0:
179,192,55100,1,0,0:0:0:0:
128,192,55177,1,0,0:0:0:0:
76,192,55292,128,0,55639:0:0:0:0:
25,192,55408,128,0,55639:0:0:0:0:
332,192,55408,128,0,56273:0:0:0:0:
435,192,55408,128,0,56273:0:0:0:0:
486,192,55408,128,0,56273:0:0:0:0:
230,192,55408,128,0,55792:0:0:0:0:
25,192,55754,128,0,55831:0:0:0:0:
179,192,55831,128,0,56062:0:0:0:0:
76,192,56062,1,0,0:0:0:0:
230,192,56216,128,0,56292:0:0:0:0:
25,192,56292,1,0,0:0:0:0:
281,192,56331,128,0,57196:0:0:0:0:
384,192,56331,128,0,57196:0:0:0:0:
76,192,56446,1,0,0:0:0:0:
25,192,56533,128,0,56677:0:0:0:0:
179,192,56677,128,0,56764:0:0:0:0:
76,192,56764,1,0,0:0:0:0:
128,192,56908,128,0,56994:0:0:0:0:
25,192,56994,1,0,0:0:0:0:
76,192,57139,128,0,57225:0:0:0:0:
25,192,57225,128,0,57485:0:0:0:0:
281,192,57254,128,0,58119:0:0:0:0:
332,192,57254,128,0,58119:0:0:0:0:
384,192,57254,128,0,58119:0:0:0:0:
230,192,57485,128,0,57600:0:0:0:0:
25,192,57600,1,0,0:0:0:0:
76,192,57687,128,0,57917:0:0:0:0:
25,192,57917,1,0,0:0:0:0:
128,192,58091,128,0,58177:0:0:0:0:
332,192,58177,128,0,59042:0:0:0:0:
384,192,58177,128,0,59042:0:0:0:0:
435,192,58177,128,0,59042:0:0:0:0:
128,192,58292,128,0,58408:0:0:0:0:
179,192,58408,128,0,58494:0:0:0:0:
25,192,58494,1,0,0:0:0:0:
230,192,58610,128,0,58754:0:0:0:0:
76,192,58754,128,0,58841:0:0:0:0:
128,192,58841,1,0,0:0:0:0:
179,192,59014,128,0,59100:0:0:0:0:
230,192,59100,128,0,59302:0:0:0:0:
332,192,59100,128,0,59966:0:0:0:0:
435,192,59100,128,0,59562:0:0:0:0:
486,192,59100,128,0,59966:0:0:0:0:
25,192,59302,1,0,0:0:0:0:
128,192,59446,128,0,59677:0:0:0:0:
384,192,59562,128,0,59966:0:0:0:0:
76,192,59677,1,0,0:0:0:0:
179,192,59792,128,0,60023:0:0:0:0:
230,192,59937,128,0,60023:0:0:0:0:
25,192,60023,1,0,0:0:0:0:
281,192,60023,128,0,60889:0:0:0:0:
486,192,60023,128,0,60889:0:0:0:0:
435,192,60023,128,0,60485:0:0:0:0:
230,192,60167,1,0,0:0:0:0:
128,192,60254,128,0,60369:0:0:0:0:
76,192,60369,128,0,60456:0:0:0:0:
25,192,60456,128,0,60629:0:0:0:0:
384,192,60485,128,0,60889:0:0:0:0:
230,192,60629,1,0,0:0:0:0:
76,192,60716,128,0,60792:0:0:0:0:
179,192,60831,128,0,60946:0:0:0:0:
128,192,60946,128,0,61177:0:0:0:0:
281,192,61062,128,0,61177:0:0:0:0:
25,192,61292,128,0,61523:0:0:0:0:
128,192,61408,128,0,61523:0:0:0:0:
281,192,61408,128,0,61523:0:0:0:0:
76,192,61639,1,0,0:0:0:0:
281,192,61639,128,0,61754:0:0:0:0:
128,192,61754,128,0,61898:0:0:0:0:
384,192,61869,128,0,61985:0:0:0:0:
179,192,61985,128,0,62100:0:0:0:0:
230,192,62100,128,0,62216:0:0:0:0:
281,192,62100,128,0,62216:0:0:0:0:
179,192,62216,128,0,62331:0:0:0:0:
230,192,62331,128,0,62446:0:0:0:0:
332,192,62331,1,0,0:0:0:0:
128,192,62446,128,0,62533:0:0:0:0:
281,192,62446,1,0,0:0:0:0:
25,192,62533,128,0,62648:0:0:0:0:
332,192,62533,1,0,0:0:0:0:
179,192,62648,128,0,62792:0:0:0:0:
281,192,62648,1,0,0:0:0:0:
76,192,62792,128,0,63023:0:0:0:0:
435,192,62879,1,0,0:0:0:0:
25,192,63167,128,0,63254:0:0:0:0:
384,192,63167,1,0,0:0:0:0:
128,192,63254,128,0,63456:0:0:0:0:
435,192,63254,1,0,0:0:0:0:
76,192,63456,1,0,0:0:0:0:
332,192,63485,1,0,0:0:0:0:
179,192,63600,128,0,63687:0:0:0:0:
435,192,63716,1,0,0:0:0:0:
230,192,63831,128,0,63917:0:0:0:0:
281,192,63831,128,0,63917:0:0:0:0:
76,192,63917,128,0,64033:0:0:0:0:
384,192,63917,1,0,0:0:0:0:
179,192,64033,128,0,64148:0:0:0:0:
128,192,64148,128,0,64292:0:0:0:0:
435,192,64148,128,0,64292:0:0:0:0:
76,192,64292,128,0,64379:0:0:0:0:
281,192,64292,1,0,0:0:0:0:
25,192,64379,1,0,0:0:0:0:
384,192,64379,128,0,64523:0:0:0:0:
128,192,64523,128,0,64610:0:0:0:0:
435,192,64523,1,0,0:0:0:0:
25,192,64610,128,0,64869:0:0:0:0:
332,192,64610,1,0,0:0:0:0:
281,192,64869,1,0,0:0:0:0:
25,192,64956,1,0,0:0:0:0:
128,192,65100,128,0,65216:0:0:0:0:
332,192,65100,1,0,0:0:0:0:
76,192,65331,128,0,65475:0:0:0:0:
384,192,65331,1,0,0:0:0:0:
76,192,65562,1,0,0:0:0:0:
179,192,65706,128,0,65792:0:0:0:0:
76,192,65792,128,0,65908:0:0:0:0:
281,192,65792,1,0,0:0:0:0:
25,192,65908,1,0,0:0:0:0:
128,192,66023,1,0,0:0:0:0:
332,192,66023,1,0,0:0:0:0:
25,192,66139,1,0,0:0:0:0:
179,192,66225,128,0,66485:0:0:0:0:
384,192,66225,1,0,0:0:0:0:
25,192,66485,1,0,0:0:0:0:
25,192,66629,1,0,0:0:0:0:
25,192,66716,128,0,66946:0:0:0:0:
281,192,66716,1,0,0:0:0:0:
332,192,66946,1,0,0:0:0:0:
76,192,67091,1,0,0:0:0:0:
76,192,67177,128,0,67408:0:0:0:0:
384,192,67177,1,0,0:0:0:0:
435,192,67408,128,0,67869:0:0:0:0:
179,192,67408,1,0,0:0:0:0:
76,192,67562,1,0,0:0:0:0:
76,192,67639,1,0,0:0:0:0:
128,192,67716,1,0,0:0:0:0:
179,192,67792,1,0,0:0:0:0:
281,192,67869,1,0,0:0:0:0:
230,192,67869,128,0,68023:0:0:0:0:
332,192,67985,1,0,0:0:0:0:
179,192,68023,1,0,0:0:0:0:
384,192,68100,1,0,0:0:0:0:
179,192,68100,128,0,68254:0:0:0:0:
435,192,68216,1,0,0:0:0:0:
76,192,68254,128,0,68331:0:0:0:0:
486,192,68331,1,0,0:0:0:0:
25,192,68331,1,0,0:0:0:0:
384,192,68446,1,0,0:0:0:0:
486,192,68533,1,0,0:0:0:0:
230,192,68706,1,0,0:0:0:0:
230,192,68792,1,0,0:0:0:0:
384,192,68908,1,0,0:0:0:0:
435,192,68908,1,0,0:0:0:0:
128,192,69023,1,0,0:0:0:0:
332,192,69139,1,0,0:0:0:0:
384,192,69139,1,0,0:0:0:0:
128,192,69254,1,0,0:0:0:0:
281,192,69485,1,0,0:0:0:0:
435,192,69485,1,0,0:0:0:0:
332,192,69571,1,0,0:0:0:0:
384,192,69571,1,0,0:0:0:0:
230,192,69629,1,0,0:0:0:0:
230,192,69716,1,0,0:0:0:0:
435,192,69716,1,0,0:0:0:0:
281,192,69716,1,0,0:0:0:0:
332,192,69831,1,0,0:0:0:0:
384,192,69831,1,0,0:0:0:0:
281,192,69946,1,0,0:0:0:0:
384,192,69946,1,0,0:0:0:0:
128,192,69946,1,0,0:0:0:0:
281,192,70033,1,0,0:0:0:0:
332,192,70033,1,0,0:0:0:0:
76,192,70177,1,0,0:0:0:0:
384,192,70177,1,0,0:0:0:0:
435,192,70177,1,0,0:0:0:0:
179,192,70552,1,0,0:0:0:0:
179,192,70639,1,0,0:0:0:0:
486,192,70639,1,0,0:0:0:0:
384,192,70639,1,0,0:0:0:0:
435,192,70869,1,0,0:0:0:0:
384,192,70869,1,0,0:0:0:0:
76,192,70869,1,0,0:0:0:0:
281,192,71100,1,0,0:0:0:0:
25,192,71100,1,0,0:0:0:0:
332,192,71331,1,0,0:0:0:0:
435,192,71331,1,0,0:0:0:0:
128,192,71475,1,0,0:0:0:0:
128,192,71562,1,0,0:0:0:0:
384,192,71562,1,0,0:0:0:0:
435,192,71562,1,0,0:0:0:0:
281,192,71792,1,0,0:0:0:0:
384,192,71792,1,0,0:0:0:0:
25,192,71792,1,0,0:0:0:0:
332,192,71908,1,0,0:0:0:0:
435,192,71908,1,0,0:0:0:0:
486,192,72023,1,0,0:0:0:0:
384,192,72023,1,0,0:0:0:0:
128,192,72023,1,0,0:0:0:0:
332,192,72254,1,0,0:0:0:0:
435,192,72254,1,0,0:0:0:0:
230,192,72398,1,0,0:0:0:0:
230,192,72485,1,0,0:0:0:0:
332,192,72485,1,0,0:0:0:0:
486,192,72485,1,0,0:0:0:0:
435,192,72571,1,0,0:0:0:0:
281,192,72571,1,0,0:0:0:0:
128,192,72716,1,0,0:0:0:0:
384,192,72831,1,0,0:0:0:0:
332,192,72831,1,0,0:0:0:0:
281,192,72946,1,0,0:0:0:0:
128,192,72946,1,0,0:0:0:0:
435,192,73033,1,0,0:0:0:0:
384,192,73033,1,0,0:0:0:0:
486,192,73292,1,0,0:0:0:0:
435,192,73292,1,0,0:0:0:0:
230,192,73321,1,0,0:0:0:0:
230,192,73408,1,0,0:0:0:0:
281,192,73408,1,0,0:0:0:0:
332,192,73408,1,0,0:0:0:0:
332,192,73523,1,0,0:0:0:0:
384,192,73523,1,0,0:0:0:0:
384,192,73639,1,0,0:0:0:0:
128,192,73639,1,0,0:0:0:0:
435,192,73639,1,0,0:0:0:0:
332,192,73754,1,0,0:0:0:0:
435,192,73754,1,0,0:0:0:0:
486,192,73869,1,0,0:0:0:0:
281,192,73869,1,0,0:0:0:0:
179,192,73869,1,0,0:0:0:0:
281,192,73956,1,0,0:0:0:0:
486,192,73956,1,0,0:0:0:0:
332,192,74216,1,0,0:0:0:0:
435,192,74216,1,0,0:0:0:0:
230,192,74244,1,0,0:0:0:0:
230,192,74331,1,0,0:0:0:0:
332,192,74446,1,0,0:0:0:0:
384,192,74446,1,0,0:0:0:0:
76,192,74562,1,0,0:0:0:0:
281,192,74677,1,0,0:0:0:0:
384,192,74677,1,0,0:0:0:0:
25,192,74792,1,0,0:0:0:0:
332,192,74908,1,0,0:0:0:0:
486,192,74908,1,0,0:0:0:0:
435,192,75023,1,0,0:0:0:0:
332,192,75023,1,0,0:0:0:0:
179,192,75139,1,0,0:0:0:0:
281,192,75139,1,0,0:0:0:0:
384,192,75139,1,0,0:0:0:0:
435,192,75254,1,0,0:0:0:0:
179,192,75254,1,0,0:0:0:0:
332,192,75254,1,0,0:0:0:0:
486,192,75369,1,0,0:0:0:0:
384,192,75369,1,0,0:0:0:0:
76,192,75485,1,0,0:0:0:0:
281,192,75485,1,0,0:0:0:0:
332,192,75485,1,0,0:0:0:0:
384,192,75600,1,0,0:0:0:0:
486,192,75600,1,0,0:0:0:0:
179,192,75600,1,0,0:0:0:0:
128,192,75716,1,0,0:0:0:0:
332,192,75860,1,0,0:0:0:0:
435,192,75946,1,0,0:0:0:0:
384,192,75946,1,0,0:0:0:0:
230,192,76091,1,0,0:0:0:0:
230,192,76177,1,0,0:0:0:0:
281,192,76177,1,0,0:0:0:0:
384,192,76264,1,0,0:0:0:0:
486,192,76264,1,0,0:0:0:0:
128,192,76408,1,0,0:0:0:0:
332,192,76523,1,0,0:0:0:0:
435,192,76523,1,0,0:0:0:0:
128,192,76639,1,0,0:0:0:0:
281,192,76754,1,0,0:0:0:0:
332,192,76869,1,0,0:0:0:0:
384,192,76869,1,0,0:0:0:0:
435,192,76985,1,0,0:0:0:0:
230,192,77014,1,0,0:0:0:0:
230,192,77100,1,0,0:0:0:0:
384,192,77100,1,0,0:0:0:0:
486,192,77100,1,0,0:0:0:0:
332,192,77331,1,0,0:0:0:0:
435,192,77331,1,0,0:0:0:0:
128,192,77331,1,0,0:0:0:0:
384,192,77533,1,0,0:0:0:0:
486,192,77562,1,0,0:0:0:0:
281,192,77562,1,0,0:0:0:0:
76,192,77562,1,0,0:0:0:0:
332,192,77908,1,0,0:0:0:0:
435,192,77908,1,0,0:0:0:0:
179,192,77937,1,0,0:0:0:0:
179,192,78023,1,0,0:0:0:0:
281,192,78139,1,0,0:0:0:0:
332,192,78254,1,0,0:0:0:0:
384,192,78254,1,0,0:0:0:0:
76,192,78254,1,0,0:0:0:0:
281,192,78485,1,0,0:0:0:0:
332,192,78485,1,0,0:0:0:0:
25,192,78485,1,0,0:0:0:0:
384,192,78600,1,0,0:0:0:0:
486,192,78600,1,0,0:0:0:0:
281,192,78831,1,0,0:0:0:0:
332,192,78831,1,0,0:0:0:0:
128,192,78860,1,0,0:0:0:0:
384,192,78946,1,0,0:0:0:0:
281,192,78946,1,0,0:0:0:0:
128,192,78946,1,0,0:0:0:0:
332,192,79177,1,0,0:0:0:0:
384,192,79177,1,0,0:0:0:0:
25,192,79177,1,0,0:0:0:0:
435,192,79408,1,0,0:0:0:0:
332,192,79408,1,0,0:0:0:0:
76,192,79408,1,0,0:0:0:0:
486,192,79639,1,0,0:0:0:0:
281,192,79639,1,0,0:0:0:0:
332,192,79754,1,0,0:0:0:0:
435,192,79754,1,0,0:0:0:0:
179,192,79783,1,0,0:0:0:0:
384,192,79869,1,0,0:0:0:0:
332,192,79869,1,0,0:0:0:0:
179,192,79869,1,0,0:0:0:0:
281,192,79985,1,0,0:0:0:0:
384,192,79985,1,0,0:0:0:0:
332,192,80100,1,0,0:0:0:0:
486,192,80100,1,0,0:0:0:0:
128,192,80100,1,0,0:0:0:0:
384,192,80331,1,0,0:0:0:0:
332,192,80446,1,0,0:0:0:0:
435,192,80446,1,0,0:0:0:0:
25,192,80485,1,0,0:0:0:0:
128,192,80562,1,0,0:0:0:0:
179,192,80639,1,0,0:0:0:0:
281,192,80677,1,0,0:0:0:0:
230,192,80716,1,0,0:0:0:0:
332,192,80792,1,0,0:0:0:0:
384,192,80792,1,0,0:0:0:0:
25,192,80792,1,0,0:0:0:0:
128,192,80869,1,0,0:0:0:0:
179,192,80946,1,0,0:0:0:0:
332,192,81023,1,0,0:0:0:0:
435,192,81023,1,0,0:0:0:0:
76,192,81023,1,0,0:0:0:0:
230,192,81023,1,0,0:0:0:0:
281,192,81254,1,0,0:0:0:0:
435,192,81369,1,0,0:0:0:0:
332,192,81369,1,0,0:0:0:0:
76,192,81485,1,0,0:0:0:0:
128,192,81562,1,0,0:0:0:0:
281,192,81600,1,0,0:0:0:0:
179,192,81639,1,0,0:0:0:0:
384,192,81716,1,0,0:0:0:0:
486,192,81716,1,0,0:0:0:0:
230,192,81716,1,0,0:0:0:0:
25,192,81792,1,0,0:0:0:0:
76,192,81869,1,0,0:0:0:0:
435,192,81946,5,0,0:0:0:0:
486,192,81946,1,0,0:0:0:0:
179,192,81946,1,0,0:0:0:0:
230,192,82023,1,0,0:0:0:0:
76,192,82100,1,0,0:0:0:0:
128,192,82177,1,0,0:0:0:0:
128,192,82639,1,0,0:0:0:0:
230,192,82639,1,0,0:0:0:0:
486,192,82639,1,0,0:0:0:0:
384,192,82639,1,0,0:0:0:0:
179,192,82754,1,0,0:0:0:0:
25,192,82754,1,0,0:0:0:0:
435,192,82754,1,0,0:0:0:0:
281,192,82754,1,0,0:0:0:0:
76,192,82869,1,0,0:0:0:0:
230,192,82869,1,0,0:0:0:0:
486,192,82869,1,0,0:0:0:0:
332,192,82869,1,0,0:0:0:0:
128,192,82985,1,0,0:0:0:0:
384,192,82985,1,0,0:0:0:0:
76,192,83100,128,0,83446:0:0:0:0:
179,192,83100,128,0,83446:0:0:0:0:
332,192,83100,128,0,83446:0:0:0:0:
435,192,83100,128,0,83446:0:0:0:0:
128,192,83562,128,0,83908:0:0:0:0:
230,192,83562,128,0,83908:0:0:0:0:
384,192,83562,128,0,83908:0:0:0:0:
486,192,83562,128,0,83908:0:0:0:0:
25,192,84023,128,0,84369:0:0:0:0:
128,192,84023,128,0,84369:0:0:0:0:
281,192,84023,128,0,84369:0:0:0:0:
384,192,84023,128,0,84369:0:0:0:0:
25,192,84485,128,0,84946:0:0:0:0:
76,192,84485,128,0,84716:0:0:0:0:
332,192,84485,128,0,84716:0:0:0:0:
281,192,84485,128,0,84946:0:0:0:0:
128,192,84716,128,0,84946:0:0:0:0:
384,192,84716,128,0,84946:0:0:0:0:
76,192,84946,128,0,85292:0:0:0:0:
179,192,84946,128,0,85292:0:0:0:0:
332,192,84946,128,0,85292:0:0:0:0:
435,192,84946,128,0,85292:0:0:0:0:
128,192,85408,128,0,85754:0:0:0:0:
230,192,85408,128,0,85754:0:0:0:0:
486,192,85408,128,0,85754:0:0:0:0:
384,192,85408,128,0,85754:0:0:0:0:
76,192,85869,128,0,86446:0:0:0:0:
128,192,85869,128,0,86446:0:0:0:0:
384,192,85869,128,0,86446:0:0:0:0:
332,192,85869,128,0,86446:0:0:0:0:
76,192,86562,128,0,87139:0:0:0:0:
128,192,86562,128,0,86792:0:0:0:0:
384,192,86562,128,0,86792:0:0:0:0:
332,192,86562,128,0,87139:0:0:0:0:
179,192,86792,128,0,87139:0:0:0:0:
435,192,86792,128,0,87139:0:0:0:0:
128,192,87254,128,0,87600:0:0:0:0:
230,192,87254,128,0,87600:0:0:0:0:
486,192,87254,128,0,87600:0:0:0:0:
384,192,87254,128,0,87600:0:0:0:0:
128,192,87716,128,0,87946:0:0:0:0:
179,192,87716,128,0,88177:0:0:0:0:
435,192,87716,128,0,88177:0:0:0:0:
384,192,87716,128,0,87946:0:0:0:0:
76,192,87946,128,0,88177:0:0:0:0:
332,192,87946,128,0,88177:0:0:0:0:
25,192,88177,128,0,88639:0:0:0:0:
281,192,88177,128,0,88639:0:0:0:0:
128,192,88408,128,0,88985:0:0:0:0:
384,192,88408,128,0,88985:0:0:0:0:
76,192,88639,128,0,88985:0:0:0:0:
332,192,88639,128,0,88985:0:0:0:0:
76,192,89100,128,0,89446:0:0:0:0:
179,192,89100,128,0,89446:0:0:0:0:
332,192,89100,128,0,89446:0:0:0:0:
435,192,89100,128,0,89446:0:0:0:0:
25,192,89562,128,0,89908:0:0:0:0:
230,192,89562,128,0,89908:0:0:0:0:
281,192,89562,128,0,89908:0:0:0:0:
486,192,89562,128,0,89908:0:0:0:0:
76,192,90023,128,0,90369:0:0:0:0:
179,192,90023,128,0,90369:0:0:0:0:
332,192,90023,128,0,90369:0:0:0:0:
435,192,90023,128,0,90369:0:0:0:0:
76,192,90485,128,0,90831:0:0:0:0:
128,192,90485,128,0,90831:0:0:0:0:
332,192,90485,128,0,90831:0:0:0:0:
384,192,90485,128,0,90831:0:0:0:0:
76,192,90946,128,0,91292:0:0:0:0:
179,192,90946,128,0,91292:0:0:0:0:
332,192,90946,128,0,91292:0:0:0:0:
435,192,90946,128,0,91292:0:0:0:0:
25,192,91408,128,0,91754:0:0:0:0:
128,192,91408,128,0,91754:0:0:0:0:
281,192,91408,128,0,91754:0:0:0:0:
384,192,91408,128,0,91754:0:0:0:0:
76,192,91869,128,0,92100:0:0:0:0:
25,192,91869,128,0,92331:0:0:0:0:
332,192,91869,128,0,92100:0:0:0:0:
281,192,91869,128,0,92331:0:0:0:0:
128,192,92100,128,0,92331:0:0:0:0:
384,192,92100,128,0,92331:0:0:0:0:
76,192,92331,128,0,92677:0:0:0:0:
179,192,92331,128,0,92677:0:0:0:0:
435,192,92331,128,0,92677:0:0:0:0:
332,192,92331,128,0,92677:0:0:0:0:
128,192,92792,128,0,93139:0:0:0:0:
230,192,92792,128,0,93139:0:0:0:0:
486,192,92792,128,0,93139:0:0:0:0:
384,192,92792,128,0,93139:0:0:0:0:
128,192,93254,128,0,93600:0:0:0:0:
179,192,93254,128,0,93600:0:0:0:0:
384,192,93254,128,0,93600:0:0:0:0:
435,192,93254,128,0,93600:0:0:0:0:
76,192,93716,128,0,93946:0:0:0:0:
179,192,93716,128,0,93946:0:0:0:0:
332,192,93716,128,0,93946:0:0:0:0:
435,192,93716,128,0,93946:0:0:0:0:
128,192,93946,128,0,94177:0:0:0:0:
230,192,93946,128,0,94177:0:0:0:0:
384,192,93946,128,0,94177:0:0:0:0:
486,192,93946,128,0,94177:0:0:0:0:
179,192,94177,128,0,94408:0:0:0:0:
25,192,94177,128,0,94639:0:0:0:0:
281,192,94177,128,0,94639:0:0:0:0:
435,192,94177,128,0,94408:0:0:0:0:
128,192,94408,128,0,94639:0:0:0:0:
384,192,94408,128,0,94639:0:0:0:0:
76,192,94639,128,0,95100:0:0:0:0:
332,192,94639,128,0,95100:0:0:0:0:
179,192,94869,128,0,95100:0:0:0:0:
435,192,94869,128,0,95100:0:0:0:0:
25,192,95331,128,0,95677:0:0:0:0:
128,192,95331,128,0,95677:0:0:0:0:
384,192,95331,128,0,95677:0:0:0:0:
281,192,95331,128,0,95677:0:0:0:0:
25,192,95792,128,0,96139:0:0:0:0:
76,192,95792,128,0,96139:0:0:0:0:
332,192,95792,128,0,96139:0:0:0:0:
281,192,95792,128,0,96139:0:0:0:0:
76,192,96485,128,0,96716:0:0:0:0:
128,192,96485,128,0,96716:0:0:0:0:
332,192,96485,128,0,96716:0:0:0:0:
384,192,96485,128,0,96716:0:0:0:0:
128,192,96946,128,0,97177:0:0:0:0:
179,192,96946,128,0,97177:0:0:0:0:
384,192,96946,128,0,97177:0:0:0:0:
435,192,96946,128,0,97177:0:0:0:0:
179,192,97408,128,0,97639:0:0:0:0:
230,192,97408,128,0,97639:0:0:0:0:
435,192,97408,128,0,97639:0:0:0:0:
486,192,97408,128,0,97639:0:0:0:0:
281,192,97639,5,0,0:0:0:0:
332,192,97677,1,0,0:0:0:0:
384,192,97754,1,0,0:0:0:0:
435,192,97792,1,0,0:0:0:0:
486,192,97831,128,0,98562:0:0:0:0:
25,192,97869,1,0,0:0:0:0:
230,192,97869,1,0,0:0:0:0:
128,192,98100,1,0,0:0:0:0:
230,192,98331,1,0,0:0:0:0:
25,192,98331,1,0,0:0:0:0:
128,192,98446,1,0,0:0:0:0:
435,192,98562,1,0,0:0:0:0:
25,192,98648,1,0,0:0:0:0:
230,192,98648,1,0,0:0:0:0:
332,192,98677,1,0,0:0:0:0:
281,192,98792,128,0,99023:0:0:0:0:
25,192,98908,1,0,0:0:0:0:
230,192,98908,1,0,0:0:0:0:
384,192,99023,1,0,0:0:0:0:
332,192,99139,128,0,99312:0:0:0:0:
128,192,99167,1,0,0:0:0:0:
230,192,99254,1,0,0:0:0:0:
25,192,99254,1,0,0:0:0:0:
332,192,99369,1,0,0:0:0:0:
384,192,99485,1,0,0:0:0:0:
25,192,99485,1,0,0:0:0:0:
332,192,99600,1,0,0:0:0:0:
281,192,99716,128,0,99946:0:0:0:0:
76,192,99802,1,0,0:0:0:0:
179,192,99802,1,0,0:0:0:0:
332,192,99946,128,0,100148:0:0:0:0:
25,192,99946,1,0,0:0:0:0:
435,192,100148,1,0,0:0:0:0:
76,192,100148,1,0,0:0:0:0:
179,192,100148,1,0,0:0:0:0:
486,192,100177,128,0,100408:0:0:0:0:
76,192,100292,1,0,0:0:0:0:
384,192,100408,128,0,100869:0:0:0:0:
179,192,100408,1,0,0:0:0:0:
76,192,100494,1,0,0:0:0:0:
230,192,100494,1,0,0:0:0:0:
230,192,100725,1,0,0:0:0:0:
76,192,100725,1,0,0:0:0:0:
179,192,100841,1,0,0:0:0:0:
25,192,100841,1,0,0:0:0:0:
332,192,100869,128,0,101042:0:0:0:0:
76,192,100985,1,0,0:0:0:0:
179,192,100985,1,0,0:0:0:0:
281,192,101100,1,0,0:0:0:0:
128,192,101100,1,0,0:0:0:0:
486,192,101216,1,0,0:0:0:0:
179,192,101244,1,0,0:0:0:0:
435,192,101331,1,0,0:0:0:0:
128,192,101331,1,0,0:0:0:0:
384,192,101446,1,0,0:0:0:0:
76,192,101446,1,0,0:0:0:0:
281,192,101562,128,0,101735:0:0:0:0:
25,192,101562,1,0,0:0:0:0:
230,192,101562,1,0,0:0:0:0:
384,192,101792,1,0,0:0:0:0:
25,192,101792,1,0,0:0:0:0:
486,192,101879,128,0,102139:0:0:0:0:
25,192,102023,1,0,0:0:0:0:
230,192,102023,1,0,0:0:0:0:
332,192,102139,128,0,102283:0:0:0:0:
128,192,102139,1,0,0:0:0:0:
384,192,102283,1,0,0:0:0:0:
486,192,102341,128,0,102600:0:0:0:0:
230,192,102341,1,0,0:0:0:0:
25,192,102341,1,0,0:0:0:0:
230,192,102600,1,0,0:0:0:0:
25,192,102600,1,0,0:0:0:0:
435,192,102600,1,0,0:0:0:0:
332,192,102716,1,0,0:0:0:0:
128,192,102802,1,0,0:0:0:0:
281,192,102860,1,0,0:0:0:0:
332,192,102946,128,0,103148:0:0:0:0:
230,192,102946,1,0,0:0:0:0:
25,192,102946,1,0,0:0:0:0:
384,192,103148,1,0,0:0:0:0:
486,192,103177,128,0,104792:0:0:0:0:
25,192,103177,1,0,0:0:0:0:
76,192,103523,1,0,0:0:0:0:
179,192,103523,1,0,0:0:0:0:
25,192,103639,1,0,0:0:0:0:
76,192,103869,1,0,0:0:0:0:
179,192,103869,1,0,0:0:0:0:
25,192,103985,1,0,0:0:0:0:
76,192,104216,1,0,0:0:0:0:
179,192,104216,1,0,0:0:0:0:
128,192,104446,1,0,0:0:0:0:
230,192,104446,1,0,0:0:0:0:
76,192,104677,1,0,0:0:0:0:
179,192,104677,1,0,0:0:0:0:
230,192,104764,1,0,0:0:0:0:
76,192,104764,1,0,0:0:0:0:
25,192,104908,1,0,0:0:0:0:
179,192,104908,1,0,0:0:0:0:
128,192,105023,1,0,0:0:0:0:
281,192,105081,1,0,0:0:0:0:
230,192,105139,1,0,0:0:0:0:
25,192,105139,1,0,0:0:0:0:
332,192,105196,1,0,0:0:0:0:
384,192,105254,128,0,105485:0:0:0:0:
25,192,105398,1,0,0:0:0:0:
486,192,105485,128,0,105716:0:0:0:0:
128,192,105485,1,0,0:0:0:0:
179,192,105485,1,0,0:0:0:0:
435,192,105716,1,0,0:0:0:0:
128,192,105716,1,0,0:0:0:0:
179,192,105716,1,0,0:0:0:0:
486,192,105802,1,0,0:0:0:0:
25,192,105802,1,0,0:0:0:0:
128,192,106033,1,0,0:0:0:0:
179,192,106033,1,0,0:0:0:0:
435,192,106062,128,0,106292:0:0:0:0:
281,192,106292,1,0,0:0:0:0:
128,192,106321,1,0,0:0:0:0:
179,192,106321,1,0,0:0:0:0:
332,192,106379,1,0,0:0:0:0:
25,192,106408,1,0,0:0:0:0:
384,192,106552,1,0,0:0:0:0:
128,192,106639,1,0,0:0:0:0:
435,192,106639,1,0,0:0:0:0:
179,192,106639,1,0,0:0:0:0:
384,192,106754,1,0,0:0:0:0:
230,192,106754,1,0,0:0:0:0:
332,192,106869,1,0,0:0:0:0:
179,192,106869,1,0,0:0:0:0:
281,192,106956,1,0,0:0:0:0:
128,192,106985,1,0,0:0:0:0:
486,192,107216,128,0,107360:0:0:0:0:
76,192,107244,1,0,0:0:0:0:
179,192,107244,1,0,0:0:0:0:
25,192,107331,1,0,0:0:0:0:
435,192,107417,128,0,107591:0:0:0:0:
76,192,107562,1,0,0:0:0:0:
179,192,107562,1,0,0:0:0:0:
384,192,107648,128,0,107821:0:0:0:0:
76,192,107792,1,0,0:0:0:0:
179,192,107792,1,0,0:0:0:0:
332,192,107879,128,0,108052:0:0:0:0:
25,192,107879,1,0,0:0:0:0:
230,192,108023,1,0,0:0:0:0:
128,192,108023,1,0,0:0:0:0:
384,192,108110,128,0,108283:0:0:0:0:
25,192,108110,1,0,0:0:0:0:
179,192,108110,1,0,0:0:0:0:
332,192,108341,128,0,108427:0:0:0:0:
25,192,108369,1,0,0:0:0:0:
281,192,108427,128,0,108600:0:0:0:0:
76,192,108485,1,0,0:0:0:0:
435,192,108600,128,0,108687:0:0:0:0:
128,192,108600,1,0,0:0:0:0:
332,192,108687,128,0,108831:0:0:0:0:
179,192,108716,1,0,0:0:0:0:
384,192,108831,128,0,108917:0:0:0:0:
230,192,108831,1,0,0:0:0:0:
281,192,108917,128,0,109177:0:0:0:0:
230,192,108946,1,0,0:0:0:0:
76,192,108946,1,0,0:0:0:0:
25,192,108946,1,0,0:0:0:0:
384,192,109177,128,0,109408:0:0:0:0:
25,192,109177,1,0,0:0:0:0:
486,192,109408,128,0,109639:0:0:0:0:
76,192,109408,1,0,0:0:0:0:
230,192,109408,1,0,0:0:0:0:
281,192,109639,128,0,109869:0:0:0:0:
128,192,109639,1,0,0:0:0:0:
25,192,109639,1,0,0:0:0:0:
179,192,109639,1,0,0:0:0:0:
384,192,110023,1,0,0:0:0:0:
435,192,110062,128,0,110562:0:0:0:0:
25,192,110100,1,0,0:0:0:0:
128,192,110177,1,0,0:0:0:0:
179,192,110254,1,0,0:0:0:0:
230,192,110331,1,0,0:0:0:0:
25,192,110408,1,0,0:0:0:0:
76,192,110485,1,0,0:0:0:0:
384,192,110562,128,0,111139:0:0:0:0:
230,192,110562,1,0,0:0:0:0:
128,192,110562,1,0,0:0:0:0:
25,192,111023,1,0,0:0:0:0:
128,192,111100,1,0,0:0:0:0:
230,192,111177,1,0,0:0:0:0:
486,192,111225,128,0,111571:0:0:0:0:
76,192,111254,1,0,0:0:0:0:
179,192,111331,1,0,0:0:0:0:
230,192,111408,1,0,0:0:0:0:
25,192,111485,1,0,0:0:0:0:
76,192,111562,1,0,0:0:0:0:
128,192,111639,1,0,0:0:0:0:
435,192,111687,128,0,112033:0:0:0:0:
179,192,111716,1,0,0:0:0:0:
25,192,111946,1,0,0:0:0:0:
384,192,112177,128,0,112523:0:0:0:0:
230,192,112177,1,0,0:0:0:0:
25,192,112408,1,0,0:0:0:0:
435,192,112639,128,0,114485:0:0:0:0:
76,192,112869,1,0,0:0:0:0:
230,192,113100,1,0,0:0:0:0:
128,192,113100,1,0,0:0:0:0:
76,192,113187,1,0,0:0:0:0:
128,192,113446,1,0,0:0:0:0:
230,192,113446,1,0,0:0:0:0:
128,192,113648,1,0,0:0:0:0:
230,192,113648,1,0,0:0:0:0:
76,192,113908,1,0,0:0:0:0:
128,192,113994,1,0,0:0:0:0:
230,192,113994,1,0,0:0:0:0:
76,192,114254,1,0,0:0:0:0:
128,192,114485,1,0,0:0:0:0:
230,192,114485,1,0,0:0:0:0:
76,192,114571,1,0,0:0:0:0:
128,192,114831,1,0,0:0:0:0:
230,192,114831,1,0,0:0:0:0:
230,192,115033,1,0,0:0:0:0:
128,192,115033,1,0,0:0:0:0:
76,192,115292,1,0,0:0:0:0:
128,192,115379,1,0,0:0:0:0:
230,192,115379,1,0,0:0:0:0:
76,192,115639,1,0,0:0:0:0:
128,192,115869,1,0,0:0:0:0:
230,192,115869,1,0,0:0:0:0:
76,192,116100,1,0,0:0:0:0:
230,192,116187,1,0,0:0:0:0:
128,192,116187,1,0,0:0:0:0:
128,192,116446,1,0,0:0:0:0:
230,192,116446,1,0,0:0:0:0:
76,192,116533,1,0,0:0:0:0:
128,192,116792,1,0,0:0:0:0:
230,192,116792,1,0,0:0:0:0:
128,192,117023,1,0,0:0:0:0:
230,192,117023,1,0,0:0:0:0:
76,192,117254,1,0,0:0:0:0:
230,192,117341,1,0,0:0:0:0:
128,192,117341,1,0,0:0:0:0:
76,192,117600,1,0,0:0:0:0:
128,192,117831,1,0,0:0:0:0:
230,192,117831,1,0,0:0:0:0:
76,192,117917,1,0,0:0:0:0:
128,192,118177,1,0,0:0:0:0:
230,192,118177,1,0,0:0:0:0:
76,192,118264,1,0,0:0:0:0:
128,192,118523,1,0,0:0:0:0:
230,192,118523,1,0,0:0:0:0:
76,192,118610,1,0,0:0:0:0:
128,192,118869,1,0,0:0:0:0:
230,192,118869,1,0,0:0:0:0:
76,192,118956,1,0,0:0:0:0:
128,192,119216,1,0,0:0:0:0:
230,192,119216,1,0,0:0:0:0:
76,192,119302,1,0,0:0:0:0:
128,192,119562,1,0,0:0:0:0:
230,192,119562,1,0,0:0:0:0:
76,192,119648,1,0,0:0:0:0:
128,192,119764,1,0,0:0:0:0:
230,192,119879,1,0,0:0:0:0:
