osu file format v14

[General]
AudioFilename: audio.mp3
AudioLeadIn: 0
PreviewTime: -1
Countdown: 1
SampleSet: Soft
StackLeniency: 0.7
Mode: 3
LetterboxInBreaks: 0
SpecialStyle: 0
WidescreenStoryboard: 0

[Editor]
DistanceSpacing: 1.2
BeatDivisor: 4
GridSize: 4
TimelineZoom: 1

[Metadata]
Title:Frozen Lights
TitleUnicode:Frozen Lights
Artist:N Tone
ArtistUnicode:N Tone
Creator:Nothing190
Version:Normal
Source:
Tags:
BeatmapID:1038346
BeatmapSetID:486992

[Difficulty]
HPDrainRate:5
CircleSize:4
OverallDifficulty:5
ApproachRate:5
SliderMultiplier:1.4
SliderTickRate:1

[Events]
//Background and Video events
0,0,"hqdefault.jpg",0,0
//Break Periods
//Storyboard Layer 0 (Background)
//Storyboard Layer 1 (Fail)
//Storyboard Layer 2 (Pass)
//Storyboard Layer 3 (Foreground)
//Storyboard Sound Samples

[TimingPoints]
164,428.571428571429,4,2,1,0,1,0

[HitObjects]
448,192,1771,5,0,0:0:0:0:
448,192,2628,1,0,0:0:0:0:
320,192,2628,1,0,0:0:0:0:
64,192,2628,1,0,0:0:0:0:
192,192,3485,1,0,0:0:0:0:
320,192,3485,1,0,0:0:0:0:
192,192,4342,1,0,0:0:0:0:
64,192,4342,1,0,0:0:0:0:
448,192,4342,1,0,0:0:0:0:
192,192,5199,1,0,0:0:0:0:
320,192,5521,1,0,0:0:0:0:
320,192,5842,1,0,0:0:0:0:
64,192,5949,1,0,0:0:0:0:
320,192,6056,1,0,0:0:0:0:
64,192,6592,1,0,0:0:0:0:
448,192,6914,128,0,8735:0:0:0:0:
64,192,7771,1,0,0:0:0:0:
320,192,8735,1,0,0:0:0:0:
448,192,9592,1,0,0:0:0:0:
192,192,9592,1,0,0:0:0:0:
448,192,10342,128,0,12056:0:0:0:0:
320,192,11306,1,0,0:0:0:0:
192,192,11306,1,0,0:0:0:0:
64,192,12056,1,0,0:0:0:0:
320,192,12056,1,0,0:0:0:0:
192,192,12378,1,0,0:0:0:0:
192,192,12699,1,0,0:0:0:0:
64,192,13021,1,0,0:0:0:0:
320,192,13021,1,0,0:0:0:0:
320,192,13878,128,0,15592:0:0:0:0:
192,192,13878,128,0,15592:0:0:0:0:
448,192,14735,1,0,0:0:0:0:
64,192,14735,1,0,0:0:0:0:
448,192,15592,128,0,16342:0:0:0:0:
64,192,15592,128,0,16342:0:0:0:0:
64,192,16449,1,0,0:0:0:0:
448,192,16449,1,0,0:0:0:0:
320,192,17199,128,0,19021:0:0:0:0:
448,192,18164,1,0,0:0:0:0:
64,192,18164,1,0,0:0:0:0:
448,192,19021,1,0,0:0:0:0:
320,192,19235,1,0,0:0:0:0:
320,192,19556,1,0,0:0:0:0:
192,192,19556,1,0,0:0:0:0:
64,192,19878,1,0,0:0:0:0:
448,192,19878,1,0,0:0:0:0:
192,192,20521,1,0,0:0:0:0:
64,192,20735,1,0,0:0:0:0:
448,192,20735,1,0,0:0:0:0:
64,192,21592,1,0,0:0:0:0:
320,192,21592,1,0,0:0:0:0:
448,192,21592,1,0,0:0:0:0:
320,192,22449,1,0,0:0:0:0:
192,192,22449,1,0,0:0:0:0:
64,192,23306,1,0,0:0:0:0:
448,192,23306,1,0,0:0:0:0:
192,192,24164,1,0,0:0:0:0:
320,192,24164,1,0,0:0:0:0:
64,192,24271,1,0,0:0:0:0:
448,192,24271,1,0,0:0:0:0:
64,192,25021,1,0,0:0:0:0:
448,192,25021,1,0,0:0:0:0:
64,192,25878,1,0,0:0:0:0:
192,192,25878,1,0,0:0:0:0:
320,192,25878,1,0,0:0:0:0:
448,192,25878,1,0,0:0:0:0:
64,192,26735,1,0,0:0:0:0:
320,192,26735,1,0,0:0:0:0:
192,192,27592,128,0,29306:0:0:0:0:
320,192,28449,1,0,0:0:0:0:
320,192,29521,1,0,0:0:0:0:
448,192,29735,1,0,0:0:0:0:
64,192,29842,1,0,0:0:0:0:
448,192,30056,1,0,0:0:0:0:
320,192,30271,1,0,0:0:0:0:
64,192,30271,1,0,0:0:0:0:
320,192,30485,1,0,0:0:0:0:
192,192,31021,1,0,0:0:0:0:
448,192,31021,1,0,0:0:0:0:
320,192,31021,128,0,32735:0:0:0:0:
192,192,31771,1,0,0:0:0:0:
64,192,32735,1,0,0:0:0:0:
320,192,32949,1,0,0:0:0:0:
192,192,33164,1,0,0:0:0:0:
64,192,33378,1,0,0:0:0:0:
448,192,33378,1,0,0:0:0:0:
192,192,33592,1,0,0:0:0:0:
320,192,33592,1,0,0:0:0:0:
64,192,34449,128,0,36164:0:0:0:0:
320,192,34449,1,0,0:0:0:0:
192,192,35199,1,0,0:0:0:0:
448,192,35199,1,0,0:0:0:0:
320,192,36164,1,0,0:0:0:0:
448,192,36378,1,0,0:0:0:0:
64,192,36592,1,0,0:0:0:0:
320,192,36806,1,0,0:0:0:0:
192,192,37021,1,0,0:0:0:0:
64,192,37235,1,0,0:0:0:0:
192,192,37878,128,0,39592:0:0:0:0:
448,192,38414,128,0,40664:0:0:0:0:
192,192,41306,128,0,43021:0:0:0:0:
320,192,41521,1,0,0:0:0:0:
448,192,41842,1,0,0:0:0:0:
64,192,42056,1,0,0:0:0:0:
320,192,42164,1,0,0:0:0:0:
448,192,43021,1,0,0:0:0:0:
320,192,43128,128,0,44735:0:0:0:0:
192,192,43235,1,0,0:0:0:0:
64,192,43342,1,0,0:0:0:0:
192,192,43449,1,0,0:0:0:0:
192,192,43878,1,0,0:0:0:0:
448,192,43878,1,0,0:0:0:0:
64,192,44735,1,0,0:0:0:0:
192,192,44735,128,0,46449:0:0:0:0:
448,192,44735,128,0,46449:0:0:0:0:
320,192,44949,1,0,0:0:0:0:
64,192,45271,1,0,0:0:0:0:
320,192,45592,1,0,0:0:0:0:
64,192,45592,1,0,0:0:0:0:
64,192,46449,1,0,0:0:0:0:
320,192,46664,1,0,0:0:0:0:
64,192,46985,128,0,47199:0:0:0:0:
320,192,47199,1,0,0:0:0:0:
192,192,48164,128,0,49878:0:0:0:0:
448,192,48164,128,0,49021:0:0:0:0:
320,192,49021,1,0,0:0:0:0:
448,192,49878,128,0,51592:0:0:0:0:
64,192,49878,128,0,50735:0:0:0:0:
320,192,50735,1,0,0:0:0:0:
192,192,51592,128,0,53306:0:0:0:0:
320,192,52449,1,0,0:0:0:0:
448,192,52449,1,0,0:0:0:0:
448,192,53306,128,0,55021:0:0:0:0:
64,192,53735,1,0,0:0:0:0:
192,192,53949,1,0,0:0:0:0:
320,192,54164,1,0,0:0:0:0:
192,192,54271,1,0,0:0:0:0:
64,192,54378,1,0,0:0:0:0:
192,192,54485,1,0,0:0:0:0:
320,192,54592,1,0,0:0:0:0:
192,192,54699,1,0,0:0:0:0:
64,192,54806,1,0,0:0:0:0:
192,192,54914,1,0,0:0:0:0:
320,192,55021,1,0,0:0:0:0:
320,192,55235,1,0,0:0:0:0:
64,192,55342,1,0,0:0:0:0:
192,192,55449,128,0,55878:0:0:0:0:
448,192,55878,1,0,0:0:0:0:
320,192,55878,128,0,56735:0:0:0:0:
64,192,56306,1,0,0:0:0:0:
448,192,56306,1,0,0:0:0:0:
448,192,56735,128,0,56949:0:0:0:0:
192,192,56949,1,0,0:0:0:0:
448,192,57164,1,0,0:0:0:0:
192,192,57378,1,0,0:0:0:0:
64,192,57592,1,0,0:0:0:0:
448,192,57592,1,0,0:0:0:0:
320,192,57699,128,0,58128:0:0:0:0:
320,192,58235,1,0,0:0:0:0:
64,192,58449,1,0,0:0:0:0:
448,192,58449,1,0,0:0:0:0:
320,192,58664,1,0,0:0:0:0:
64,192,58878,1,0,0:0:0:0:
448,192,59092,1,0,0:0:0:0:
192,192,59306,1,0,0:0:0:0:
320,192,59306,1,0,0:0:0:0:
64,192,59306,128,0,59735:0:0:0:0:
64,192,59949,128,0,60378:0:0:0:0:
320,192,59949,128,0,60378:0:0:0:0:
192,192,60378,1,0,0:0:0:0:
320,192,60592,1,0,0:0:0:0:
64,192,60806,1,0,0:0:0:0:
448,192,61021,128,0,61556:0:0:0:0:
64,192,61021,1,0,0:0:0:0:
64,192,61878,128,0,62735:0:0:0:0:
192,192,61985,1,0,0:0:0:0:
320,192,62199,1,0,0:0:0:0:
448,192,62414,1,0,0:0:0:0:
448,192,62735,128,0,63164:0:0:0:0:
192,192,63164,1,0,0:0:0:0:
320,192,63378,1,0,0:0:0:0:
192,192,63592,1,0,0:0:0:0:
448,192,63592,128,0,63914:0:0:0:0:
320,192,63806,1,0,0:0:0:0:
64,192,63914,128,0,64235:0:0:0:0:
192,192,64021,1,0,0:0:0:0:
320,192,64235,1,0,0:0:0:0:
192,192,64449,1,0,0:0:0:0:
448,192,64449,128,0,64878:0:0:0:0:
320,192,64664,1,0,0:0:0:0:
64,192,65199,1,0,0:0:0:0:
448,192,65199,1,0,0:0:0:0:
320,192,65414,1,0,0:0:0:0:
448,192,65628,1,0,0:0:0:0:
448,192,65842,1,0,0:0:0:0:
320,192,66056,1,0,0:0:0:0:
192,192,66271,1,0,0:0:0:0:
64,192,66485,128,0,67021:0:0:0:0:
448,192,67021,1,0,0:0:0:0:
320,192,67128,1,0,0:0:0:0:
192,192,67235,1,0,0:0:0:0:
64,192,67342,1,0,0:0:0:0:
192,192,67449,1,0,0:0:0:0:
320,192,67556,1,0,0:0:0:0:
448,192,67664,1,0,0:0:0:0:
64,192,68628,128,0,70449:0:0:0:0:
320,192,69485,1,0,0:0:0:0:
192,192,69914,1,0,0:0:0:0:
448,192,69914,1,0,0:0:0:0:
448,192,70342,1,0,0:0:0:0:
320,192,70556,1,0,0:0:0:0:
192,192,70771,1,0,0:0:0:0:
64,192,70985,1,0,0:0:0:0:
64,192,71306,1,0,0:0:0:0:
448,192,71414,1,0,0:0:0:0:
192,192,71628,1,0,0:0:0:0:
64,192,71842,1,0,0:0:0:0:
448,192,72056,128,0,73878:0:0:0:0:
64,192,72699,1,0,0:0:0:0:
192,192,72914,1,0,0:0:0:0:
64,192,73342,1,0,0:0:0:0:
320,192,73556,1,0,0:0:0:0:
448,192,74092,1,0,0:0:0:0:
320,192,74199,1,0,0:0:0:0:
192,192,74306,1,0,0:0:0:0:
64,192,74414,1,0,0:0:0:0:
192,192,74521,1,0,0:0:0:0:
320,192,74628,1,0,0:0:0:0:
448,192,74735,1,0,0:0:0:0:
320,192,74842,1,0,0:0:0:0:
192,192,74949,1,0,0:0:0:0:
320,192,75592,128,0,77306:0:0:0:0:
192,192,76235,1,0,0:0:0:0:
64,192,76449,1,0,0:0:0:0:
448,192,76771,1,0,0:0:0:0:
448,192,77306,1,0,0:0:0:0:
64,192,77306,128,0,78914:0:0:0:0:
320,192,78914,128,0,80628:0:0:0:0:
448,192,79342,1,0,0:0:0:0:
64,192,79556,1,0,0:0:0:0:
192,192,79771,128,0,80092:0:0:0:0:
64,192,80199,1,0,0:0:0:0:
448,192,80414,1,0,0:0:0:0:
64,192,80628,128,0,82449:0:0:0:0:
192,192,80842,1,0,0:0:0:0:
320,192,81056,1,0,0:0:0:0:
320,192,81271,1,0,0:0:0:0:
448,192,81485,128,0,82449:0:0:0:0:
192,192,81914,1,0,0:0:0:0:
320,192,81914,1,0,0:0:0:0:
192,192,82449,128,0,84164:0:0:0:0:
320,192,82449,128,0,85878:0:0:0:0:
448,192,82985,1,0,0:0:0:0:
64,192,83199,1,0,0:0:0:0:
448,192,83628,1,0,0:0:0:0:
64,192,83842,1,0,0:0:0:0:
64,192,84164,128,0,85878:0:0:0:0:
448,192,84378,1,0,0:0:0:0:
448,192,84592,1,0,0:0:0:0:
448,192,84806,1,0,0:0:0:0:
192,192,85021,1,0,0:0:0:0:
448,192,85235,1,0,0:0:0:0:
192,192,85878,128,0,87592:0:0:0:0:
448,192,86414,1,0,0:0:0:0:
320,192,86628,1,0,0:0:0:0:
64,192,86628,1,0,0:0:0:0:
448,192,87056,1,0,0:0:0:0:
64,192,87271,1,0,0:0:0:0:
448,192,87485,1,0,0:0:0:0:
320,192,87699,1,0,0:0:0:0:
192,192,87914,1,0,0:0:0:0:
448,192,88128,1,0,0:0:0:0:
64,192,88342,128,0,89306:0:0:0:0:
320,192,89306,128,0,90914:0:0:0:0:
192,192,89842,1,0,0:0:0:0:
448,192,90056,1,0,0:0:0:0:
64,192,90485,1,0,0:0:0:0:
448,192,90699,1,0,0:0:0:0:
64,192,90914,1,0,0:0:0:0:
448,192,91128,1,0,0:0:0:0:
320,192,91128,1,0,0:0:0:0:
448,192,91342,1,0,0:0:0:0:
320,192,91342,1,0,0:0:0:0:
448,192,91556,1,0,0:0:0:0:
320,192,91556,1,0,0:0:0:0:
64,192,91771,1,0,0:0:0:0:
448,192,91771,1,0,0:0:0:0:
64,192,92735,128,0,94342:0:0:0:0:
320,192,93592,1,0,0:0:0:0:
448,192,93592,1,0,0:0:0:0:
320,192,94342,1,0,0:0:0:0:
192,192,94556,1,0,0:0:0:0:
320,192,94771,1,0,0:0:0:0:
192,192,94985,1,0,0:0:0:0:
320,192,95199,128,0,96164:0:0:0:0:
64,192,96164,1,0,0:0:0:0:
192,192,96378,1,0,0:0:0:0:
192,192,96592,1,0,0:0:0:0:
64,192,96914,1,0,0:0:0:0:
320,192,96914,1,0,0:0:0:0:
192,192,97449,1,0,0:0:0:0:
320,192,97449,1,0,0:0:0:0:
64,192,97878,128,0,99485:0:0:0:0:
192,192,97878,1,0,0:0:0:0:
320,192,97985,1,0,0:0:0:0:
448,192,98092,1,0,0:0:0:0:
320,192,98199,1,0,0:0:0:0:
192,192,98306,1,0,0:0:0:0:
320,192,98414,1,0,0:0:0:0:
448,192,98521,1,0,0:0:0:0:
320,192,98628,1,0,0:0:0:0:
192,192,98735,1,0,0:0:0:0:
192,192,99592,1,0,0:0:0:0:
320,192,99699,1,0,0:0:0:0:
64,192,99914,1,0,0:0:0:0:
448,192,100128,1,0,0:0:0:0:
320,192,100235,1,0,0:0:0:0:
192,192,100449,128,0,100771:0:0:0:0:
320,192,100985,128,0,101306:0:0:0:0:
64,192,101414,1,0,0:0:0:0:
320,192,101628,1,0,0:0:0:0:
448,192,101842,1,0,0:0:0:0:
320,192,102056,128,0,102485:0:0:0:0:
64,192,103021,1,0,0:0:0:0:
448,192,103021,1,0,0:0:0:0:
192,192,103235,1,0,0:0:0:0:
320,192,103449,1,0,0:0:0:0:
448,192,103664,1,0,0:0:0:0:
320,192,103878,1,0,0:0:0:0:
64,192,104199,1,0,0:0:0:0:
64,192,104414,1,0,0:0:0:0:
448,192,104842,1,0,0:0:0:0:
320,192,104949,1,0,0:0:0:0:
192,192,105056,1,0,0:0:0:0:
64,192,105164,1,0,0:0:0:0:
192,192,105271,1,0,0:0:0:0:
320,192,105378,1,0,0:0:0:0:
192,192,105485,128,0,106449:0:0:0:0:
448,192,106556,1,0,0:0:0:0:
192,192,106771,1,0,0:0:0:0:
64,192,106985,1,0,0:0:0:0:
448,192,107199,1,0,0:0:0:0:
320,192,107306,1,0,0:0:0:0:
192,192,107414,1,0,0:0:0:0:
64,192,107521,1,0,0:0:0:0:
192,192,107628,1,0,0:0:0:0:
320,192,107735,128,0,108164:0:0:0:0:
192,192,108271,1,0,0:0:0:0:
64,192,108378,1,0,0:0:0:0:
192,192,108485,1,0,0:0:0:0:
320,192,108592,1,0,0:0:0:0:
448,192,108699,1,0,0:0:0:0:
320,192,108806,1,0,0:0:0:0:
192,192,108914,1,0,0:0:0:0:
64,192,109021,128,0,109878:0:0:0:0:
320,192,109878,128,0,113306:0:0:0:0:
448,192,109878,128,0,113306:0:0:0:0:
64,192,113306,128,0,116735:0:0:0:0:
192,192,113306,128,0,116735:0:0:0:0:
320,192,116735,128,0,118449:0:0:0:0:
64,192,118449,128,0,120164:0:0:0:0:
192,192,119199,1,0,0:0:0:0:
192,192,119949,1,0,0:0:0:0:
320,192,120056,1,0,0:0:0:0:
448,192,120164,128,0,121878:0:0:0:0:
64,192,121878,128,0,123592:0:0:0:0:
192,192,121878,128,0,123592:0:0:0:0:
320,192,123592,128,0,125306:0:0:0:0:
448,192,123592,128,0,125306:0:0:0:0:
64,192,124342,1,0,0:0:0:0:
192,192,124342,1,0,0:0:0:0:
192,192,125306,128,0,127021:0:0:0:0:
64,192,125306,1,0,0:0:0:0:
320,192,126164,1,0,0:0:0:0:
64,192,126164,1,0,0:0:0:0:
448,192,126271,1,0,0:0:0:0:
320,192,127021,128,0,130449:0:0:0:0:
64,192,127021,1,0,0:0:0:0:
448,192,127771,1,0,0:0:0:0:
192,192,128628,1,0,0:0:0:0:
64,192,129485,1,0,0:0:0:0:
448,192,130449,1,0,0:0:0:0:
64,192,130449,128,0,133771:0:0:0:0:
192,192,130449,128,0,133771:0:0:0:0:
320,192,131092,1,0,0:0:0:0:
448,192,131092,1,0,0:0:0:0:
448,192,132806,1,0,0:0:0:0:
320,192,133771,128,0,135592:0:0:0:0:
448,192,133771,128,0,135592:0:0:0:0:
64,192,134628,1,0,0:0:0:0:
192,192,134628,1,0,0:0:0:0:
192,192,135592,1,0,0:0:0:0:
64,192,135592,1,0,0:0:0:0:
192,192,136342,1,0,0:0:0:0:
320,192,136342,1,0,0:0:0:0:
64,192,137306,128,0,139021:0:0:0:0:
320,192,137306,1,0,0:0:0:0:
448,192,137306,1,0,0:0:0:0:
320,192,138056,1,0,0:0:0:0:
320,192,138914,1,0,0:0:0:0:
448,192,138914,1,0,0:0:0:0:
64,192,139771,1,0,0:0:0:0:
320,192,140628,128,0,142449:0:0:0:0:
64,192,140628,1,0,0:0:0:0:
192,192,140628,1,0,0:0:0:0:
192,192,141485,1,0,0:0:0:0:
64,192,141485,1,0,0:0:0:0:
192,192,142342,128,0,144164:0:0:0:0:
448,192,142342,128,0,144164:0:0:0:0:
64,192,143199,1,0,0:0:0:0:
64,192,144164,128,0,145878:0:0:0:0:
192,192,144914,1,0,0:0:0:0:
448,192,144914,1,0,0:0:0:0:
192,192,145771,1,0,0:0:0:0:
320,192,145771,128,0,147592:0:0:0:0:
64,192,146521,1,0,0:0:0:0:
64,192,147271,1,0,0:0:0:0:
192,192,147378,1,0,0:0:0:0:
448,192,147485,1,0,0:0:0:0:
448,192,147592,128,0,149306:0:0:0:0:
64,192,148235,1,0,0:0:0:0:
192,192,148342,1,0,0:0:0:0:
320,192,148449,1,0,0:0:0:0:
64,192,148985,1,0,0:0:0:0:
192,192,149092,1,0,0:0:0:0:
320,192,149199,1,0,0:0:0:0:
64,192,149306,128,0,151021:0:0:0:0:
192,192,149628,1,0,0:0:0:0:
448,192,149628,1,0,0:0:0:0:
448,192,150056,128,0,151021:0:0:0:0:
192,192,150056,1,0,0:0:0:0:
192,192,151021,128,0,152735:0:0:0:0:
320,192,151771,1,0,0:0:0:0:
448,192,151771,1,0,0:0:0:0:
64,192,152735,128,0,154449:0:0:0:0:
192,192,152842,1,0,0:0:0:0:
320,192,153056,1,0,0:0:0:0:
448,192,153271,1,0,0:0:0:0:
192,192,153485,1,0,0:0:0:0:
320,192,153485,1,0,0:0:0:0:
448,192,154449,128,0,157878:0:0:0:0:
64,192,155199,1,0,0:0:0:0:
320,192,155199,1,0,0:0:0:0:
192,192,156056,1,0,0:0:0:0:
192,192,156378,1,0,0:0:0:0:
192,192,156699,1,0,0:0:0:0:
64,192,156914,128,0,157878:0:0:0:0:
320,192,156914,128,0,157878:0:0:0:0:
192,192,157878,128,0,159592:0:0:0:0:
64,192,158414,1,0,0:0:0:0:
320,192,158628,1,0,0:0:0:0:
448,192,158628,1,0,0:0:0:0:
64,192,159164,1,0,0:0:0:0:
320,192,159271,1,0,0:0:0:0:
448,192,159378,1,0,0:0:0:0:
320,192,159485,1,0,0:0:0:0:
64,192,159592,128,0,161306:0:0:0:0:
320,192,159699,1,0,0:0:0:0:
448,192,159914,1,0,0:0:0:0:
320,192,160128,1,0,0:0:0:0:
192,192,160342,128,0,161306:0:0:0:0:
320,192,160664,1,0,0:0:0:0:
448,192,160878,1,0,0:0:0:0:
448,192,161092,1,0,0:0:0:0:
320,192,161306,128,0,163021:0:0:0:0:
192,192,161949,1,0,0:0:0:0:
448,192,162164,1,0,0:0:0:0:
64,192,162164,1,0,0:0:0:0:
64,192,163021,128,0,164735:0:0:0:0:
192,192,163449,1,0,0:0:0:0:
320,192,163556,1,0,0:0:0:0:
448,192,163664,1,0,0:0:0:0:
320,192,163771,1,0,0:0:0:0:
192,192,163878,1,0,0:0:0:0:
320,192,163985,1,0,0:0:0:0:
448,192,164092,1,0,0:0:0:0:
320,192,164199,1,0,0:0:0:0:
192,192,164306,1,0,0:0:0:0:
320,192,164414,1,0,0:0:0:0:
448,192,164521,1,0,0:0:0:0:
320,192,164628,1,0,0:0:0:0:
448,192,164735,128,0,165164:0:0:0:0:
192,192,164735,128,0,166449:0:0:0:0:
64,192,164842,1,0,0:0:0:0:
320,192,165056,1,0,0:0:0:0:
448,192,165271,1,0,0:0:0:0:
64,192,165485,1,0,0:0:0:0:
320,192,165699,1,0,0:0:0:0:
448,192,165914,128,0,166449:0:0:0:0:
64,192,166449,128,0,168164:0:0:0:0:
320,192,166556,1,0,0:0:0:0:
192,192,166771,1,0,0:0:0:0:
448,192,166985,1,0,0:0:0:0:
320,192,167199,1,0,0:0:0:0:
448,192,167414,1,0,0:0:0:0:
192,192,167628,1,0,0:0:0:0:
320,192,167842,1,0,0:0:0:0:
448,192,168056,128,0,169878:0:0:0:0:
320,192,168271,1,0,0:0:0:0:
192,192,168485,1,0,0:0:0:0:
64,192,168699,1,0,0:0:0:0:
192,192,168914,1,0,0:0:0:0:
64,192,169128,1,0,0:0:0:0:
320,192,169342,1,0,0:0:0:0:
64,192,169556,1,0,0:0:0:0:
192,192,169771,128,0,171592:0:0:0:0:
320,192,170414,1,0,0:0:0:0:
448,192,170628,1,0,0:0:0:0:
64,192,170842,1,0,0:0:0:0:
448,192,171056,1,0,0:0:0:0:
64,192,171271,1,0,0:0:0:0:
320,192,171485,128,0,173306:0:0:0:0:
192,192,171699,1,0,0:0:0:0:
448,192,171914,1,0,0:0:0:0:
64,192,172128,1,0,0:0:0:0:
192,192,172342,1,0,0:0:0:0:
448,192,172556,1,0,0:0:0:0:
192,192,172771,1,0,0:0:0:0:
448,192,172985,1,0,0:0:0:0:
64,192,173199,128,0,175021:0:0:0:0:
192,192,173842,1,0,0:0:0:0:
320,192,174056,1,0,0:0:0:0:
192,192,174271,1,0,0:0:0:0:
448,192,174485,1,0,0:0:0:0:
320,192,174699,1,0,0:0:0:0:
448,192,174914,128,0,176735:0:0:0:0:
320,192,175128,1,0,0:0:0:0:
192,192,175342,1,0,0:0:0:0:
320,192,175556,1,0,0:0:0:0:
192,192,175771,1,0,0:0:0:0:
320,192,175985,1,0,0:0:0:0:
192,192,176199,1,0,0:0:0:0:
320,192,176414,1,0,0:0:0:0:
192,192,176628,128,0,178449:0:0:0:0:
320,192,176842,1,0,0:0:0:0:
64,192,177056,1,0,0:0:0:0:
320,192,177271,1,0,0:0:0:0:
64,192,177485,1,0,0:0:0:0:
320,192,177699,1,0,0:0:0:0:
64,192,177914,1,0,0:0:0:0:
320,192,178128,1,0,0:0:0:0:
64,192,178449,128,0,183592:0:0:0:0:
448,192,178449,128,0,183592:0:0:0:0:
