osu file format v14

[General]
AudioFilename: audio.mp3
AudioLeadIn: 0
PreviewTime: 57429
Countdown: 1
SampleSet: Soft
StackLeniency: 0.7
Mode: 0
LetterboxInBreaks: 0
WidescreenStoryboard: 0

[Editor]
DistanceSpacing: 1
BeatDivisor: 4
GridSize: 16
TimelineZoom: 2.3

[Metadata]
Title:VORACITY (TV Size)
TitleUnicode:VORACITY (TV Size)
Artist:Myth & Roid
ArtistUnicode:Myth & Roid
Creator:Cataclysm
Version:Insane
Source:Overlord III
Tags:Overlord 3 opening tv size voracity Myth & Roid
BeatmapID:1811826
BeatmapSetID:866642

[Difficulty]
HPDrainRate:8
CircleSize:4
OverallDifficulty:8.2
ApproachRate:9.2
SliderMultiplier:1.4
SliderTickRate:3

[Events]
//Background and Video events
0,0,"c1ca228598a3792b93f84a1e28d5468e.png",0,0
//Break Periods
2,31829,35829
2,46229,52329
//Storyboard Layer 0 (Background)
//Storyboard Layer 1 (Fail)
//Storyboard Layer 2 (Pass)
//Storyboard Layer 3 (Foreground)
//Storyboard Sound Samples

[TimingPoints]
729,300.00018957346,4,2,0,100,1,0
5697,-133.333333333333,4,2,0,100,0,0
10047,-100,4,2,0,100,0,0
15654,-66.6666666666667,4,2,0,100,0,0
16404,-100,4,2,0,100,0,0
18897,-100,4,2,0,100,0,0
53229,-100,4,2,0,100,0,1
55554,-50,4,2,0,100,0,0
57129,-100,4,2,0,100,0,0
57429,-100,4,2,0,100,0,1
65154,-50,4,2,0,100,0,0
67404,-100,4,2,0,100,0,0
71154,-66.6666666666667,4,2,0,100,0,1
74754,-50,4,2,0,100,0,1
76554,-66.6666666666667,4,2,0,100,0,0
81954,-50,4,2,0,100,0,0

[HitObjects]
256,32,1029,5,0,0:0:0:0:
256,352,1629,1,0,0:0:0:0:
256,32,2229,1,0,0:0:0:0:
256,32,2379,1,0,0:0:0:0:
256,32,2529,1,0,0:0:0:0:
160,160,2679,2,0,P|210:184|341:112,1,210
258,94,3429,5,0,0:0:0:0:
384,224,3579,1,0,0:0:0:0:
258,94,3729,1,0,0:0:0:0:
384,224,3879,1,0,0:0:0:0:
384,224,4029,2,0,L|320:256,2,70
255,160,4479,2,0,P|260:94|276:64,1,70
288,67,4779,1,0,0:0:0:0:
192,224,4929,1,0,0:0:0:0:
192,224,5079,2,0,P|242:248|348:190,1,183.750007009506
433,344,5829,5,0,0:0:0:0:
256,224,5979,1,0,0:0:0:0:
448,128,6129,1,0,0:0:0:0:
384,320,6279,1,0,0:0:0:0:
224,192,6429,1,0,0:0:0:0:
448,160,6579,2,0,L|411:226,1,52.5000020027161
149,212,6879,2,0,L|182:150,1,52.5000020027161
384,284,7179,1,0,0:0:0:0:
160,64,7929,5,0,0:0:0:0:
256,256,8229,1,0,0:0:0:0:
352,64,8529,1,0,0:0:0:0:
256,96,8829,5,0,0:0:0:0:
256,288,8979,1,0,0:0:0:0:
304,112,9129,5,0,0:0:0:0:
208,272,9279,1,0,0:0:0:0:
336,160,9429,5,0,0:0:0:0:
176,224,9579,1,0,0:0:0:0:
336,224,9729,5,0,0:0:0:0:
176,160,9879,1,0,0:0:0:0:
268,189,10029,6,0,B|268:125|268:125|268:125,2,52.5000020027161
256,192,10479,5,0,0:0:0:0:
64,64,10629,1,0,0:0:0:0:
472,318,10929,1,0,0:0:0:0:
97,86,11229,2,0,P|130:80|160:98,1,70
316,274,11529,6,0,P|350:271|374:247,1,70
228,88,11829,2,0,L|168:127,1,70
342,260,12129,2,0,L|393:200,1,70
160,128,12429,2,0,L|224:160,1,70
436,197,12729,1,0,0:0:0:0:
193,302,12879,1,0,0:0:0:0:
139,175,13029,5,0,0:0:0:0:
282,326,13179,1,0,0:0:0:0:
186,95,13329,1,0,0:0:0:0:
366,339,13479,1,0,0:0:0:0:
257,43,13629,1,0,0:0:0:0:
171,115,13779,2,0,B|172:115|108:83,2,70
375,204,14229,1,0,0:0:0:0:
133,329,14379,1,0,0:0:0:0:
293,217,14529,5,0,0:0:0:0:
224,32,14679,1,0,0:0:0:0:
112,175,14829,2,0,P|112:111|144:15,1,140
320,107,15279,1,0,0:0:0:0:
395,303,15429,1,0,0:0:0:0:
128,302,15579,1,0,0:0:0:0:
265,62,15729,2,0,L|321:101,4,52.5000020027161
332,142,16104,1,0,0:0:0:0:
330,194,16179,1,0,0:0:0:0:
309,242,16254,1,0,0:0:0:0:
270,278,16329,5,0,0:0:0:0:
128,256,16479,1,0,0:0:0:0:
96,96,16629,1,0,0:0:0:0:
224,192,16779,1,0,0:0:0:0:
64,256,16929,1,0,0:0:0:0:
160,64,17079,1,0,0:0:0:0:
320,96,17229,2,0,P|320:192|288:256,1,140
139,179,17679,5,0,0:0:0:0:
224,64,17829,1,0,0:0:0:0:
288,192,17979,1,0,0:0:0:0:
96,224,18129,6,0,L|131:230,4,35
160,224,18504,1,0,0:0:0:0:
208,201,18579,1,0,0:0:0:0:
254,173,18654,1,0,0:0:0:0:
292,136,18729,1,0,0:0:0:0:
384,288,18879,1,0,0:0:0:0:
278,95,18954,1,0,0:0:0:0:
278,95,19029,2,0,L|279:60,3,35
189,243,19329,1,0,0:0:0:0:
350,179,19629,1,0,0:0:0:0:
352,96,20829,6,0,B|240:64|119:104|119:104,1,210
150,307,21429,2,0,B|261:338|382:298|382:298,1,210
192,128,22029,1,0,0:0:0:0:
384,64,22179,1,0,0:0:0:0:
352,288,22329,1,0,0:0:0:0:
352,64,22479,1,0,0:0:0:0:
192,160,22629,1,0,0:0:0:0:
384,288,22779,1,0,0:0:0:0:
160,64,22929,5,0,0:0:0:0:
384,288,23079,1,0,0:0:0:0:
160,64,23229,1,0,0:0:0:0:
403,89,23379,2,0,L|346:73,4,35
138,298,23829,1,0,0:0:0:0:
138,298,23904,1,0,0:0:0:0:
138,298,23979,1,0,0:0:0:0:
447,226,24129,1,0,0:0:0:0:
218,133,24279,5,0,0:0:0:0:
218,133,24429,2,0,P|188:103|164:89,1,70
94,323,24729,1,0,0:0:0:0:
127,86,24879,1,0,0:0:0:0:
282,262,25029,1,0,0:0:0:0:
375,40,25179,1,0,0:0:0:0:
155,57,25329,2,0,L|132:90,4,35
265,283,25779,5,0,0:0:0:0:
265,283,25854,1,0,0:0:0:0:
265,283,25929,1,0,0:0:0:0:
411,141,26079,1,0,0:0:0:0:
232,95,26229,2,0,L|224:31,2,35
184,187,26529,5,0,0:0:0:0:
431,56,26829,1,0,0:0:0:0:
27,67,27279,1,0,0:0:0:0:
438,149,27729,5,0,0:0:0:0:
64,256,28179,1,0,0:0:0:0:
333,165,28629,5,0,0:0:0:0:
147,65,28929,1,0,0:0:0:0:
106,68,29229,5,0,0:0:0:0:
140,337,29679,1,0,0:0:0:0:
229,79,30129,5,0,0:0:0:0:
255,350,30579,1,0,0:0:0:0:
330,153,31029,5,0,0:0:0:0:
64,64,31329,1,0,0:0:0:0:
279,235,31629,1,0,0:0:0:0:
352,128,36429,6,0,P|320:96|288:96,1,70
96,64,36729,1,0,0:0:0:0:
192,288,36879,1,0,0:0:0:0:
256,64,37029,1,0,0:0:0:0:
352,288,37179,1,0,0:0:0:0:
187,130,37329,2,0,L|227:113,4,35
333,227,37779,5,0,0:0:0:0:
224,64,37929,1,0,0:0:0:0:
128,224,38079,1,0,0:0:0:0:
288,96,38229,1,0,0:0:0:0:
160,288,38379,1,0,0:0:0:0:
224,64,38529,1,0,0:0:0:0:
352,320,38679,1,0,0:0:0:0:
352,224,38829,6,0,P|320:256|288:256,1,70
128,128,39129,1,0,0:0:0:0:
320,96,39279,1,0,0:0:0:0:
224,288,39429,1,0,0:0:0:0:
88,127,39579,1,0,0:0:0:0:
292,140,39729,2,0,L|304:182,4,35
104,283,40179,5,0,0:0:0:0:
256,192,40329,1,0,0:0:0:0:
96,96,40479,1,0,0:0:0:0:
320,320,40629,6,0,P|364:283|376:263,1,70
288,64,40929,1,0,0:0:0:0:
52,335,41229,1,0,0:0:0:0:
476,40,41679,1,0,0:0:0:0:
96,320,42129,5,0,0:0:0:0:
384,224,42579,1,0,0:0:0:0:
416,320,43029,5,0,0:0:0:0:
320,64,43329,1,0,0:0:0:0:
64,256,43629,5,0,0:0:0:0:
416,64,44079,1,0,0:0:0:0:
416,64,44529,5,0,0:0:0:0:
64,256,44979,1,0,0:0:0:0:
256,32,45429,5,0,0:0:0:0:
256,352,45729,1,0,0:0:0:0:
109,101,46029,1,0,0:0:0:0:
255,192,52929,6,0,P|220:161|262:129,1,105
305,134,53229,1,0,0:0:0:0:
365,163,53329,1,0,0:0:0:0:
396,222,53429,1,0,0:0:0:0:
343,268,53529,2,0,L|289:278,2,46.6666666666667
333,198,53829,5,0,0:0:0:0:
290,142,53929,1,0,0:0:0:0:
224,116,54029,1,0,0:0:0:0:
172,163,54129,2,0,L|178:209,2,46.6666666666667
204,100,54429,5,0,0:0:0:0:
267,70,54529,1,0,0:0:0:0:
336,77,54629,1,0,0:0:0:0:
404,91,54729,2,0,L|462:63,2,46.6666666666667
366,150,55029,5,0,0:0:0:0:
317,200,55129,1,0,0:0:0:0:
254,231,55229,1,0,0:0:0:0:
184,233,55329,1,0,0:0:0:0:
127,191,55429,1,0,0:0:0:0:
116,121,55529,1,0,0:0:0:0:
325,89,55629,6,0,B|380:57|380:57|473:87,1,140
186,81,55929,6,0,B|131:112|131:112|58:89,1,140
370,181,56229,6,0,B|445:204|445:204|518:179,1,140
201,199,56529,6,0,B|125:175|125:175|52:200,1,140
311,258,56829,6,0,B|374:229|374:229|419:261|419:261|491:247,1,140
170,92,57429,5,0,0:0:0:0:
384,288,57579,1,0,0:0:0:0:
96,160,57729,1,0,0:0:0:0:
416,192,57879,1,0,0:0:0:0:
416,192,57954,1,0,0:0:0:0:
416,192,58029,1,0,0:0:0:0:
160,224,58179,1,0,0:0:0:0:
320,128,58329,5,0,0:0:0:0:
160,320,58479,1,0,0:0:0:0:
384,96,58629,1,0,0:0:0:0:
96,256,58779,1,0,0:0:0:0:
372,308,58929,1,0,0:0:0:0:
357,276,59004,1,0,0:0:0:0:
339,245,59079,1,0,0:0:0:0:
322,214,59154,1,0,0:0:0:0:
305,183,59229,1,0,0:0:0:0:
180,82,59379,1,0,0:0:0:0:
224,288,59529,5,0,0:0:0:0:
384,160,59679,1,0,0:0:0:0:
125,101,59829,1,0,0:0:0:0:
256,288,59979,1,0,0:0:0:0:
384,96,60129,1,0,0:0:0:0:
385,186,60279,1,0,0:0:0:0:
353,200,60354,1,0,0:0:0:0:
321,215,60429,1,0,0:0:0:0:
288,229,60504,1,0,0:0:0:0:
255,243,60579,1,0,0:0:0:0:
160,288,60729,5,0,0:0:0:0:
192,96,60879,1,0,0:0:0:0:
96,288,61029,1,0,0:0:0:0:
256,96,61179,1,0,0:0:0:0:
189,316,61329,1,0,0:0:0:0:
196,103,61479,1,0,0:0:0:0:
196,103,61554,1,0,0:0:0:0:
196,103,61629,2,0,P|181:52|193:20,2,70
271,237,62079,5,0,0:0:0:0:
448,288,62229,1,0,0:0:0:0:
224,160,62379,1,0,0:0:0:0:
480,128,62529,1,0,0:0:0:0:
204,253,62679,1,0,0:0:0:0:
204,253,62754,1,0,0:0:0:0:
204,253,62829,1,0,0:0:0:0:
283,302,62979,1,0,0:0:0:0:
192,64,63129,5,0,0:0:0:0:
416,64,63279,1,0,0:0:0:0:
128,128,63429,1,0,0:0:0:0:
480,160,63579,1,0,0:0:0:0:
243,235,63729,2,0,P|198:220|173:196,2,70
298,257,64104,5,0,0:0:0:0:
343,218,64179,1,0,0:0:0:0:
360,161,64254,1,0,0:0:0:0:
337,106,64329,1,0,0:0:0:0:
289,70,64404,1,0,0:0:0:0:
230,81,64479,1,0,0:0:0:0:
195,129,64554,1,0,0:0:0:0:
198,188,64629,5,0,0:0:0:0:
222,242,64704,1,0,0:0:0:0:
267,280,64779,1,0,0:0:0:0:
320,306,64854,1,0,0:0:0:0:
378,295,64929,1,0,0:0:0:0:
425,258,65004,1,0,0:0:0:0:
444,201,65079,1,0,0:0:0:0:
300,242,65229,6,0,P|357:218|397:134,1,140
292,51,65529,1,0,0:0:0:0:
84,209,65829,2,0,P|88:279|122:345,1,140
251,293,66129,1,0,0:0:0:0:
453,82,66429,2,0,P|348:53|284:62,2,140
139,242,66879,5,0,0:0:0:0:
367,138,67179,1,0,0:0:0:0:
367,138,67329,1,0,0:0:0:0:
226,69,67479,2,0,P|195:106|181:152,2,70
196,260,67929,1,0,0:0:0:0:
196,260,68079,1,0,0:0:0:0:
400,164,68229,6,0,P|381:224|357:248,2,70
347,68,68679,1,0,0:0:0:0:
160,160,68829,1,0,0:0:0:0:
320,256,68979,1,0,0:0:0:0:
288,64,69129,5,0,0:0:0:0:
293,282,69279,2,0,P|337:253|348:234,2,70
327,114,69729,1,0,0:0:0:0:
153,65,69879,2,0,L|128:160,1,70
96,288,70179,1,0,0:0:0:0:
256,64,70329,5,0,0:0:0:0:
416,288,70479,1,0,0:0:0:0:
416,288,70554,1,0,0:0:0:0:
416,288,70629,1,0,0:0:0:0:
288,64,70779,1,0,0:0:0:0:
128,288,70929,1,0,0:0:0:0:
145,87,71079,1,0,0:0:0:0:
425,162,71229,2,0,P|351:120|301:119,2,105.000004005432
128,149,71679,6,0,P|111:199|112:250,1,105.000004005432
160,274,71904,1,0,0:0:0:0:
211,287,71979,1,0,0:0:0:0:
263,285,72054,1,0,0:0:0:0:
304,252,72129,1,0,0:0:0:0:
332,207,72204,1,0,0:0:0:0:
339,155,72279,1,0,0:0:0:0:
319,106,72354,1,0,0:0:0:0:
278,73,72429,2,0,P|225:45|166:42,1,105.000004005432
419,124,72729,5,0,0:0:0:0:
419,124,72879,1,0,0:0:0:0:
117,277,73029,2,0,P|80:202|90:155,2,105.000004005432
419,124,73479,1,0,0:0:0:0:
419,124,73629,6,0,L|319:175,1,105.000004005432
286,206,73854,1,0,0:0:0:0:
256,249,73929,1,0,0:0:0:0:
227,293,74004,1,0,0:0:0:0:
186,326,74079,1,0,0:0:0:0:
134,318,74154,1,0,0:0:0:0:
89,290,74229,5,0,0:0:0:0:
72,240,74304,1,0,0:0:0:0:
81,183,74379,1,0,0:0:0:0:
108,138,74454,1,0,0:0:0:0:
151,108,74529,1,0,0:0:0:0:
201,95,74604,1,0,0:0:0:0:
251,110,74679,1,0,0:0:0:0:
277,151,74754,1,0,0:0:0:0:
137,199,74829,6,0,L|49:79,1,140
254,56,75129,1,0,0:0:0:0:
387,217,75279,1,0,0:0:0:0:
112,148,75429,2,0,L|195:274,1,140
254,56,75729,5,0,0:0:0:0:
180,245,75879,1,0,0:0:0:0:
324,273,76029,2,0,P|387:222|423:166,1,140
297,82,76329,2,0,P|212:72|144:87,1,140
191,318,76629,2,0,L|265:230,2,105.000004005432
250,164,77079,2,0,P|313:187|329:266,1,105.000004005432
338,269,77304,1,0,0:0:0:0:
299,304,77379,1,0,0:0:0:0:
246,307,77454,1,0,0:0:0:0:
194,294,77529,1,0,0:0:0:0:
147,269,77604,1,0,0:0:0:0:
219,97,77679,6,0,P|164:79|93:80,1,105.000004005432
70,101,77904,5,0,0:0:0:0:
57,151,77979,1,0,0:0:0:0:
58,203,78054,1,0,0:0:0:0:
87,246,78129,6,0,P|142:285|183:281,1,105.000004005432
398,60,78429,1,0,0:0:0:0:
296,207,78579,1,0,0:0:0:0:
296,207,78654,1,0,0:0:0:0:
296,207,78729,1,0,0:0:0:0:
398,60,78879,5,0,0:0:0:0:
118,79,79029,2,0,L|230:57,2,105.000004005432
108,280,79479,1,0,0:0:0:0:
438,194,79629,1,0,0:0:0:0:
224,64,79779,1,0,0:0:0:0:
384,256,79929,1,0,0:0:0:0:
160,128,80079,1,0,0:0:0:0:
480,128,80229,1,0,0:0:0:0:
96,192,80379,1,0,0:0:0:0:
158,206,80529,6,0,L|203:246,4,52.5000020027161
206,185,80904,1,0,0:0:0:0:
256,170,80979,1,0,0:0:0:0:
308,176,81054,1,0,0:0:0:0:
354,200,81129,1,0,0:0:0:0:
245,305,81279,1,0,0:0:0:0:
151,80,81429,6,0,P|149:164|164:189,2,105.000004005432
308,70,81879,1,0,0:0:0:0:
308,70,81954,1,0,0:0:0:0:
308,70,82029,2,0,P|289:135|322:195,1,140
149,167,82479,6,0,P|181:247|245:301,1,140
340,79,82929,2,0,P|410:157|498:137,1,140
93,134,83379,2,0,P|181:155|218:74,1,140
300,105,83829,2,0,L|326:270,1,140
90,177,84429,2,0,P|133:54|189:50,1,140
300,257,84879,2,0,L|292:249|289:246|285:242|281:238|278:235|274:231|378:109,2,140
300,257,85254,2,0,L|139:295,1,140
349,165,85779,2,0,B|387:54|304:-48|423:52|232:161|94:165,1,420
64,192,86829,5,0,0:0:0:0:
448,192,87279,1,0,0:0:0:0:
256,192,87729,1,0,0:0:0:0:
