osu file format v14

[General]
AudioFilename: audio.mp3
AudioLeadIn: 0
PreviewTime: 50418
Countdown: 1
SampleSet: None
StackLeniency: 0.7
Mode: 1
LetterboxInBreaks: 0
WidescreenStoryboard: 0

[Editor]
DistanceSpacing: 2
BeatDivisor: 4
GridSize: 4
TimelineZoom: 1.9

[Metadata]
Title:The Zoo Zone
TitleUnicode:The Zoo Zone
Artist:Mystic Moon
ArtistUnicode:Mystic Moon
Creator:cdhsausageboy
Version:Oni (ATS Ver)
Source:Pop'n Music
Tags:
BeatmapID:1670210
BeatmapSetID:795265

[Difficulty]
HPDrainRate:7
CircleSize:5
OverallDifficulty:6.2
ApproachRate:5
SliderMultiplier:1.4
SliderTickRate:1

[Events]
//Background and Video events
0,0,"kmm.jpg",0,80
//Break Periods
//Storyboard Layer 0 (Background)
//Storyboard Layer 1 (Fail)
//Storyboard Layer 2 (Pass)
//Storyboard Layer 3 (Foreground)
//Storyboard Sound Samples

[TimingPoints]
918,375,4,1,0,70,1,0
13855,-200,4,1,0,70,0,1
14418,-100,4,1,0,70,0,0
17418,-111.111111111111,4,1,0,70,0,0
18918,-125,4,1,0,70,0,0
19855,-100,4,1,0,70,0,0
23418,-111.111111111111,4,1,0,70,0,0
24918,-125,4,1,0,70,0,0
26419,-100,4,1,0,70,0,0
32418,-66.6666666666667,4,1,0,70,0,0
32793,-100,4,1,0,70,0,0
36730,-50,4,1,0,70,0,1
38230,-100,4,1,0,70,0,0
39355,-100,4,1,0,70,0,1
39543,-100,4,1,0,70,0,0
40855,-100,4,1,0,70,0,1
40949,-100,4,1,0,70,0,0
42355,-100,4,1,0,70,0,1
42449,-100,4,1,0,70,0,0
43668,-100,4,1,0,70,0,1
43761,-100,4,1,0,70,0,0
45168,-100,4,1,0,70,0,1
45261,-100,4,1,0,70,0,0
46668,-100,4,1,0,70,0,1
46761,-100,4,1,0,70,0,0
47418,-100,4,1,0,70,0,1
47605,-100,4,1,0,70,0,0
48168,-100,4,1,0,70,0,1
48355,-100,4,1,0,70,0,0
50418,-111.111111111111,4,1,0,70,0,0
50793,-125,4,1,0,70,0,0
51168,-142.857142857143,4,1,0,70,0,0
52293,-200,4,1,0,70,0,0
54168,-217.391304347826,4,1,0,70,0,0
54355,-232.558139534884,4,1,0,70,0,0
54543,-250,4,1,0,70,0,0
54918,-277.777777777778,4,1,0,70,0,0
55105,-303.030303030303,4,1,0,70,0,0
55293,-333.333333333333,4,1,0,70,0,0
56418,-50,4,1,0,70,0,0
56793,-400,4,1,0,70,0,0
61668,-50,4,1,0,70,0,1
62230,-100,4,1,0,70,0,0
74418,-50,4,1,0,70,0,1
76668,-100,4,1,0,70,0,0
87730,-50,4,1,0,70,0,1
89418,-100,4,1,0,70,0,0
95418,-83.3333333333333,4,1,0,70,0,1
101418,-83.3333333333333,4,1,0,70,0,0

[HitObjects]
104,132,918,5,4,0:0:0:0:
240,156,1105,1,8,0:0:0:0:
372,176,1480,1,8,0:0:0:0:
372,176,1855,1,8,0:0:0:0:
424,220,1949,1,8,0:0:0:0:
372,176,2042,1,0,0:0:0:0:
304,180,2136,1,0,0:0:0:0:
424,220,2230,1,8,0:0:0:0:
288,184,2418,1,0,0:0:0:0:
304,180,2605,1,8,0:0:0:0:
372,176,2980,1,8,0:0:0:0:
372,176,3355,1,8,0:0:0:0:
304,180,3449,1,0,0:0:0:0:
372,176,3543,1,0,0:0:0:0:
424,220,3636,1,8,0:0:0:0:
424,220,3730,1,8,0:0:0:0:
288,184,3918,1,0,0:0:0:0:
304,180,4105,1,8,0:0:0:0:
372,176,4480,1,8,0:0:0:0:
372,176,4855,1,8,0:0:0:0:
424,220,4949,1,8,0:0:0:0:
372,176,5042,1,0,0:0:0:0:
304,180,5136,1,0,0:0:0:0:
424,220,5230,1,8,0:0:0:0:
288,184,5418,1,0,0:0:0:0:
304,180,5605,1,8,0:0:0:0:
372,176,5980,1,8,0:0:0:0:
372,176,6355,1,8,0:0:0:0:
424,220,6449,1,8,0:0:0:0:
304,180,6543,1,0,0:0:0:0:
372,176,6636,1,8,0:0:0:0:
424,220,6730,1,8,0:0:0:0:
288,184,6918,1,4,0:0:0:0:
428,180,7105,1,8,0:0:0:0:
428,172,7199,1,0,0:0:0:0:
428,180,7293,1,0,0:0:0:0:
496,180,7386,1,8,0:0:0:0:
424,184,7480,1,8,0:0:0:0:
372,176,7574,1,0,0:0:0:0:
248,236,7855,1,8,0:0:0:0:
312,204,7949,1,8,0:0:0:0:
356,172,8043,1,0,0:0:0:0:
356,172,8136,1,0,0:0:0:0:
312,204,8230,1,8,0:0:0:0:
324,64,8418,1,0,0:0:0:0:
300,128,8511,1,8,0:0:0:0:
268,192,8605,1,0,0:0:0:0:
428,188,8699,1,0,0:0:0:0:
428,188,8793,1,0,0:0:0:0:
492,168,8886,1,8,0:0:0:0:
288,176,8980,1,8,0:0:0:0:
428,200,9074,1,0,0:0:0:0:
220,188,9355,1,8,0:0:0:0:
288,176,9449,1,0,0:0:0:0:
356,168,9543,1,0,0:0:0:0:
392,228,9636,1,8,0:0:0:0:
392,228,9730,1,8,0:0:0:0:
472,204,9918,1,4,0:0:0:0:
428,200,10105,1,0,0:0:0:0:
300,148,10293,1,8,0:0:0:0:
424,212,10480,1,0,0:0:0:0:
472,204,10668,1,4,0:0:0:0:
428,200,10855,1,0,0:0:0:0:
300,148,11043,1,8,0:0:0:0:
424,212,11230,1,0,0:0:0:0:
76,184,11418,1,4,0:0:0:0:
228,164,11605,1,8,0:0:0:0:
76,184,11793,1,4,0:0:0:0:
228,164,11980,1,8,0:0:0:0:
76,184,12168,1,4,0:0:0:0:
228,164,12355,1,8,0:0:0:0:
76,184,12543,1,4,0:0:0:0:
228,164,12730,1,8,0:0:0:0:
336,192,13855,1,0,0:0:0:0:
336,192,13949,1,0,0:0:0:0:
336,192,14043,1,0,0:0:0:0:
336,192,14136,1,8,0:0:0:0:
264,204,14230,1,0,0:0:0:0:
448,176,14605,1,8,0:0:0:0:
448,176,14793,1,8,0:0:0:0:
208,168,14886,1,0,0:0:0:0:
248,208,14980,1,8,0:0:0:0:
384,180,15168,1,8,0:0:0:0:
384,180,15261,1,8,0:0:0:0:
416,212,15449,1,0,0:0:0:0:
508,192,15543,1,8,0:0:0:0:
224,216,15730,1,0,0:0:0:0:
444,168,15918,1,0,0:0:0:0:
288,196,16105,1,8,0:0:0:0:
364,212,16293,1,0,0:0:0:0:
364,212,16386,1,0,0:0:0:0:
332,176,16574,1,0,0:0:0:0:
348,176,16668,1,8,0:0:0:0:
328,208,16761,1,0,0:0:0:0:
40,176,16855,1,0,0:0:0:0:
116,176,17043,1,0,0:0:0:0:
444,212,17230,1,8,0:0:0:0:
444,168,17418,1,0,0:0:0:0:
288,196,17605,1,8,0:0:0:0:
364,212,17793,1,0,0:0:0:0:
364,212,17886,1,0,0:0:0:0:
332,176,18074,1,0,0:0:0:0:
348,176,18168,1,8,0:0:0:0:
328,208,18261,1,0,0:0:0:0:
40,176,18355,1,0,0:0:0:0:
116,176,18543,1,0,0:0:0:0:
444,212,18730,1,8,0:0:0:0:
444,168,18918,1,0,0:0:0:0:
288,196,19105,1,8,0:0:0:0:
364,212,19293,1,0,0:0:0:0:
364,212,19386,1,0,0:0:0:0:
332,176,19574,1,0,0:0:0:0:
348,176,19668,1,8,0:0:0:0:
40,176,19855,1,0,0:0:0:0:
232,172,19949,1,0,0:0:0:0:
116,176,20043,1,0,0:0:0:0:
232,172,20136,1,0,0:0:0:0:
444,212,20230,1,8,0:0:0:0:
448,176,20605,1,8,0:0:0:0:
448,176,20793,1,8,0:0:0:0:
208,168,20886,1,0,0:0:0:0:
248,208,20980,1,8,0:0:0:0:
384,180,21168,1,8,0:0:0:0:
384,180,21261,1,8,0:0:0:0:
416,212,21449,1,0,0:0:0:0:
508,192,21543,1,8,0:0:0:0:
224,216,21730,1,0,0:0:0:0:
444,168,21918,1,0,0:0:0:0:
288,196,22105,1,8,0:0:0:0:
364,212,22293,1,0,0:0:0:0:
364,212,22386,1,0,0:0:0:0:
332,176,22574,1,0,0:0:0:0:
348,176,22668,1,8,0:0:0:0:
328,208,22761,1,0,0:0:0:0:
40,176,22855,1,0,0:0:0:0:
164,92,22949,1,0,0:0:0:0:
116,176,23043,1,0,0:0:0:0:
444,212,23230,1,8,0:0:0:0:
444,168,23418,1,0,0:0:0:0:
288,196,23605,1,8,0:0:0:0:
364,212,23793,1,0,0:0:0:0:
364,212,23886,1,0,0:0:0:0:
332,176,24074,1,0,0:0:0:0:
348,176,24168,1,8,0:0:0:0:
328,208,24261,1,0,0:0:0:0:
40,176,24355,1,0,0:0:0:0:
164,92,24449,1,0,0:0:0:0:
116,176,24543,1,0,0:0:0:0:
444,212,24730,1,8,0:0:0:0:
444,168,24918,1,0,0:0:0:0:
288,196,25105,1,8,0:0:0:0:
364,212,25293,1,0,0:0:0:0:
364,212,25386,1,0,0:0:0:0:
332,176,25574,1,0,0:0:0:0:
348,176,25668,1,8,0:0:0:0:
368,172,25761,1,0,0:0:0:0:
368,172,25855,1,0,0:0:0:0:
368,172,25949,1,0,0:0:0:0:
452,192,26043,1,8,0:0:0:0:
452,192,26136,1,8,0:0:0:0:
452,192,26230,1,8,0:0:0:0:
452,192,26324,1,8,0:0:0:0:
312,244,26418,1,0,0:0:0:0:
484,220,26793,1,8,0:0:0:0:
476,216,26980,1,0,0:0:0:0:
460,184,27074,1,8,0:0:0:0:
456,168,27168,1,0,0:0:0:0:
340,128,27355,1,0,0:0:0:0:
340,128,27543,1,0,0:0:0:0:
472,208,27730,1,8,0:0:0:0:
396,180,27918,1,0,0:0:0:0:
442,211,28105,1,8,0:0:0:0:
421,202,28293,1,0,0:0:0:0:
465,194,28386,1,8,0:0:0:0:
465,193,28574,1,8,0:0:0:0:
456,206,28668,1,0,0:0:0:0:
446,189,28855,1,8,0:0:0:0:
478,174,29043,1,0,0:0:0:0:
427,166,29230,1,8,0:0:0:0:
396,180,29418,1,0,0:0:0:0:
442,211,29605,1,8,0:0:0:0:
421,202,29793,1,0,0:0:0:0:
465,194,29886,1,8,0:0:0:0:
465,193,30074,1,8,0:0:0:0:
456,206,30168,1,0,0:0:0:0:
57,173,30261,1,0,0:0:0:0:
446,189,30355,1,8,0:0:0:0:
478,174,30543,1,0,0:0:0:0:
427,166,30730,1,8,0:0:0:0:
396,180,30918,1,0,0:0:0:0:
442,211,31105,1,8,0:0:0:0:
421,202,31293,1,0,0:0:0:0:
465,194,31386,1,8,0:0:0:0:
465,193,31574,1,8,0:0:0:0:
456,206,31668,1,0,0:0:0:0:
346,208,31761,1,8,0:0:0:0:
446,189,31855,1,8,0:0:0:0:
190,313,31949,1,8,0:0:0:0:
478,174,32043,1,0,0:0:0:0:
312,244,32418,1,4,0:0:0:0:
484,220,32793,1,8,0:0:0:0:
476,216,32980,1,0,0:0:0:0:
460,184,33074,1,8,0:0:0:0:
456,168,33168,1,0,0:0:0:0:
340,128,33355,1,0,0:0:0:0:
340,128,33543,1,0,0:0:0:0:
472,208,33730,1,8,0:0:0:0:
396,180,33918,1,0,0:0:0:0:
442,211,34105,1,8,0:0:0:0:
421,202,34293,1,0,0:0:0:0:
465,194,34386,1,8,0:0:0:0:
465,193,34574,1,8,0:0:0:0:
456,206,34668,1,0,0:0:0:0:
446,189,34855,1,8,0:0:0:0:
478,174,35043,1,0,0:0:0:0:
427,166,35230,1,8,0:0:0:0:
396,180,35418,1,0,0:0:0:0:
442,211,35605,5,8,0:0:0:0:
421,202,35793,1,0,0:0:0:0:
465,194,35886,1,8,0:0:0:0:
465,193,36074,1,8,0:0:0:0:
456,206,36168,1,0,0:0:0:0:
57,173,36261,1,0,0:0:0:0:
446,189,36355,1,8,0:0:0:0:
478,174,36543,1,0,0:0:0:0:
256,192,36730,12,0,36918,0:0:0:0:
256,192,37105,12,0,37293,0:0:0:0:
256,192,37480,12,0,37668,0:0:0:0:
256,192,37855,12,0,38043,0:0:0:0:
417,217,38230,5,8,0:0:0:0:
356,246,38418,1,0,0:0:0:0:
356,246,38605,1,0,0:0:0:0:
477,221,38793,1,8,0:0:0:0:
477,221,38886,1,8,0:0:0:0:
477,221,39074,1,8,0:0:0:0:
477,221,39168,1,8,0:0:0:0:
214,107,39355,1,8,0:0:0:0:
298,227,39543,1,0,0:0:0:0:
417,217,39730,5,8,0:0:0:0:
356,246,39918,1,0,0:0:0:0:
356,246,40105,1,0,0:0:0:0:
477,221,40293,1,8,0:0:0:0:
477,221,40386,1,8,0:0:0:0:
477,221,40574,1,8,0:0:0:0:
477,221,40668,1,8,0:0:0:0:
214,107,40855,1,8,0:0:0:0:
240,116,40949,1,8,0:0:0:0:
214,107,41043,1,0,0:0:0:0:
417,217,41230,5,8,0:0:0:0:
356,246,41418,1,0,0:0:0:0:
356,246,41605,1,0,0:0:0:0:
477,221,41793,1,8,0:0:0:0:
477,221,41886,1,8,0:0:0:0:
350,103,41980,1,0,0:0:0:0:
477,221,42074,1,8,0:0:0:0:
477,221,42168,1,8,0:0:0:0:
214,107,42355,1,8,0:0:0:0:
240,116,42449,1,8,0:0:0:0:
298,227,42543,1,0,0:0:0:0:
417,217,42730,5,8,0:0:0:0:
337,112,42918,1,0,0:0:0:0:
178,198,43105,1,0,0:0:0:0:
184,196,43199,1,0,0:0:0:0:
335,190,43293,1,8,0:0:0:0:
444,149,43480,1,0,0:0:0:0:
198,187,43668,1,8,0:0:0:0:
143,235,43761,1,0,0:0:0:0:
147,231,43855,1,0,0:0:0:0:
149,230,44043,1,0,0:0:0:0:
467,218,44230,1,8,0:0:0:0:
337,112,44418,1,0,0:0:0:0:
178,198,44605,1,0,0:0:0:0:
184,196,44699,1,0,0:0:0:0:
335,190,44793,1,8,0:0:0:0:
444,149,44980,1,0,0:0:0:0:
198,187,45168,1,8,0:0:0:0:
143,235,45261,1,0,0:0:0:0:
147,231,45355,1,0,0:0:0:0:
147,231,45449,1,0,0:0:0:0:
149,230,45543,1,0,0:0:0:0:
467,218,45730,1,8,0:0:0:0:
337,112,45918,1,0,0:0:0:0:
178,198,46105,1,0,0:0:0:0:
184,196,46199,1,0,0:0:0:0:
335,190,46293,1,8,0:0:0:0:
444,149,46480,1,0,0:0:0:0:
198,187,46668,1,8,0:0:0:0:
143,235,46761,1,0,0:0:0:0:
147,231,46855,1,0,0:0:0:0:
147,231,46949,1,0,0:0:0:0:
149,230,47043,1,0,0:0:0:0:
91,165,47136,1,0,0:0:0:0:
467,218,47230,1,8,0:0:0:0:
330,178,47418,1,0,0:0:0:0:
330,178,47605,1,0,0:0:0:0:
334,173,47699,1,0,0:0:0:0:
255,213,47793,1,0,0:0:0:0:
393,204,47980,1,8,0:0:0:0:
393,204,48074,1,0,0:0:0:0:
404,203,48168,1,0,0:0:0:0:
406,206,48355,1,0,0:0:0:0:
148,239,48449,1,0,0:0:0:0:
446,197,48543,1,0,0:0:0:0:
367,200,48730,1,8,0:0:0:0:
97,199,48824,1,0,0:0:0:0:
96,192,48918,1,0,0:0:0:0:
367,200,49105,1,8,0:0:0:0:
97,199,49199,1,0,0:0:0:0:
96,192,49293,1,0,0:0:0:0:
367,200,49480,1,8,0:0:0:0:
97,199,49574,1,0,0:0:0:0:
96,192,49668,1,0,0:0:0:0:
448,171,49761,1,8,0:0:0:0:
307,154,49855,1,0,0:0:0:0:
309,188,49949,1,8,0:0:0:0:
235,190,50043,1,0,0:0:0:0:
284,208,50136,1,0,0:0:0:0:
246,210,50230,1,8,0:0:0:0:
232,176,50418,5,0,0:0:0:0:
328,184,50793,1,8,0:0:0:0:
328,184,51168,1,8,0:0:0:0:
328,180,52293,1,8,0:0:0:0:
412,180,52480,1,0,0:0:0:0:
412,180,52668,1,0,0:0:0:0:
400,172,53418,1,0,0:0:0:0:
212,284,53793,1,8,0:0:0:0:
232,248,54168,1,8,0:0:0:0:
380,220,54355,1,0,0:0:0:0:
380,220,54543,1,0,0:0:0:0:
296,168,54918,1,8,0:0:0:0:
296,168,55105,1,8,0:0:0:0:
504,188,55293,1,0,0:0:0:0:
43,89,55668,2,0,L|89:72,1,41.9999987182618
280,168,56418,1,4,0:0:0:0:
284,180,56793,1,0,0:0:0:0:
332,208,57168,1,0,0:0:0:0:
136,172,57355,1,8,0:0:0:0:
136,172,57543,1,8,0:0:0:0:
272,200,57730,1,0,0:0:0:0:
272,200,57918,1,0,0:0:0:0:
112,248,59043,1,8,0:0:0:0:
244,204,59136,1,8,0:0:0:0:
168,156,59418,1,0,0:0:0:0:
256,104,59793,1,0,0:0:0:0:
276,176,60168,1,0,0:0:0:0:
296,224,60355,1,8,0:0:0:0:
296,224,60543,1,8,0:0:0:0:
424,248,60730,1,0,0:0:0:0:
420,252,60918,1,0,0:0:0:0:
68,131,61668,2,4,L|526:177,1,420
390,179,62793,1,0,0:0:0:0:
341,118,62918,1,0,0:0:0:0:
341,118,63043,1,0,0:0:0:0:
428,139,63168,1,0,0:0:0:0:
428,139,63261,1,0,0:0:0:0:
417,209,63355,1,8,0:0:0:0:
417,209,63449,1,8,0:0:0:0:
511,211,63543,1,0,0:0:0:0:
367,154,63636,1,0,0:0:0:0:
441,242,63730,1,8,0:0:0:0:
412,213,63918,1,0,0:0:0:0:
333,220,64105,1,8,0:0:0:0:
390,179,64293,1,0,0:0:0:0:
341,118,64418,1,0,0:0:0:0:
341,118,64543,1,0,0:0:0:0:
428,139,64668,1,0,0:0:0:0:
417,209,64761,1,8,0:0:0:0:
428,139,64855,1,0,0:0:0:0:
511,211,64949,1,0,0:0:0:0:
417,209,65043,1,8,0:0:0:0:
367,154,65136,1,0,0:0:0:0:
441,242,65230,1,8,0:0:0:0:
412,213,65418,1,0,0:0:0:0:
333,220,65605,1,8,0:0:0:0:
390,179,65793,1,0,0:0:0:0:
341,118,65918,1,0,0:0:0:0:
341,118,66043,1,0,0:0:0:0:
428,139,66168,1,0,0:0:0:0:
428,139,66261,1,0,0:0:0:0:
417,209,66355,1,8,0:0:0:0:
511,211,66449,1,0,0:0:0:0:
417,209,66543,1,8,0:0:0:0:
367,154,66636,1,8,0:0:0:0:
441,242,66730,1,8,0:0:0:0:
412,213,66918,1,0,0:0:0:0:
333,220,67105,1,8,0:0:0:0:
390,179,67293,1,0,0:0:0:0:
341,118,67418,1,0,0:0:0:0:
341,118,67543,1,0,0:0:0:0:
428,139,67668,1,0,0:0:0:0:
417,209,67761,1,8,0:0:0:0:
428,139,67855,1,0,0:0:0:0:
417,209,67949,1,8,0:0:0:0:
511,211,68043,1,0,0:0:0:0:
367,154,68136,1,0,0:0:0:0:
441,242,68230,1,8,0:0:0:0:
412,213,68418,1,0,0:0:0:0:
333,220,68605,1,8,0:0:0:0:
394,166,68793,1,0,0:0:0:0:
401,166,68886,1,0,0:0:0:0:
490,236,68980,1,8,0:0:0:0:
400,183,69168,1,8,0:0:0:0:
400,183,69261,1,8,0:0:0:0:
431,209,69355,1,0,0:0:0:0:
431,209,69543,1,0,0:0:0:0:
154,194,69730,1,8,0:0:0:0:
273,208,69918,1,0,0:0:0:0:
273,208,70105,1,0,0:0:0:0:
187,225,70293,1,8,0:0:0:0:
187,225,70386,1,8,0:0:0:0:
433,166,70480,1,0,0:0:0:0:
433,166,70668,1,0,0:0:0:0:
122,223,70855,1,8,0:0:0:0:
236,215,70949,1,8,0:0:0:0:
145,219,71043,1,0,0:0:0:0:
410,189,71230,1,8,0:0:0:0:
290,254,71418,1,0,0:0:0:0:
290,254,71511,1,0,0:0:0:0:
452,225,71605,1,8,0:0:0:0:
236,238,71699,1,0,0:0:0:0:
251,232,71793,1,0,0:0:0:0:
386,252,71886,1,8,0:0:0:0:
386,252,71980,1,8,0:0:0:0:
236,238,72168,1,0,0:0:0:0:
251,232,72262,1,0,0:0:0:0:
386,252,72355,1,8,0:0:0:0:
386,252,72449,1,8,0:0:0:0:
236,238,72543,1,0,0:0:0:0:
251,232,72637,1,0,0:0:0:0:
386,252,72730,1,8,0:0:0:0:
208,118,72918,1,0,0:0:0:0:
234,117,73011,1,0,0:0:0:0:
402,215,73105,1,8,0:0:0:0:
402,215,73199,1,8,0:0:0:0:
312,198,73293,1,0,0:0:0:0:
318,195,73386,1,0,0:0:0:0:
414,215,73480,1,8,0:0:0:0:
448,247,73574,1,0,0:0:0:0:
388,156,73668,1,0,0:0:0:0:
349,246,73761,1,8,0:0:0:0:
429,183,73855,1,0,0:0:0:0:
414,196,73949,1,8,0:0:0:0:
461,183,74043,1,0,0:0:0:0:
351,158,74136,1,0,0:0:0:0:
357,189,74230,1,8,0:0:0:0:
301,253,74418,2,4,L|495:284,12,140
277,137,76855,1,0,0:0:0:0:
277,137,76949,1,0,0:0:0:0:
277,137,77043,1,0,0:0:0:0:
379,182,77136,1,8,0:0:0:0:
427,178,77230,1,0,0:0:0:0:
471,197,77418,1,4,0:0:0:0:
448,176,77605,1,8,0:0:0:0:
448,176,77793,1,8,0:0:0:0:
208,168,77886,1,0,0:0:0:0:
248,208,77980,1,8,0:0:0:0:
384,180,78168,1,8,0:0:0:0:
384,180,78261,1,8,0:0:0:0:
416,212,78449,1,0,0:0:0:0:
508,192,78543,1,8,0:0:0:0:
224,216,78730,1,0,0:0:0:0:
240,188,78918,1,0,0:0:0:0:
129,243,79105,1,8,0:0:0:0:
129,243,79199,1,8,0:0:0:0:
129,243,79293,1,8,0:0:0:0:
129,243,79386,1,8,0:0:0:0:
129,243,79480,1,8,0:0:0:0:
129,243,79574,1,8,0:0:0:0:
129,243,79668,1,8,0:0:0:0:
61,175,79761,1,0,0:0:0:0:
212,138,79855,1,0,0:0:0:0:
215,99,79949,1,0,0:0:0:0:
475,190,80042,1,8,0:0:0:0:
299,207,80230,1,0,0:0:0:0:
221,152,80418,1,0,0:0:0:0:
176,199,80605,1,0,0:0:0:0:
246,242,80699,1,0,0:0:0:0:
347,243,80793,1,8,0:0:0:0:
343,206,80980,1,0,0:0:0:0:
343,206,81074,1,0,0:0:0:0:
343,206,81168,1,0,0:0:0:0:
313,216,81261,1,8,0:0:0:0:
385,181,81355,1,0,0:0:0:0:
385,181,81449,1,0,0:0:0:0:
475,209,81543,1,8,0:0:0:0:
142,183,81730,1,0,0:0:0:0:
168,175,81824,1,0,0:0:0:0:
158,151,81918,1,0,0:0:0:0:
176,199,82105,1,0,0:0:0:0:
246,242,82199,1,0,0:0:0:0:
347,243,82293,1,8,0:0:0:0:
313,216,82480,1,8,0:0:0:0:
343,206,82573,1,0,0:0:0:0:
343,206,82667,1,0,0:0:0:0:
229,173,82855,1,0,0:0:0:0:
232,179,82949,1,0,0:0:0:0:
232,179,83043,1,0,0:0:0:0:
337,191,83136,1,8,0:0:0:0:
410,200,83230,1,0,0:0:0:0:
471,197,83418,1,4,0:0:0:0:
448,176,83605,1,8,0:0:0:0:
448,176,83793,1,8,0:0:0:0:
208,168,83886,1,0,0:0:0:0:
248,208,83980,1,8,0:0:0:0:
384,180,84168,1,8,0:0:0:0:
384,180,84261,1,8,0:0:0:0:
416,212,84449,1,0,0:0:0:0:
508,192,84543,1,8,0:0:0:0:
224,216,84730,1,0,0:0:0:0:
240,188,84918,1,0,0:0:0:0:
129,243,85105,1,8,0:0:0:0:
129,243,85199,1,8,0:0:0:0:
129,243,85293,1,8,0:0:0:0:
129,243,85386,1,8,0:0:0:0:
129,243,85480,1,8,0:0:0:0:
129,243,85574,1,8,0:0:0:0:
129,243,85668,1,8,0:0:0:0:
61,175,85761,1,0,0:0:0:0:
217,122,85855,1,0,0:0:0:0:
215,99,85949,1,0,0:0:0:0:
475,190,86042,1,8,0:0:0:0:
299,207,86230,1,0,0:0:0:0:
221,152,86418,1,0,0:0:0:0:
336,182,86511,1,8,0:0:0:0:
204,92,86605,1,8,0:0:0:0:
221,152,86699,1,0,0:0:0:0:
336,182,86792,1,8,0:0:0:0:
204,92,86886,1,8,0:0:0:0:
221,152,86980,1,0,0:0:0:0:
336,182,87073,1,8,0:0:0:0:
204,92,87167,1,8,0:0:0:0:
221,152,87261,1,0,0:0:0:0:
204,92,87354,1,0,0:0:0:0:
336,182,87448,1,0,0:0:0:0:
189,152,87543,1,0,0:0:0:0:
256,192,87730,12,0,87918,0:0:0:0:
256,192,88105,12,0,88293,0:0:0:0:
256,192,88480,12,0,88668,0:0:0:0:
164,187,88855,5,12,0:0:0:0:
164,187,89043,1,12,0:0:0:0:
428,216,89418,1,8,0:0:0:0:
290,173,89511,1,0,0:0:0:0:
428,216,89605,1,8,0:0:0:0:
290,173,89698,1,0,0:0:0:0:
428,216,89793,1,8,0:0:0:0:
290,173,89886,1,0,0:0:0:0:
428,216,89980,1,8,0:0:0:0:
290,173,90073,1,0,0:0:0:0:
388,234,90168,1,8,0:0:0:0:
338,166,90261,1,8,0:0:0:0:
441,185,90355,1,0,0:0:0:0:
449,192,90449,1,8,0:0:0:0:
411,144,90543,1,8,0:0:0:0:
341,202,90636,1,0,0:0:0:0:
345,198,90730,1,0,0:0:0:0:
351,176,90918,1,0,0:0:0:0:
324,192,91105,1,0,0:0:0:0:
268,156,91199,1,8,0:0:0:0:
324,192,91293,1,0,0:0:0:0:
268,156,91387,1,8,0:0:0:0:
324,192,91480,1,0,0:0:0:0:
268,156,91574,1,8,0:0:0:0:
324,192,91668,1,0,0:0:0:0:
268,156,91762,1,8,0:0:0:0:
444,197,91855,1,8,0:0:0:0:
444,197,91949,1,8,0:0:0:0:
408,215,92043,1,0,0:0:0:0:
220,205,92136,1,8,0:0:0:0:
181,230,92230,1,0,0:0:0:0:
337,129,92418,1,0,0:0:0:0:
299,210,92605,1,0,0:0:0:0:
299,210,92699,1,0,0:0:0:0:
299,210,92793,1,0,0:0:0:0:
299,210,92886,1,0,0:0:0:0:
292,202,92980,1,0,0:0:0:0:
292,201,93074,1,0,0:0:0:0:
292,201,93168,1,0,0:0:0:0:
412,182,93261,1,8,0:0:0:0:
435,173,93355,1,0,0:0:0:0:
433,172,93449,1,0,0:0:0:0:
235,201,93543,1,8,0:0:0:0:
332,209,93636,1,0,0:0:0:0:
300,120,93730,1,0,0:0:0:0:
442,187,93824,1,8,0:0:0:0:
433,218,93918,1,0,0:0:0:0:
330,176,94105,1,8,0:0:0:0:
462,163,94293,1,0,0:0:0:0:
462,163,94386,1,0,0:0:0:0:
446,154,94480,1,8,0:0:0:0:
447,160,94668,1,0,0:0:0:0:
464,195,94855,1,8,0:0:0:0:
355,179,94949,1,0,0:0:0:0:
355,184,95136,1,0,0:0:0:0:
395,200,95230,1,8,0:0:0:0:
303,206,95418,1,0,0:0:0:0:
303,206,95511,1,0,0:0:0:0:
332,203,95605,1,8,0:0:0:0:
252,135,95699,1,8,0:0:0:0:
303,206,95793,1,0,0:0:0:0:
303,206,95886,1,0,0:0:0:0:
332,203,95980,1,8,0:0:0:0:
252,135,96074,1,8,0:0:0:0:
212,148,96168,1,0,0:0:0:0:
212,148,96261,1,0,0:0:0:0:
212,148,96355,1,0,0:0:0:0:
471,230,96449,1,8,0:0:0:0:
471,230,96543,1,8,0:0:0:0:
471,230,96636,1,8,0:0:0:0:
27,204,96730,1,0,0:0:0:0:
222,101,96918,1,0,0:0:0:0:
324,192,97105,1,0,0:0:0:0:
268,156,97199,1,8,0:0:0:0:
324,192,97293,1,0,0:0:0:0:
268,156,97387,1,8,0:0:0:0:
324,192,97480,1,0,0:0:0:0:
268,156,97574,1,8,0:0:0:0:
324,192,97668,1,0,0:0:0:0:
268,156,97762,1,8,0:0:0:0:
444,197,97855,1,8,0:0:0:0:
444,197,97949,1,8,0:0:0:0:
408,215,98043,1,0,0:0:0:0:
220,205,98136,1,8,0:0:0:0:
181,230,98230,1,0,0:0:0:0:
337,129,98418,1,0,0:0:0:0:
299,210,98605,1,0,0:0:0:0:
299,210,98699,1,0,0:0:0:0:
299,210,98793,1,0,0:0:0:0:
299,210,98886,1,0,0:0:0:0:
292,202,98980,1,0,0:0:0:0:
292,201,99074,1,0,0:0:0:0:
292,201,99168,1,0,0:0:0:0:
412,182,99261,1,8,0:0:0:0:
435,173,99355,1,0,0:0:0:0:
433,172,99449,1,0,0:0:0:0:
235,201,99543,1,8,0:0:0:0:
332,209,99636,1,0,0:0:0:0:
300,120,99730,1,0,0:0:0:0:
442,187,99824,1,8,0:0:0:0:
433,218,99918,1,0,0:0:0:0:
330,176,100105,1,8,0:0:0:0:
462,163,100293,1,0,0:0:0:0:
462,163,100386,1,0,0:0:0:0:
446,154,100480,1,8,0:0:0:0:
447,160,100668,1,0,0:0:0:0:
464,195,100855,1,8,0:0:0:0:
355,179,100949,1,0,0:0:0:0:
355,184,101136,1,0,0:0:0:0:
395,200,101230,1,8,0:0:0:0:
217,202,101418,1,4,0:0:0:0:
