osu file format v14

[General]
AudioFilename: audio.mp3
AudioLeadIn: 0
PreviewTime: 50480
Countdown: 1
SampleSet: Drum
StackLeniency: 0.7
Mode: 0
LetterboxInBreaks: 0
WidescreenStoryboard: 1

[Editor]
Bookmarks: 21080,98480,213680
DistanceSpacing: 1
BeatDivisor: 4
GridSize: 4
TimelineZoom: 1

[Metadata]
Title:Money
TitleUnicode:Money
Artist:Mystery Skulls
ArtistUnicode:Mystery Skulls
Creator:wolfysoulwolf
Version:Easy
Source:
Tags:
BeatmapID:1945866
BeatmapSetID:931940

[Difficulty]
HPDrainRate:5
CircleSize:3.3
OverallDifficulty:4
ApproachRate:4
SliderMultiplier:1.1
SliderTickRate:1

[Events]
//Background and Video events
Video,0,"The Turntable Turnabout (Mystery Skulls - Money).avi"
0,0,"big_1487888726_image.jpg",0,0
//Break Periods
2,41080,44960
2,93880,95960
2,117880,125960
2,194680,195560
//Storyboard Layer 0 (Background)
//Storyboard Layer 1 (Fail)
//Storyboard Layer 2 (Pass)
//Storyboard Layer 3 (Foreground)
//Storyboard Layer 4 (Overlay)
//Storyboard Sound Samples

[TimingPoints]
2480,600,4,3,0,100,1,0
50480,-100,4,3,0,100,0,1
59480,-66.6666666666667,4,3,0,100,0,1
60080,-100,4,3,0,100,0,1
69680,-100,4,3,0,100,0,0
98480,-100,4,3,0,100,0,1
107480,-66.6666666666667,4,3,0,100,0,1
108080,-100,4,3,0,100,0,1
117680,-100,4,3,0,100,0,0
175280,-100,4,3,0,100,0,1
184280,-66.6666666666667,4,3,0,100,0,1
184880,-100,4,3,0,100,0,1
194480,-100,4,3,0,100,0,0
213080,-100,4,3,0,40,0,0
214280,-100,4,3,0,40,0,0

[Colours]
Combo1 : 0,95,255
Combo2 : 99,106,87
Combo3 : 7,88,148
Combo4 : 174,17,17

[HitObjects]
50,147,2480,6,0,B|122:64,1,110
215,69,3680,2,0,P|276:79|322:64,1,110
408,41,4880,2,0,L|456:151,1,110
394,217,6080,2,0,P|379:246|400:318,1,110
295,334,7280,6,0,P|251:317|185:347,1,110
85,319,8480,2,0,L|22:294,2,55
91,215,9680,2,0,P|110:180|82:115,1,110
47,36,10880,2,0,L|-11:21,2,55
146,48,12080,6,0,B|194:80|194:80|260:78,1,110,0|8,0:0|0:0,0:0:0:0:
324,125,13280,1,0,0:0:0:0:
394,54,13880,1,8,0:0:0:0:
453,134,14480,6,0,L|478:249,1,110,0|8,0:0|0:0,0:0:0:0:
405,304,15680,1,0,0:0:0:0:
308,279,16280,1,8,0:0:0:0:
215,317,16880,6,0,P|144:339|112:321,1,110,0|8,0:0|0:0,0:0:0:0:
76,242,18080,1,0,0:0:0:0:
140,165,18680,1,8,0:0:0:0:
99,73,19280,2,0,P|144:42|206:51,1,110,0|8,0:0|0:0,0:0:0:0:
270,99,20480,1,0,0:0:0:0:
353,43,21080,1,4,0:0:0:0:
439,92,21680,5,0,0:0:0:0:
429,191,22280,2,0,B|468:292|468:292|407:279|372:331,1,220,8|8,0:0|0:0,0:0:0:0:
289,311,24080,2,0,P|247:294|184:329,1,110,0|8,0:0|0:0,0:0:0:0:
107,280,25280,2,0,L|53:311,2,55,0|0|8,0:0|0:0|0:0,0:0:0:0:
146,188,26480,5,0,0:0:0:0:
54,126,27080,2,0,P|98:86|152:74,2,110,8|0|8,0:0|0:0|0:0,0:0:0:0:
150,178,28880,2,0,P|106:218|52:230,2,110,0|8|0,0:0|0:0|0:0,0:0:0:0:
224,96,30680,1,8,0:0:0:0:
318,152,31280,5,4,0:0:0:0:
406,86,31880,2,0,B|479:116|479:116|479:164,1,110,8|0,0:0|0:0,0:0:0:0:
409,232,33080,1,8,0:0:0:0:
324,302,33680,2,0,P|244:327|205:326,1,110,0|8,0:0|0:0,0:0:0:0:
129,262,34880,2,0,P|209:237|248:238,1,110,0|8,0:0|0:0,0:0:0:0:
264,131,36080,5,4,0:0:0:0:
339,51,36680,2,0,P|409:54|471:195,1,220,8|8,0:0|0:0,0:0:0:0:
439,277,38480,2,0,P|409:270|330:320,1,110,0|8,0:0|0:0,0:0:0:0:
249,242,39680,1,0,0:0:0:0:
172,321,40280,1,8,0:0:0:0:
84,255,40880,5,4,0:0:0:0:
279,59,46280,6,0,P|328:44|395:74,1,110,8|0,0:0|0:0,0:0:0:0:
459,140,47480,1,8,0:0:0:0:
431,246,48080,2,0,B|415:303|415:303|358:327,1,110,0|8,0:0|0:0,0:0:0:0:
267,279,49280,1,0,0:0:0:0:
163,316,49880,2,0,L|96:290,1,55
71,258,50480,6,0,P|55:181|72:137,1,110,0|8,0:0|0:0,0:0:0:0:
138,72,51680,2,0,P|188:86|254:55,1,110,0|8,0:0|0:0,0:0:0:0:
349,45,52880,2,0,L|455:81,1,110,0|8,0:0|0:0,0:0:0:0:
469,189,54080,2,0,L|510:241,2,55,0|0|8,0:0|0:0|0:0,0:0:0:0:
394,269,55280,5,0,0:0:0:0:
291,309,55880,2,0,L|173:329,2,110,8|0|8,0:0|0:0|0:0,0:0:0:0:
233,215,57680,1,4,0:0:0:0:
310,137,58280,1,4,0:0:0:0:
203,111,58880,2,0,L|185:63,2,27.5,8|0|8,0:0|0:0|0:0,0:0:0:0:
131,190,59480,2,0,P|169:227|300:206,1,165.000006294251,2|0,0:0|0:0,0:0:0:0:
308,121,60680,6,0,L|412:40,1,110,8|0,0:0|0:0,0:0:0:0:
422,159,61880,2,0,L|318:240,1,110,8|0,0:0|0:0,0:0:0:0:
266,312,63080,1,8,0:0:0:0:
161,345,63680,2,0,P|101:325|82:263,1,110,0|8,0:0|0:0,0:0:0:0:
116,181,64880,5,4,0:0:0:0:
154,78,65480,2,0,P|225:61|378:79,1,220,8|8,0:0|0:0,0:0:0:0:
452,148,67280,2,0,P|434:184|469:258,1,110,0|8,0:0|0:0,0:0:0:0:
376,325,68480,2,0,L|308:350,2,55,8|0|8,0:0|0:0|0:0,0:0:0:0:
297,247,69680,6,0,P|256:257|226:327,1,110,4|2,0:0|0:0,0:0:0:0:
180,345,70580,1,8,0:0:0:0:
127,329,70880,2,0,L|62:237,1,110,2|2,0:0|0:0,0:0:0:0:
91,191,71780,1,0,0:0:0:0:
136,161,72080,2,0,B|107:105|107:105|60:81,1,110,2|2,0:0|0:0,0:0:0:0:
167,43,73280,2,0,P|218:52|276:38,1,110,0|8,0:0|0:0,0:0:0:0:
380,65,74480,5,4,0:0:0:0:
479,111,75080,2,0,L|506:173,1,55,8|0,0:0|0:0,0:0:0:0:
479,213,75680,2,0,P|407:247|399:286,1,110,0|8,0:0|0:0,0:0:0:0:
300,314,76880,2,0,P|192:350|177:347,1,110,0|8,0:0|0:0,0:0:0:0:
99,306,78080,1,0,0:0:0:0:
178,229,78680,1,8,0:0:0:0:
74,191,79280,6,8,P|55:142|111:97,1,110
186,51,80480,1,0,0:0:0:0:
276,114,81080,1,8,0:0:0:0:
369,56,81680,2,0,L|430:60,1,55
468,91,82280,2,0,P|481:123|434:182,3,110,8|0|8|0,0:0|0:0|0:0|0:0,0:0:0:0:
394,279,84680,5,8,0:0:0:0:
291,318,85280,2,0,B|238:341|238:341|179:313,1,110,0|8,0:0|0:0,0:0:0:0:
81,334,86480,2,0,L|105:268,1,55
60,243,87080,2,0,L|81:174,1,55,8|0,0:0|0:0,0:0:0:0:
63,136,87680,2,0,B|117:124|85:54|159:63,1,110,0|8,0:0|0:0,0:0:0:0:
246,50,88880,5,4,0:0:0:0:
353,72,89480,2,0,P|384:175|488:216,1,220,8|8,0:0|0:0,0:0:0:0:
427,312,91280,2,0,L|299:341,1,110,0|8,0:0|0:0,0:0:0:0:
241,258,92480,1,0,0:0:0:0:
160,332,93080,1,8,0:0:0:0:
74,262,93680,5,4,0:0:0:0:
309,55,97280,6,0,P|362:92|409:79,1,110,0|8,0:0|0:0,0:0:0:0:
445,118,98180,2,0,L|482:171,1,55,0|4,0:0|0:0,0:0:0:0:
472,273,99080,2,0,P|434:310|370:315,1,110,8|0,0:0|0:0,0:0:0:0:
290,252,100280,1,8,0:0:0:0:
208,326,100880,2,0,L|95:293,1,110,0|8,0:0|0:0,0:0:0:0:
41,203,102080,2,0,P|35:160|71:107,2,110,8|4|8,0:0|0:0|0:0,0:0:0:0:
145,169,103880,5,8,0:0:0:0:
245,123,104480,2,8,P|258:185|225:247,1,110
305,317,105680,1,8,0:0:0:0:
366,225,106280,1,8,0:0:0:0:
452,292,106880,2,0,L|483:332,2,27.5,4|4|4,0:0|0:0|0:0,0:0:0:0:
466,210,107480,2,0,L|493:44,1,165.000006294251,2|0,0:0|0:0,0:0:0:0:
391,91,108680,5,8,0:0:0:0:
285,59,109280,2,0,L|224:107,1,55
215,141,109880,2,0,P|237:189|221:268,1,110,8|0,0:0|0:0,0:0:0:0:
127,212,111080,1,8,0:0:0:0:
40,280,111680,2,0,P|57:314|102:320,2,82.5
55,227,112880,5,4,0:0:0:0:
74,118,113480,2,0,P|123:62|167:49,1,110,8|0,0:0|0:0,0:0:0:0:
246,112,114680,1,8,0:0:0:0:
440,215,115880,2,0,L|460:280,1,55
429,315,116480,2,0,B|321:342|321:342|195:317,1,220,0|6,0:0|0:0,0:0:0:0:
280,75,127280,6,0,P|343:64|394:78,1,110,0|8,0:0|0:0,0:0:0:0:
462,154,128480,1,0,0:0:0:0:
376,223,129080,1,8,0:0:0:0:
299,301,129680,6,0,P|246:320|177:299,1,110
232,208,130880,2,0,L|191:99,1,110,0|8,0:0|0:0,0:0:0:0:
96,52,132080,5,0,0:0:0:0:
31,140,132680,1,8,0:0:0:0:
115,210,133280,2,0,B|114:254|172:244|174:309,1,110,0|8,0:0|0:0,0:0:0:0:
281,319,134480,2,8,B|368:341|368:341|397:325,3,110
456,246,136880,5,0,0:0:0:0:
362,188,137480,1,8,0:0:0:0:
362,78,138080,2,0,L|438:38,2,82.5,0|8|0,0:0|0:0|0:0,0:0:0:0:
308,90,139280,2,0,P|209:110|83:77,1,220,0|8,0:0|0:0,0:0:0:0:
33,175,141080,1,0,0:0:0:0:
134,216,141680,5,4,0:0:0:0:
82,313,142280,1,0,0:0:0:0:
191,325,142880,2,0,L|275:335,2,82.5,0|0|8,0:0|0:0|0:0,0:0:0:0:
182,270,144080,2,0,P|261:176|262:82,1,220,0|8,0:0|0:0,0:0:0:0:
158,47,145880,1,0,0:0:0:0:
264,17,146480,6,0,L|378:43,1,110,8|0,0:0|0:0,0:0:0:0:
458,108,147680,2,0,B|481:70|481:70|468:12,2,82.5,8|0|0,0:0|0:0|0:0,0:0:0:0:
456,162,148880,2,0,L|486:275,1,110,8|0,0:0|0:0,0:0:0:0:
385,317,150080,2,0,P|309:328|262:302,1,110,8|0,0:0|0:0,0:0:0:0:
239,278,150980,1,0,0:0:0:0:
187,297,151280,6,0,P|143:316|71:309,1,110,2|0,0:0|0:0,0:0:0:0:
51,266,152180,1,8,0:0:0:0:
81,219,152480,2,0,B|98:148|98:148|80:123,2,82.5,2|0|2,0:0|0:0|0:0,0:0:0:0:
114,263,153680,5,4,0:0:0:0:
200,331,154280,1,8,0:0:0:0:
285,262,154880,2,0,P|331:245|462:340,1,220,2|4,0:0|0:0,0:0:0:0:
475,112,157280,2,8,B|454:58|454:58|416:40,2,82.5
427,139,158480,2,0,L|340:238,1,110,0|8,0:0|0:0,0:0:0:0:
256,172,159680,1,0,0:0:0:0:
171,242,160280,5,8,0:0:0:0:
77,183,160880,1,4,0:0:0:0:
254,53,162080,2,8,L|359:54,2,82.5
256,107,163280,2,0,B|256:169|256:169|305:210,1,110,0|8,0:0|0:0,0:0:0:0:
385,140,164480,1,0,0:0:0:0:
432,239,165080,1,8,0:0:0:0:
347,309,165680,6,0,P|298:333|229:332,1,110,4|0,0:0|0:0,0:0:0:0:
152,273,166880,2,0,P|103:249|34:250,1,110,8|0,0:0|0:0,0:0:0:0:
51,136,168080,2,0,P|81:82|239:62,1,220,8|8,0:0|0:0,0:0:0:0:
310,124,169880,1,0,0:0:0:0:
403,66,170480,5,8,0:0:0:0:
466,155,171080,1,8,0:0:0:0:
385,229,171680,2,0,B|367:303|367:303|320:329,1,110,0|8,0:0|0:0,0:0:0:0:
230,292,172880,2,0,B|168:254|104:370|16:274,1,220,0|8,0:0|0:0,0:0:0:0:
38,173,174680,2,0,L|75:111,1,55,2|0,0:0|0:0,0:0:0:0:
113,97,175280,6,0,P|145:107|208:55,1,110,8|8,0:0|0:0,0:0:0:0:
301,119,176480,1,0,0:0:0:0:
395,61,177080,1,8,0:0:0:0:
462,150,177680,2,0,L|485:258,3,110,0|8|0|8,0:0|0:0|0:0|0:0,0:0:0:0:
401,329,180080,5,0,0:0:0:0:
296,294,180680,2,0,L|236:326,1,55,8|0,0:0|0:0,0:0:0:0:
196,298,181280,2,0,L|134:327,1,55
91,317,181880,2,0,P|63:282|88:211,1,110,8|0,0:0|0:0,0:0:0:0:
172,169,183080,1,8,0:0:0:0:
110,79,183680,1,4,0:0:0:0:
271,46,184280,2,0,L|460:43,1,165.000006294251,2|0,0:0|0:0,0:0:0:0:
465,149,185480,6,0,B|504:195|504:195|495:254,1,110,8|0,0:0|0:0,0:0:0:0:
408,310,186680,1,8,0:0:0:0:
298,322,187280,2,8,P|246:304|189:333,1,110
90,295,188480,2,0,B|58:196|58:196|58:66,1,220,0|8,0:0|0:0,0:0:0:0:
275,45,190880,5,0,0:0:0:0:
376,87,191480,2,0,P|413:46|476:47,1,110,8|0,0:0|0:0,0:0:0:0:
460,152,192680,1,8,0:0:0:0:
463,261,193280,2,8,L|518:290,4,55,8|8|8|8|12,0:0|0:0|0:0|0:0|0:0,0:0:0:0:
27,321,196880,6,0,P|12:213|40:101,1,220,0|8,0:0|0:0,0:0:0:0:
142,138,198680,1,8,0:0:0:0:
225,66,199280,5,8,0:0:0:0:
307,138,199880,1,8,0:0:0:0:
396,73,200480,2,0,P|448:123|474:270,1,220
366,279,202280,1,8,0:0:0:0:
264,322,202880,2,0,L|149:277,3,110,0|8|0|8,0:0|0:0|0:0|0:0,0:0:0:0:
119,66,205880,6,0,P|162:48|243:67,1,110,8|0,0:0|0:0,0:0:0:0:
294,139,207080,1,8,0:0:0:0:
379,69,207680,1,0,0:0:0:0:
457,146,208280,1,8,0:0:0:0:
427,251,208880,6,0,B|406:340|406:340|345:313|275:348,1,220
256,192,211280,12,0,214280,0:0:0:0:
