osu file format v14

[General]
AudioFilename: audio.mp3
AudioLeadIn: 0
PreviewTime:175816
Countdown: 0
SampleSet: Soft
StackLeniency: 0.6
Mode: 0
LetterboxInBreaks: 0
WidescreenStoryboard: 1

[Editor]
Bookmarks: 45759,56857,67955,79053,90152,112348,123446,134545,145643,156741,178938,190036,201134
DistanceSpacing: 0.3
BeatDivisor: 4
GridSize: 4
TimelineZoom: 2.4

[Metadata]
Title:Hesperos
TitleUnicode:❂Hesperos❂
Artist:Mysteka
ArtistUnicode:Mysteka
Creator:Acylica
Version:Mayu's Insane
Source:
Tags:owc2021ro16nm4 electronic instrumental shikibe mayu kazato asa shizuku- zhuxiaoyan frostwich acyl dailycare morinaga synderes down
BeatmapID:3499229
BeatmapSetID:1610294

[Difficulty]
HPDrainRate:5
CircleSize:3.8
OverallDifficulty:8
ApproachRate:9.2
SliderMultiplier:1.8
SliderTickRate:1

[Events]
//Background and Video events
0,0,"owcbg.jpg",0,0
//Break Periods
//Storyboard Layer 0 (Background)
//Storyboard Layer 1 (Fail)
//Storyboard Layer 2 (Pass)
//Storyboard Layer 3 (Foreground)
//Storyboard Layer 4 (Overlay)
//Storyboard Sound Samples

[TimingPoints]
1366,346.820809248555,4,2,1,60,1,0
45759,-66.6666666666667,4,2,1,60,0,0
47319,-100,4,2,1,60,0,0
47666,-66.6666666666667,4,2,1,60,0,0
48533,-57.1428571428571,4,2,1,60,0,0
48880,-66.6666666666667,4,2,1,60,0,0
49574,-333.333333333333,4,2,1,60,0,0
49920,-66.6666666666667,4,2,1,60,0,0
50961,-66.6666666666667,4,2,2,60,0,0
51308,-50,4,2,1,60,0,0
51655,-66.6666666666667,4,2,1,60,0,0
53735,-100,4,2,1,60,0,0
54082,-50,4,2,1,60,0,0
54429,-66.6666666666667,4,2,1,60,0,0
55123,-333.333333333333,4,2,1,60,0,0
55470,-66.6666666666667,4,2,1,60,0,0
56510,-100,4,2,1,60,0,0
56857,-83.3333333333333,4,2,1,60,0,0
65527,-100,4,2,1,60,0,0
66568,-58.8235294117647,4,2,1,60,0,0
67955,-83.3333333333333,4,2,1,60,0,0
68302,-71.4285714285714,4,2,12,60,0,0
68649,-71.4285714285714,4,2,1,60,0,0
69342,-100,4,2,1,60,0,0
70036,-66.6666666666667,4,2,11,60,0,0
70383,-66.6666666666667,4,2,13,60,0,0
70556,-66.6666666666667,4,2,1,60,0,0
70730,-58.8235294117647,4,2,12,60,0,0
71423,-58.8235294117647,4,2,1,60,0,0
72117,-100,4,2,1,60,0,0
72811,-100,4,2,11,60,0,0
72984,-66.6666666666667,4,2,11,60,0,0
73504,-100,4,2,12,60,0,0
73851,-58.8235294117647,4,2,12,60,0,0
74198,-58.8235294117647,4,2,1,60,0,0
74545,-76.9230769230769,4,2,1,60,0,0
75585,-50,4,2,13,60,0,0
75932,-66.6666666666667,4,2,1,60,0,0
76279,-100,4,2,14,60,0,0
76626,-50,4,2,14,60,0,0
76972,-50,4,2,1,60,0,0
77666,-50,4,2,14,60,0,0
78013,-58.8235294117647,4,2,1,60,0,0
78186,-58.8235294117647,4,2,13,60,0,0
78273,-58.8235294117647,4,2,1,60,0,0
78707,-58.8235294117647,4,2,13,60,0,0
78793,-58.8235294117647,4,2,1,60,0,0
79053,-58.8235294117647,4,2,12,60,0,0
79400,-58.8235294117647,4,2,1,60,0,0
79574,-58.8235294117647,4,2,11,60,0,0
79920,-58.8235294117647,4,2,1,60,0,0
80094,-58.8235294117647,4,2,13,60,0,0
80441,-58.8235294117647,4,2,1,60,0,0
80614,-100,4,2,12,60,0,0
80787,-100,4,2,1,60,0,0
81134,-100,4,2,12,60,0,0
81481,-100,4,2,11,60,0,0
81828,-66.6666666666667,4,2,12,60,0,0
82175,-66.6666666666667,4,2,1,60,0,0
82348,-66.6666666666667,4,2,11,60,0,0
82695,-66.6666666666667,4,2,1,60,0,0
82868,-66.6666666666667,4,2,15,60,0,0
83215,-66.6666666666667,4,2,1,60,0,0
83389,-66.6666666666667,4,2,14,60,0,0
83562,-66.6666666666667,4,2,1,60,0,0
83909,-66.6666666666667,4,2,14,60,0,0
83996,-66.6666666666667,4,2,1,60,0,0
84256,-66.6666666666667,4,2,11,60,0,0
84602,-66.6666666666667,4,2,12,60,0,0
84948,-66.6666666666667,4,2,1,60,0,0
85123,-83.3333333333333,4,2,11,60,0,0
85470,-83.3333333333333,4,2,1,60,0,0
85643,-83.3333333333333,4,2,13,60,0,0
85990,-83.3333333333333,4,2,1,60,0,0
86163,-83.3333333333333,4,2,12,60,0,0
86337,-83.3333333333333,4,2,1,60,0,0
86683,-66.6666666666667,4,2,12,60,0,0
87030,-50,4,2,11,60,0,0
87377,-50,4,2,12,60,0,0
87724,-50,4,2,1,60,0,0
87897,-71.4285714285714,4,2,11,60,0,0
88244,-71.4285714285714,4,2,1,60,0,0
88418,-71.4285714285714,4,2,15,60,0,0
88764,-71.4285714285714,4,2,1,60,0,0
88938,-71.4285714285714,4,2,14,60,0,0
89024,-125,4,2,1,60,0,0
89457,-125,4,2,14,60,0,0
89631,-83.3333333333333,4,2,1,60,0,0
90152,-142.857142857143,4,2,15,60,0,0
90845,-142.857142857143,4,2,1,40,0,0
112348,-90.9090909090909,4,2,1,55,0,0
123446,-76.9230769230769,4,2,1,55,0,0
133157,-55.5555555555556,4,2,1,55,0,0
134198,-45.4545454545455,4,2,1,55,0,0
134545,-62.5,4,2,1,55,0,0
134892,-62.5,4,2,12,65,0,0
135152,-62.5,4,2,1,65,0,0
135759,-62.5,4,2,14,65,0,0
136105,-62.5,4,2,1,65,0,0
136452,-62.5,4,2,15,65,0,0
136799,-62.5,4,2,1,65,0,0
137666,-62.5,4,2,12,65,0,0
137926,-62.5,4,2,1,65,0,0
138533,-62.5,4,2,15,65,0,0
138880,-62.5,4,2,1,65,0,0
139227,-62.5,4,2,17,65,0,0
139574,-62.5,4,2,1,65,0,0
139747,-100,4,2,1,65,0,0
140094,-66.6666666666667,4,2,1,65,0,0
140441,-66.6666666666667,4,2,13,65,0,0
140700,-66.6666666666667,4,2,1,65,0,0
141308,-66.6666666666667,4,2,15,65,0,0
141654,-66.6666666666667,4,2,1,65,0,0
142001,-66.6666666666667,4,2,18,65,0,0
142348,-66.6666666666667,4,2,1,65,0,0
143389,-83.3333333333333,4,2,1,65,0,0
144082,-66.6666666666667,4,2,1,65,0,0
145296,-76.9230769230769,4,2,1,65,0,0
145643,-62.5,4,2,1,65,0,0
145990,-62.5,4,2,12,65,0,0
146076,-62.5,4,2,1,65,0,0
146857,-62.5,4,2,14,65,0,0
147204,-62.5,4,2,1,65,0,0
147550,-62.5,4,2,15,65,0,0
147897,-62.5,4,2,1,65,0,0
148764,-62.5,4,2,12,65,0,0
149024,-62.5,4,2,1,65,0,0
149458,-100,4,2,1,65,0,0
149631,-62.5,4,2,15,65,0,0
149977,-62.5,4,2,1,65,0,0
150325,-62.5,4,2,17,65,0,0
150672,-62.5,4,2,1,65,0,0
151192,-50,4,2,1,65,0,0
151539,-50,4,2,13,65,0,0
151626,-58.8235294117647,4,2,13,65,0,0
151886,-58.8235294117647,4,2,1,65,0,0
152406,-58.8235294117647,4,2,15,65,0,0
152752,-58.8235294117647,4,2,1,65,0,0
153100,-66.6666666666667,4,2,18,65,0,0
153446,-66.6666666666667,4,2,1,65,0,0
154487,-83.3333333333333,4,2,1,65,0,0
155181,-66.6666666666667,4,2,1,65,0,0
156394,-76.9230769230769,4,2,1,65,0,0
156741,-71.4285714285714,4,2,12,65,0,0
157088,-71.4285714285714,4,2,1,65,0,0
157955,-71.4285714285714,4,2,17,65,0,0
158302,-71.4285714285714,4,2,1,65,0,0
158822,-71.4285714285714,4,2,16,65,0,0
158995,-71.4285714285714,4,2,1,65,0,0
159516,-71.4285714285714,4,2,12,65,0,0
159863,-71.4285714285714,4,2,1,65,0,0
160730,-71.4285714285714,4,2,18,65,0,0
161076,-71.4285714285714,4,2,1,65,0,0
161597,-71.4285714285714,4,2,17,65,0,0
161770,-71.4285714285714,4,2,1,65,0,0
162290,-71.4285714285714,4,2,13,65,0,0
162637,-71.4285714285714,4,2,1,65,0,0
163504,-71.4285714285714,4,2,13,65,0,0
163851,-71.4285714285714,4,2,1,65,0,0
164371,-71.4285714285714,4,2,18,65,0,0
164544,-71.4285714285714,4,2,1,65,0,0
165065,-71.4285714285714,4,2,17,65,0,0
165412,-71.4285714285714,4,2,1,65,0,0
166279,-71.4285714285714,4,2,17,65,0,0
166626,-71.4285714285714,4,2,1,65,0,0
167146,-66.6666666666667,4,2,16,65,0,0
167492,-66.6666666666667,4,2,1,65,0,0
167666,-100,4,2,1,65,0,0
167839,-52.6315789473684,4,2,12,65,0,0
168186,-66.6666666666667,4,2,1,65,0,0
169053,-66.6666666666667,4,2,17,65,0,0
169400,-66.6666666666667,4,2,1,65,0,0
169920,-66.6666666666667,4,2,16,65,0,0
170094,-66.6666666666667,4,2,1,65,0,0
170614,-66.6666666666667,4,2,12,65,0,0
170961,-66.6666666666667,4,2,1,65,0,0
171828,-66.6666666666667,4,2,18,65,0,0
172175,-66.6666666666667,4,2,1,65,0,0
172695,-66.6666666666667,4,2,17,65,0,0
172868,-66.6666666666667,4,2,1,65,0,0
173389,-83.3333333333333,4,2,13,65,0,0
173735,-83.3333333333333,4,2,1,65,0,0
174602,-83.3333333333333,4,2,13,65,0,0
174949,-83.3333333333333,4,2,1,65,0,0
175123,-66.6666666666667,4,2,1,65,0,0
175470,-66.6666666666667,4,2,18,65,0,0
175643,-66.6666666666667,4,2,1,65,0,0
176163,-100,4,2,1,65,0,0
177550,-66.6666666666667,4,2,1,65,0,0
178591,-66.6666666666667,4,2,2,75,0,0
178938,-66.6666666666667,4,2,12,75,0,0
179285,-66.6666666666667,4,2,1,75,0,0
180325,-66.6666666666667,4,2,11,75,0,0
180845,-66.6666666666667,4,2,1,75,0,0
181712,-76.9230769230769,4,2,13,75,0,0
182059,-66.6666666666667,4,2,13,75,0,0
182579,-76.9230769230769,4,2,1,75,0,0
183100,-76.9230769230769,4,2,14,75,0,0
183446,-76.9230769230769,4,2,1,75,0,0
184487,-76.9230769230769,4,2,12,75,0,0
184834,-76.9230769230769,4,2,1,75,0,0
185874,-76.9230769230769,4,2,11,75,0,0
186394,-76.9230769230769,4,2,1,75,0,0
187261,-76.9230769230769,4,2,15,75,0,0
187782,-76.9230769230769,4,2,1,75,0,0
188649,-76.9230769230769,4,2,14,75,0,0
189342,-76.9230769230769,4,2,13,75,0,0
189516,-76.9230769230769,4,2,1,75,0,0
190036,-76.9230769230769,4,2,13,75,0,0
190730,-100,4,2,13,75,0,0
190903,-100,4,2,1,75,0,0
191423,-76.9230769230769,4,2,12,75,0,0
191770,-76.9230769230769,4,2,1,75,0,0
192811,-76.9230769230769,4,2,15,75,0,0
193331,-76.9230769230769,4,2,1,75,0,0
194198,-76.9230769230769,4,2,14,75,0,0
194545,-76.9230769230769,4,2,1,75,0,0
195585,-76.9230769230769,4,2,11,75,0,0
196105,-76.9230769230769,4,2,1,75,0,0
196972,-76.9230769230769,4,2,12,75,0,0
197319,-76.9230769230769,4,2,1,75,0,0
198360,-76.9230769230769,4,2,15,75,0,0
198880,-76.9230769230769,4,2,1,75,0,0
199747,-76.9230769230769,4,2,14,75,0,0
200267,-76.9230769230769,4,2,1,75,0,0
200441,-76.9230769230769,4,2,13,75,0,0
200527,-76.9230769230769,4,2,1,75,0,0
201134,-76.9230769230769,4,2,12,75,0,0

[Colours]
Combo1 : 155,232,238
Combo2 : 231,88,152
Combo3 : 232,149,211
Combo4 : 175,131,231
Combo5 : 132,134,232
Combo6 : 84,182,228

[HitObjects]
463,361,45759,6,0,P|453:278|332:305,1,202.500007724762,4|0,1:2|2:0,2:0:0:0:
351,291,46105,2,0,P|369:328|403:330,1,67.5000025749208,8|0,2:1|2:0,2:0:0:0:
496,100,46279,6,0,P|406:145|308:170,1,202.5,4|0,1:2|2:0,2:0:0:0:
307,170,46626,1,8,2:1:0:0:
224,0,46799,2,0,P|221:67|196:129,1,135,12|0,2:0|2:0,2:0:0:0:
84,352,47146,6,0,P|73:320|56:289,1,67.5,2|0,1:2|2:0,2:0:0:0:
136,232,47319,2,0,P|147:275|166:316,1,90,2|8,2:0|2:1,2:0:0:0:
28,197,47666,6,0,P|129:197|202:109,1,202.5,2|0,1:2|2:0,2:0:0:0:
197,119,48013,1,2,1:0:0:0:
392,176,48186,1,8,1:0:0:0:
268,256,48360,1,2,1:0:0:0:
392,176,48533,6,0,P|397:71|276:98,1,236.250002253056,4|0,1:2|2:0,2:0:0:0:
291,86,48880,2,0,P|313:118|359:115,1,67.5,8|0,2:1|2:0,2:0:0:0:
508,254,49053,6,0,B|452:231|414:280|418:287|425:297|397:346|327:320,1,202.5,4|2,1:2|2:0,2:0:0:0:
337,323,49400,1,8,2:1:0:0:
489,328,49574,6,0,L|497:353,1,27,12|0,2:0|2:0,2:0:0:0:
272,256,49920,6,0,P|263:223|251:191,1,67.5,2|0,1:2|2:0,2:0:0:0:
408,80,50094,2,0,P|403:152|341:195,1,135,2|8,2:0|2:1,2:0:0:0:
304,384,50441,6,0,P|256:298|144:296,1,202.5,2|0,1:2|2:0,2:0:0:0:
147,298,50787,1,10,1:0:0:0:
48,112,50961,6,0,B|24:139|-5:137|-5:137|0:192|63:225|121:188,1,202.5,2|0,1:0|2:0,1:0:0:0:
288,56,51308,6,0,P|171:41|184:157,1,270,4|0,1:2|2:0,2:0:0:0:
202,154,51655,2,0,P|226:106|204:74,1,67.5,8|0,2:1|2:0,2:0:0:0:
318,220,51828,6,0,B|371:231|410:192|406:184|402:176|442:132|499:153,1,202.500007724762,4|0,1:2|0:0,0:0:0:0:
496,152,52175,1,8,2:1:0:0:
438,338,52348,6,0,P|370:350|311:385,1,135.000005149842,12|0,2:0|2:0,2:0:0:0:
314,384,52695,6,0,P|292:347|285:310,1,67.5,2|0,1:2|2:0,2:0:0:0:
100,198,52868,2,0,P|155:203|220:270,1,135,2|8,2:0|2:1,2:0:0:0:
455,44,53215,6,0,P|392:134|290:135,1,202.5,2|0,1:2|2:0,2:0:0:0:
280,128,53562,1,2,1:0:0:0:
11,176,53735,6,0,L|27:231,1,45,8|0,1:0|2:0,2:0:0:0:
87,154,53909,2,0,L|103:209,1,45,2|0,1:0|2:0,2:0:0:0:
184,384,54082,6,0,P|220:295|75:294,1,270,4|2,1:2|2:0,2:0:0:0:
88,281,54429,2,0,P|120:291|145:318,1,67.5,8|0,2:1|2:0,2:0:0:0:
392,176,54602,6,0,P|351:268|337:368,1,202.5,4|2,1:2|2:0,2:0:0:0:
304,288,54949,1,8,2:1:0:0:
463,249,55123,6,0,L|502:239,1,40.5000000000001,12|0,2:0|2:0,2:0:0:0:
448,334,55470,6,0,P|406:318|387:279,1,67.5,2|0,1:2|2:0,2:0:0:0:
232,179,55643,2,0,P|247:107|313:77,1,135,2|8,2:0|2:1,2:0:0:0:
504,96,55990,6,0,P|408:120|312:160,1,202.5,2|0,1:2|2:0,2:0:0:0:
320,168,56337,1,2,1:0:0:0:
376,48,56510,2,0,P|373:26|362:2,2,45,8|0|2,1:0|2:0|1:0,2:0:0:0:
264,263,56857,6,0,P|200:263|155:226,1,108,4|2,1:2|3:2,2:0:0:0:
323,133,57117,1,2,2:0:0:0:
323,133,57204,2,0,P|273:174|215:174,1,108,2|2,1:2|3:2,2:0:0:0:
24,18,57550,6,0,L|70:222,1,162,2|2,1:2|2:0,2:0:0:0:
156,236,57897,2,0,B|162:209|162:209|131:200,1,54,2|0,1:2|2:0,2:0:0:0:
130,114,58071,2,0,L|138:74,2,27,2|0|0,1:2|2:0|2:0,2:0:0:0:
72,264,58244,6,0,P|75:317|98:365,1,108,2|2,1:2|3:2,2:0:0:0:
280,312,58591,2,0,P|276:258|253:210,1,108,2|0,1:2|2:0,2:0:0:0:
197,369,58938,6,0,P|282:352|366:399,1,162,2|2,1:2|2:0,2:0:0:0:
355,384,59285,2,0,P|385:352|370:327,1,54,2|0,1:2|2:0,2:0:0:0:
448,288,59458,2,0,L|484:298,2,27,2|0|0,1:2|2:0|2:0,2:0:0:0:
253,210,59631,6,0,P|229:162|229:98,1,108,2|2,1:2|3:2,2:0:0:0:
360,40,59892,1,2,2:0:0:0:
360,40,59978,2,0,P|327:82|314:134,1,108,2|2,1:2|3:2,2:0:0:0:
63,295,60325,6,0,P|155:320|203:385,1,162,2|2,1:2|2:0,2:0:0:0:
196,368,60672,2,0,L|214:304,1,54,2|0,1:2|2:0,2:0:0:0:
253,210,60845,1,2,1:2:0:0:
459,242,61019,6,0,B|435:301|344:324|298:285|298:285|330:249,2,216,2|2|2,1:2|1:2|1:2,2:0:0:0:
350,180,61886,1,2,3:2:0:0:
256,352,62059,2,0,P|244:299|220:252,1,108,2|2,1:2|1:2,2:0:0:0:
350,180,62406,6,0,P|355:153|365:128,1,54,2|0,1:2|2:0,2:0:0:0:
370,121,62623,1,0,2:0:0:0:
263,132,62753,6,0,P|240:100|231:71,1,54,2|0,1:2|2:0,2:0:0:0:
226,65,62926,1,2,1:2:0:0:
192,200,63100,6,0,P|157:180|135:153,1,54,2|0,1:2|2:0,2:0:0:0:
84,87,63273,1,2,1:2:0:0:
160,288,63446,6,0,P|133:289|106:283,1,54,2|0,1:2|2:0,2:0:0:0:
32,240,63620,2,0,L|24:207,2,27,2|2|2,1:2|2:0|2:0,2:0:0:0:
232,384,63793,6,0,P|250:344|269:326,1,54,2|0,1:2|2:0,2:0:0:0:
341,293,63967,1,2,1:2:0:0:
190,201,64140,6,0,P|224:212|243:231,1,54,2|0,1:2|2:0,2:0:0:0:
354,296,64313,1,2,1:2:0:0:
334,128,64487,6,0,P|356:158|362:187,1,54,2|0,1:2|2:0,2:0:0:0:
365,306,64660,1,2,1:2:0:0:
508,186,64834,6,0,P|497:210|478:230,1,54,2|0,1:2|2:0,2:0:0:0:
372,317,65007,2,0,L|378:351,3,27,2|2|2|0,1:2|2:0|2:0|2:0,2:0:0:0:
360,173,65181,5,2,1:2:0:0:
383,156,65267,1,2,1:2:0:0:
398,126,65354,1,2,3:2:0:0:
396,93,65441,1,2,1:2:0:0:
379,64,65527,2,0,P|358:61|338:50,3,45,2|2|2|2,1:2|1:2|3:2|1:2,2:0:0:0:
248,84,65874,2,0,P|237:103|235:126,3,45,2|2|2|2,1:2|1:2|1:2|1:2,0:2:0:0:
308,196,66221,5,2,1:3:0:0:
328,228,66308,1,2,1:3:0:0:
344,260,66394,1,2,1:3:0:0:
336,296,66481,1,2,1:3:0:0:
328,328,66568,2,0,B|297:313|297:313|234:342|234:342|224:340|224:340|167:364|167:364|112:344,1,229.5,2|2,1:2|1:2,2:0:0:0:
104,336,66915,2,0,B|68:348|68:348|84:396,2,76.5000014591217,2|0|0,0:0|0:0|3:0,0:0:0:0:
152,212,67261,6,0,B|127:144|171:105|189:125|233:82|202:4,1,229.5,4|2,2:0|2:0,2:0:0:0:
120,48,67608,2,0,L|45:65,1,76.5,8|0,2:0|2:0,2:0:0:0:
45,64,67955,6,0,P|101:72|133:136,1,108,4|2,1:2|2:0,2:0:0:0:
300,0,68302,2,0,P|252:80|272:172,1,189,2|0,1:0|2:0,2:0:0:0:
352,220,68649,5,0,1:0:0:0:
369,198,68735,1,2,2:3:0:0:
394,186,68822,1,2,2:3:0:0:
422,186,68909,1,2,2:3:0:0:
447,198,68996,1,8,2:1:0:0:
464,220,69082,1,2,2:3:0:0:
470,247,69169,1,2,2:3:0:0:
464,275,69256,1,2,2:3:0:0:
446,296,69342,2,0,P|425:289|403:286,3,45,0|2|2|2,1:0|2:3|2:3|2:3,2:0:0:0:
345,374,69689,5,8,2:1:0:0:
340,356,69776,1,2,2:3:0:0:
330,341,69863,1,2,2:3:0:0:
319,328,69949,1,2,2:3:0:0:
307,317,70036,6,0,L|350:105,1,202.5,2|2,1:0|2:0,2:0:0:0:
288,46,70383,2,0,P|324:35|348:15,1,67.5,2|2,1:0|2:0,2:0:0:0:
416,67,70556,2,0,P|431:59|448:56,2,33.75,2|0|0,1:0|2:0|2:0,2:0:0:0:
244,168,70730,6,0,B|190:111|93:139|93:139|105:95|159:103,1,229.5,2|0,1:0|2:0,2:0:0:0:
180,8,71076,2,0,B|160:117|160:117|162:123|162:123|141:233,1,229.5,4|0,2:0|2:0,2:0:0:0:
66,289,71423,5,0,1:0:0:0:
78,300,71510,1,2,2:3:0:0:
85,316,71597,1,2,2:3:0:0:
85,332,71683,1,2,2:3:0:0:
76,348,71770,5,8,2:1:0:0:
102,331,71857,1,2,2:3:0:0:
132,324,71944,1,2,2:3:0:0:
163,321,72030,1,2,2:3:0:0:
192,332,72117,6,0,L|209:395,3,45,0|2|2|2,1:0|2:3|2:3|2:3,2:0:0:0:
261,269,72464,2,0,L|274:218,1,45,8|2,2:1|2:3,2:0:0:0:
342,129,72637,5,2,2:3:0:0:
342,129,72724,1,2,2:3:0:0:
342,129,72811,2,0,L|288:143,1,45,2|0,1:0|2:0,2:0:0:0:
72,142,72984,6,0,B|95:69|207:29|260:68|260:68|228:82|199:123|226:185,1,337.5,2|0,2:0|2:0,2:0:0:0:
272,225,73504,6,0,L|428:189,1,135,2|0,1:0|2:0,2:0:0:0:
491,236,73851,6,0,P|412:256|407:339,1,153,4|2,2:0|2:0,2:0:0:0:
402,325,74111,1,2,2:0:0:0:
413,324,74198,2,0,P|448:319|471:356,1,76.5,2|2,1:3|1:3,2:0:0:0:
292,341,74371,5,0,2:0:0:0:
259,372,74458,1,2,2:1:0:0:
216,359,74545,2,0,P|214:329|204:302,1,58.5,8|2,2:1|2:0,2:0:0:0:
272,225,74718,2,0,P|273:195|283:168,1,58.5,2|0,1:3|2:0,2:0:0:0:
176,88,74892,5,0,1:0:0:0:
168,116,74978,1,2,2:3:0:0:
140,136,75065,1,2,2:3:0:0:
108,140,75152,1,2,2:3:0:0:
80,128,75238,2,0,P|75:99|64:72,3,58.5,8|2|2|2,2:1|2:3|2:3|2:3,2:0:0:0:
171,225,75585,6,0,B|152:239|116:241|116:241|91:296|118:355|169:368|169:368|191:345|221:351,1,270,2|2,1:0|2:0,2:0:0:0:
228,356,75932,2,0,B|241:266|241:266|245:263|245:263|264:148,1,202.5,8|2,1:0|2:0,2:0:0:0:
168,40,76279,6,0,P|188:97|228:86,1,90,2|0,1:0|2:0,2:0:0:0:
372,64,76539,1,0,2:0:0:0:
365,58,76626,2,0,B|341:42|337:10|337:10|261:2|201:90|270:167,1,270,4|0,2:0|2:0,2:0:0:0:
334,201,76972,5,0,1:0:0:0:
342,189,77059,1,2,2:3:0:0:
362,185,77146,1,2,2:3:0:0:
380,194,77233,1,2,2:3:0:0:
390,207,77319,5,8,2:1:0:0:
392,240,77406,1,2,2:3:0:0:
408,280,77493,1,2,2:3:0:0:
448,304,77579,1,2,2:3:0:0:
498,295,77666,6,0,L|325:344,1,180,2|2,1:0|2:0,2:0:0:0:
315,342,77926,1,2,2:0:0:0:
307,337,78013,2,0,P|294:299|327:264,1,76.5,8|0,1:0|2:0,2:0:0:0:
500,160,78186,5,2,2:1:0:0:
506,168,78273,2,0,P|482:205|367:211,1,153.000002918243,8|0,1:0|0:0,2:0:0:0:
234,147,78533,2,0,P|290:167|314:208,1,76.5,8|0,1:0|2:0,2:0:0:0:
405,57,78707,6,0,P|343:148|233:146,1,229.500004377365,10|0,0:1|0:0,0:0:0:0:
53,52,79053,6,0,B|77:16|77:16|149:12|165:72,1,153.000002918243,2|2,1:0|2:0,2:0:0:0:
164,68,79313,1,2,0:0:0:0:
164,68,79400,1,8,0:1:0:0:
129,243,79574,6,0,B|64:273|64:273|13:175|100:141,1,229.500004377365,2|0,1:1|0:0,0:0:0:0:
98,143,79920,1,0,1:0:0:0:
238,197,80094,5,10,2:1:0:0:
257,187,80181,1,2,2:0:0:0:
279,181,80267,1,2,2:0:0:0:
306,182,80354,1,2,2:0:0:0:
328,192,80441,1,2,1:2:0:0:
436,80,80614,6,0,P|429:101|425:124,1,45,2|0,2:1|2:0,2:0:0:0:
460,208,80787,2,0,P|453:229|449:252,3,45,10|0|0|0,0:1|2:0|2:0|2:0,2:0:0:0:
405,327,81134,5,2,2:1:0:0:
364,316,81221,1,2,2:0:0:0:
328,324,81308,1,2,2:0:0:0:
292,344,81394,1,2,2:0:0:0:
272,372,81481,1,10,2:1:0:0:
226,240,81655,2,0,L|241:183,1,45,10|10,2:3|2:3,2:0:0:0:
352,4,81828,6,0,B|397:30|397:30|320:39|261:101,1,202.5,2|2,1:0|2:0,2:0:0:0:
265,96,82175,1,8,1:0:0:0:
356,176,82348,6,0,P|265:140|160:140,1,202.5,2|2,2:1|2:0,2:0:0:0:
155,143,82695,1,2,1:2:0:0:
64,20,82868,6,0,P|90:46|101:84,3,67.5,10|2|2|2,2:1|2:0|2:0|2:0,2:0:0:0:
8,216,83215,5,2,1:2:0:0:
44,207,83302,1,0,2:0:0:0:
81,213,83389,1,2,2:1:0:0:
107,235,83475,1,0,2:0:0:0:
121,265,83562,2,0,P|100:288|91:328,1,67.5,8|2,1:0|2:0,2:0:0:0:
288,372,83735,5,2,2:0:0:0:
288,372,83822,2,0,P|235:330|206:330,1,67.5000025749208,2|2,1:2|0:1,2:0:0:0:
163,352,83996,1,2,1:2:0:0:
164,361,84082,1,0,0:0:0:0:
282,198,84256,2,0,B|245:191|218:167|218:167|251:304,1,202.5,10|10,2:1|2:3,2:0:0:0:
288,372,84602,6,1,B|291:289|391:251|443:274|443:274|405:308|403:336,1,270,2|8,1:0|1:0,2:0:0:0:
282,198,85123,2,1,B|197:222|197:222|192:227|192:227|94:255,1,162,2|2,2:1|2:0,2:0:0:0:
121,248,85470,1,2,1:2:0:0:
96,134,85643,5,10,2:1:0:0:
96,134,85730,1,2,2:0:0:0:
96,134,85816,2,0,P|134:146|149:181,1,54,2|2,2:0|2:0,2:0:0:0:
282,198,85990,5,2,1:2:0:0:
282,172,86076,1,0,2:0:0:0:
273,151,86163,1,2,2:1:0:0:
263,136,86250,1,2,2:0:0:0:
245,125,86337,2,0,P|243:95|294:72,3,54,8|2|2|2,1:0|2:0|2:0|1:2,2:0:0:0:
184,232,86683,6,0,B|243:202|282:248|282:248|282:303|328:324,1,202.5,2|2,2:1|2:0,2:0:0:0:
368,244,87030,2,0,B|345:280|345:280|251:286|192:355|192:355|146:330,1,270,10|10,2:1|2:3,2:0:0:0:
138,322,87377,5,2,1:0:0:0:
71,137,87550,1,2,2:0:0:0:
262,182,87724,1,8,1:0:0:0:
9,205,87897,6,0,B|57:225|99:182|84:169|115:129|179:149,1,189,2|2,2:1|2:0,2:0:0:0:
182,157,88244,1,2,1:2:0:0:
316,52,88418,5,10,2:1:0:0:
293,54,88504,1,2,2:0:0:0:
274,64,88591,1,2,2:0:0:0:
259,77,88678,1,2,2:0:0:0:
253,95,88764,1,2,1:2:0:0:
388,216,88938,5,2,2:1:0:0:
388,216,89024,2,0,L|430:206,1,36,2|8,1:2|1:0,2:0:0:0:
192,120,89285,5,2,1:2:0:0:
192,120,89371,2,0,L|234:110,1,36,8|2,1:0|2:1,2:0:0:0:
348,8,89631,6,0,B|316:156|316:156|304:168|304:168|280:272,1,270,8|0,1:0|2:0,2:0:0:0:
288,276,90152,6,0,B|216:253|176:300|176:312|184:320|132:376|56:344,1,252,10|0,2:1|3:0,2:0:0:0:
0,271,91019,2,0,L|12:210,2,62.9999999999999,0|2|2,2:0|3:2|2:0,2:0:0:0:
72,136,91539,6,0,P|133:123|182:81,1,126,2|2,3:0|2:0,2:0:0:0:
215,180,92059,2,0,P|260:209|285:296,1,126,2|0,2:0|2:0,2:0:0:0:
286,274,92579,1,0,3:0:0:0:
464,212,92926,6,0,P|484:132|504:80,1,126,2|2,3:0|2:0,2:0:0:0:
454,18,93446,1,2,2:0:0:0:
376,80,93620,1,2,3:2:0:0:
368,64,93707,1,2,2:0:0:0:
347,52,93793,1,2,2:0:0:0:
272,8,93967,1,2,3:2:0:0:
192,44,94140,1,2,2:0:0:0:
172,128,94313,6,0,P|192:163|203:196,1,62.9999999999999,2|2,3:0|2:0,2:0:0:0:
204,192,94574,1,2,2:0:0:0:
201,202,94660,1,2,2:0:0:0:
274,256,94834,1,2,2:0:0:0:
358,216,95007,2,0,P|366:185|377:156,1,62.9999999999999,2|2,3:2|2:0,2:0:0:0:
442,237,95354,1,2,3:0:0:0:
464,321,95527,1,2,2:0:0:0:
402,382,95701,6,0,P|334:361|215:349,1,189,2|2,3:0|2:0,2:0:0:0:
149,300,96394,1,2,3:2:0:0:
137,308,96481,1,2,2:0:0:0:
133,324,96568,1,2,2:0:0:0:
47,240,96741,2,0,P|56:202|60:167,1,62.9999999999999,2|2,3:2|2:0,2:0:0:0:
60,165,97001,1,0,2:0:0:0:
52,151,97088,5,2,3:0:0:0:
106,78,97261,1,0,2:0:0:0:
129,91,97348,1,2,2:0:0:0:
159,92,97435,1,2,2:0:0:0:
236,133,97608,1,2,2:0:0:0:
256,48,97782,2,0,L|264:12,4,31.5,2|2|2|2|2,3:2|2:0|2:0|2:0|3:2,2:0:0:0:
236,133,98302,1,2,2:0:0:0:
160,187,98475,6,0,P|155:250|192:308,1,126,2|2,3:0|2:0,2:0:0:0:
256,372,98996,1,2,2:0:0:0:
328,320,99169,5,2,3:2:0:0:
333,318,99256,1,2,2:0:0:0:
339,317,99342,1,2,2:0:0:0:
345,315,99429,1,0,2:0:0:0:
350,314,99516,1,2,3:2:0:0:
432,264,99689,2,0,P|448:268|460:287,2,31.5,2|2|2,2:0|2:0|3:0,2:0:0:0:
420,176,100036,2,0,P|431:164|453:163,2,31.5,0|2|2,2:0|2:0|2:0,2:0:0:0:
340,136,100383,1,2,2:0:0:0:
340,136,100470,1,2,2:0:0:0:
340,136,100556,2,0,P|312:152|276:156,1,62.9999999999999,2|2,3:2|2:0,2:0:0:0:
212,95,100903,1,2,3:2:0:0:
220,80,100990,1,2,2:0:0:0:
214,61,101076,1,2,2:0:0:0:
288,0,101250,6,0,P|262:87|232:253,1,252,2|2,3:0|3:2,2:0:0:0:
232,245,102290,1,2,3:2:0:0:
92,376,102637,6,0,P|52:324|64:268,1,126,2|2,3:0|2:0,2:0:0:0:
15,192,103157,1,2,2:0:0:0:
65,115,103331,2,0,P|65:101|53:88,2,31.5,0|0|0,3:0|2:0|2:0,2:0:0:0:
148,129,103678,2,0,P|175:113|205:103,1,62.9999999999999,2|2,3:2|2:0,2:0:0:0:
256,40,104024,1,2,3:0:0:0:
208,202,104371,5,2,2:0:0:0:
269,258,104545,1,2,2:0:0:0:
275,343,104718,2,0,P|250:349|235:359,2,31.5,2|2|2,3:2|2:0|2:0,2:0:0:0:
275,343,105065,1,2,3:0:0:0:
360,304,105238,1,2,2:0:0:0:
456,332,105412,5,2,3:0:0:0:
454,238,105585,2,0,P|434:246|428:257,2,31.5,0|2|2,2:0|2:0|2:0,2:0:0:0:
500,160,105932,2,0,P|483:146|470:146,2,31.5,2|0|2,2:0|2:0|3:2,2:0:0:0:
392,176,106279,1,2,2:0:0:0:
292,144,106452,1,2,3:2:0:0:
256,56,106626,1,2,2:0:0:0:
297,156,106799,6,0,P|274:227|250:360,2,189,2|2|2,3:0|2:0|3:0,2:0:0:0:
256,192,108186,12,2,112175,2:0:0:0:
448,76,112348,6,0,L|283:121,1,148.5,2|0,1:3|2:0,2:0:0:0:
294,117,112695,1,2,2:0:0:0:
229,57,112868,2,0,L|242:8,2,49.5,2|0|2,1:2|2:0|2:0,2:0:0:0:
234,241,113215,6,0,L|199:118,1,99,2|2,2:0|1:2,2:0:0:0:
206,145,113475,1,0,2:0:0:0:
206,145,113562,1,2,2:0:0:0:
183,337,113735,6,0,P|221:346|237:368,1,49.5,2|0,1:3|2:0,2:0:0:0:
388,265,113909,2,0,P|342:292|281:302,1,99,2|2,2:1|2:0,2:0:0:0:
297,301,114169,1,0,2:0:0:0:
297,301,114256,1,2,1:2:0:0:
133,238,114429,6,0,P|120:191|95:148,1,99,2|2,2:0|2:0,2:0:0:0:
88,140,114689,1,0,2:0:0:0:
76,138,114776,2,0,P|60:144|45:149,3,33,2|0|0|2,1:2|2:0|2:0|2:0,2:0:0:0:
216,14,115123,5,2,1:3:0:0:
203,31,115209,1,0,2:0:0:0:
197,47,115296,1,2,2:1:0:0:
197,65,115383,1,0,2:0:0:0:
202,79,115470,1,2,2:0:0:0:
289,244,115643,6,0,L|319:232,2,33,2|0|0,1:2|2:0|2:0,2:0:0:0:
207,205,115816,5,2,2:0:0:0:
207,205,115903,1,2,2:0:0:0:
207,205,115990,2,0,L|195:259,1,49.5,2|0,2:0|2:0,2:0:0:0:
275,368,116163,5,2,1:2:0:0:
285,347,116250,1,2,2:0:0:0:
309,332,116337,1,2,2:0:0:0:
337,330,116423,1,2,2:0:0:0:
362,342,116510,1,2,1:3:0:0:
512,214,116683,5,2,2:1:0:0:
512,214,116770,1,0,2:0:0:0:
512,214,116857,2,0,P|484:257|426:266,1,99,2|2,2:0|1:2,2:0:0:0:
436,122,117204,2,0,P|388:163|386:215,1,99,2|2,2:0|2:0,2:0:0:0:
382,195,117464,1,2,2:0:0:0:
382,195,117550,2,0,L|337:210,3,33,2|0|0|2,1:2|2:0|2:0|2:0,2:0:0:0:
512,76,117897,6,0,P|439:62|372:31,1,148.5,2|0,1:3|2:0,2:0:0:0:
366,22,118244,1,2,2:0:0:0:
436,120,118418,6,0,P|325:149|224:207,1,198,2|2,1:2|2:0,2:0:0:0:
177,131,118938,1,2,1:2:0:0:
177,131,119024,1,0,2:0:0:0:
177,131,119111,2,0,L|189:68,2,49.5,2|0|2,2:0|2:0|1:3,2:0:0:0:
295,330,119458,2,0,P|268:229|249:186,1,148.5,2|0,2:1|2:0,2:0:0:0:
251,189,119805,1,2,1:2:0:0:
176,244,119978,5,2,2:0:0:0:
158,231,120065,1,0,2:0:0:0:
134,225,120152,1,2,2:0:0:0:
114,224,120238,1,0,2:0:0:0:
94,228,120325,2,0,L|83:266,3,33,2|0|0|2,1:2|2:0|2:0|2:0,2:0:0:0:
48,124,120672,6,0,P|128:112|200:56,1,148.5,2|0,1:3|2:0,2:0:0:0:
190,69,121019,2,0,P|229:89|238:113,1,49.5,2|0,2:0|2:0,2:0:0:0:
306,31,121192,2,0,L|317:-11,3,33,2|0|0|2,1:2|2:0|2:0|2:0,2:0:0:0:
260,188,121539,5,2,2:0:0:0:
260,188,121626,1,2,2:0:0:0:
259,188,121712,2,0,P|276:260|291:332,1,148.5,2|0,1:2|2:0,2:0:0:0:
291,332,122059,1,2,1:3:0:0:
444,268,122233,5,2,2:1:0:0:
444,268,122319,2,0,P|404:232|356:246,1,99,0|0,2:0|2:0,2:0:0:0:
363,240,122579,1,2,1:2:0:0:
214,130,122753,5,2,2:0:0:0:
250,150,122839,1,0,2:0:0:0:
287,144,122926,1,0,2:0:0:0:
313,121,123013,1,0,2:0:0:0:
333,85,123100,2,0,L|325:54,3,33,2|0|0|2,1:2|2:0|2:0|2:0,2:0:0:0:
191,208,123446,6,0,B|208:230|208:230|195:356|195:356|220:379,1,175.5,4|2,1:2|2:0,2:0:0:0:
210,370,123793,1,2,1:2:0:0:
327,295,123967,2,0,P|296:303|270:337,1,58.5,2|2,3:2|2:0,2:0:0:0:
121,262,124140,5,2,1:2:0:0:
86,256,124227,1,0,2:0:0:0:
57,229,124313,1,2,3:2:0:0:
145,118,124487,2,0,P|130:148|130:195,1,58.5,2|0,1:2|2:0,2:0:0:0:
277,320,124660,5,2,1:2:0:0:
286,328,124747,1,0,2:0:0:0:
296,332,124834,2,0,P|371:336|458:382,1,175.5,2|2,1:2|2:0,2:0:0:0:
458,382,125181,1,2,1:2:0:0:
457,221,125354,2,0,P|426:236|413:276,1,58.5,2|2,3:2|2:0,2:0:0:0:
346,205,125527,6,0,L|367:82,1,117,2|2,1:2|3:2,2:0:0:0:
368,82,125787,1,2,2:0:0:0:
371,72,125874,2,0,L|410:62,3,39,2|0|0|2,1:2|2:0|2:0|1:2,2:0:0:0:
203,2,126221,6,0,P|223:57|232:114,1,117,2|2,1:2|3:2,2:0:0:0:
225,131,126481,1,2,2:0:0:0:
221,153,126568,1,2,1:2:0:0:
105,151,126741,1,2,3:2:0:0:
114,179,126828,1,2,2:0:0:0:
137,202,126915,1,2,1:2:0:0:
63,308,127088,2,0,P|102:304|125:289,1,58.5,2|2,3:2|2:0,2:0:0:0:
308,316,127261,6,0,P|244:339|209:387,1,117,2|2,1:2|1:2,2:0:0:0:
215,377,127522,1,0,2:0:0:0:
215,377,127608,2,0,P|208:344|192:316,1,58.5,2|0,1:2|2:0,2:0:0:0:
324,224,127782,5,2,3:2:0:0:
324,224,127868,1,2,2:0:0:0:
324,224,127955,2,0,P|354:234|384:234,1,58.5,2|0,1:2|2:0,2:0:0:0:
364,326,128129,2,0,P|334:316|304:316,1,58.5,2|2,3:2|2:0,2:0:0:0:
224,192,128302,6,0,P|192:144|192:64,1,117,2|2,1:2|3:2,2:0:0:0:
155,57,128562,1,2,2:0:0:0:
128,80,128649,2,0,L|90:90,3,39,2|0|0|2,1:2|2:0|2:0|3:2,2:0:0:0:
296,3,128996,6,0,P|312:35|321:66,1,58.5,2|0,1:2|2:0,2:0:0:0:
340,138,129169,1,2,1:2:0:0:
432,33,129342,6,0,P|424:77|411:100,1,58.5,2|0,1:2|2:0,2:0:0:0:
280,192,129516,5,2,1:2:0:0:
318,178,129602,1,0,2:0:0:0:
361,183,129689,1,2,1:2:0:0:
391,206,129776,1,0,2:0:0:0:
406,240,129863,1,2,1:2:0:0:
341,323,130036,2,0,P|328:285|315:255,2,58.5,2|0|2,1:2|2:0|1:2,2:0:0:0:
418,89,130383,5,2,1:2:0:0:
280,192,130556,1,2,1:2:0:0:
181,59,130730,2,0,P|188:33|193:-1,2,58.5,2|0|2,1:2|2:0|1:2,2:0:0:0:
280,192,131076,5,2,1:2:0:0:
192,163,131250,1,2,1:2:0:0:
112,208,131423,2,0,L|103:236,2,29.25,2|2|2,1:2|2:0|2:0,2:0:0:0:
16,104,131597,2,0,P|27:130|35:158,1,58.5,2|0,1:2|2:0,2:0:0:0:
52,292,131770,5,2,1:2:0:0:
73,281,131857,1,2,1:2:0:0:
100,276,131944,1,2,1:3:0:0:
124,280,132030,1,2,1:2:0:0:
144,288,132117,1,2,1:2:0:0:
164,304,132204,1,2,1:2:0:0:
176,324,132290,2,0,L|160:375,2,29.25,2|0|2,1:3|2:0|1:2,2:0:0:0:
272,236,132464,6,0,P|260:209|256:180,3,58.4999973220826,2|2|2|2,1:2|1:2|1:2|1:2,0:0:0:0:
304,108,132811,1,2,1:3:0:0:
324,72,132897,1,2,1:3:0:0:
316,32,132984,1,2,1:3:0:0:
292,8,133071,1,2,1:3:0:0:
247,4,133157,6,0,P|207:73|110:60,1,162,2|2,1:2|1:2,2:0:0:0:
123,69,133418,1,2,1:2:0:0:
113,63,133504,2,0,P|116:32|70:2,1,80.9999999999999,2|0,1:2|2:0,2:0:0:0:
29,215,133678,5,2,1:2:0:0:
24,227,133764,1,0,2:0:0:0:
20,239,133851,2,0,L|268:179,1,243,4|0,2:0|2:0,2:0:0:0:
321,120,134198,2,0,B|295:25|173:19|147:59|147:59|195:67|212:127,1,297,8|0,2:0|2:0,2:0:0:0:
128,144,134545,6,0,P|150:212|183:354,1,216,4|0,1:2|2:0,2:0:0:0:
200,372,134892,1,2,1:0:0:0:
228,376,134978,1,2,2:0:0:0:
304,308,135152,1,2,1:3:0:0:
288,216,135325,1,2,1:2:0:0:
210,159,135498,1,0,1:0:0:0:
210,159,135585,2,0,P|186:143|187:94,1,72,2|0,1:0|2:0,2:0:0:0:
354,0,135759,6,0,B|371:22|403:34|403:34|398:78|341:139|232:89,1,216,2|0,1:0|2:0,2:0:0:0:
276,99,136105,1,0,1:0:0:0:
317,282,136279,2,0,P|321:302|315:322,2,36,8|0|0,1:0|2:0|2:0,2:0:0:0:
268,223,136452,5,2,1:0:0:0:
268,223,136539,2,0,L|121:197,1,144,0|0,2:0|2:0,2:0:0:0:
126,197,136799,1,0,1:0:0:0:
240,88,136972,6,0,B|278:120|285:188|213:211|203:191|193:186|132:201|124:283|179:315,1,288,8|4,1:0|1:2,2:0:0:0:
408,368,137493,5,2,2:0:0:0:
408,368,137579,1,2,2:0:0:0:
408,368,137666,2,0,P|404:293|337:273,1,144,2|0,1:0|2:0,2:0:0:0:
334,280,137926,1,2,1:3:0:0:
477,206,138100,5,0,2:0:0:0:
477,206,138186,2,0,P|461:244|418:256,1,72,2|0,1:2|2:0,2:0:0:0:
280,208,138360,1,2,1:3:0:0:
312,379,138533,6,0,P|367:248|352:128,1,216,2|0,1:0|2:0,2:0:0:0:
359,163,138880,1,0,1:0:0:0:
272,0,139053,2,0,B|252:12|252:12|272:80,1,72,8|0,0:0|0:0,0:0:0:0:
380,64,139227,6,0,B|272:46|272:46|270:49|270:49|168:32,1,216,2|0,1:0|0:0,0:0:0:0:
152,28,139574,1,0,1:0:0:0:
24,184,139747,5,8,1:3:0:0:
12,216,139834,1,8,1:3:0:0:
20,252,139920,1,4,1:3:0:0:
40,280,140007,1,4,1:3:0:0:
72,291,140094,2,0,P|166:247|273:229,1,202.5,4|0,1:2|2:0,2:0:0:0:
342,38,140441,5,2,1:0:0:0:
342,38,140527,2,0,P|262:78|278:142,1,135,2|0,2:0|1:3,2:0:0:0:
267,123,140787,2,0,P|299:130|320:164,2,67.5,2|2|2,2:3|1:2|3:0,2:0:0:0:
416,80,141134,1,0,1:0:0:0:
167,255,141308,6,0,P|295:298|429:296,1,270,2|0,1:0|1:0,2:0:0:0:
429,296,141828,2,0,P|432:275|445:250,2,33.75,8|0|0,1:0|2:0|2:0,2:0:0:0:
287,383,142001,6,0,P|272:282|235:189,1,202.5,2|0,1:0|2:0,2:0:0:0:
295,54,142348,1,2,1:2:0:0:
295,54,142435,1,0,2:0:0:0:
295,54,142522,2,0,P|289:94|262:116,1,67.5,2|2,2:0|2:0,2:0:0:0:
372,222,142695,2,0,P|353:194|322:181,1,67.5,2|2,2:0|2:0,2:0:0:0:
201,58,142868,6,0,P|139:84|71:101,1,135,0|2,1:0|2:0,2:0:0:0:
73,100,143129,1,0,2:0:0:0:
73,100,143215,2,0,P|66:137|54:172,1,67.5,8|0,1:0|2:0,2:0:0:0:
203,249,143389,2,0,P|185:184|139:161,1,108,0|0,1:0|2:0,2:0:0:0:
153,164,143649,1,0,2:0:0:0:
153,164,143735,2,0,P|189:156|212:133,1,54,0|0,1:0|2:0,2:0:0:0:
295,54,143909,1,8,1:0:0:0:
462,223,144082,6,0,P|348:212|287:129,1,202.5,0|0,1:0|2:0,2:0:0:0:
288,142,144429,1,0,1:0:0:0:
384,46,144602,2,0,P|381:79|364:108,1,67.5,8|0,1:0|2:0,2:0:0:0:
224,232,144776,5,0,1:0:0:0:
224,232,144863,1,0,1:0:0:0:
224,232,144949,1,0,1:0:0:0:
376,312,145123,1,0,1:0:0:0:
363,217,145296,6,0,P|322:233|308:264,1,58.5,8|0,1:0|2:0,2:0:0:0:
203,316,145470,2,0,P|170:304|148:275,1,58.5,0|0,1:0|2:0,2:0:0:0:
166,24,145643,6,0,P|201:118|223:231,1,216,4|0,1:2|2:0,2:0:0:0:
264,252,145990,1,2,1:0:0:0:
314,243,146076,1,0,1:0:0:0:
392,300,146250,1,2,1:3:0:0:
480,276,146423,1,2,1:2:0:0:
508,188,146597,1,2,3:0:0:0:
508,188,146683,2,0,P|504:148|476:112,1,72,0|0,1:0|2:0,2:0:0:0:
384,46,146857,6,0,P|307:114|189:114,1,216,2|0,1:0|2:0,2:0:0:0:
184,108,147204,1,0,1:0:0:0:
286,211,147377,1,8,1:0:0:0:
176,8,147550,6,0,P|159:129|144:221,1,216,2|0,1:0|2:0,2:0:0:0:
145,232,147897,1,0,1:0:0:0:
128,352,148071,6,0,B|155:253|39:181|-36:246|-22:309|41:323|62:272,1,288,8|4,1:0|1:2,2:0:0:0:
286,211,148591,5,2,2:0:0:0:
286,211,148678,1,2,2:0:0:0:
286,211,148764,2,0,B|339:223|390:177|341:159|409:115|471:135,1,216,2|2,1:0|1:3,2:0:0:0:
476,140,149111,2,0,B|439:162|445:208,1,72,0|2,2:0|2:0,2:0:0:0:
409,321,149285,5,2,3:0:0:0:
408,315,149371,1,2,3:0:0:0:
406,309,149458,2,0,L|391:262,1,45,2|0,2:0|2:0,2:0:0:0:
448,208,149631,6,0,B|376:243|304:184|320:169|337:154|265:93|180:148,1,288,2|0,1:0|1:0,2:0:0:0:
5,253,150152,5,10,2:3:0:0:
38,225,150238,1,2,2:3:0:0:
81,221,150325,1,2,1:0:0:0:
119,240,150412,1,2,2:3:0:0:
135,279,150498,2,0,P|117:309|113:358,1,72,2|2,2:3|2:3,2:0:0:0:
202,380,150672,2,0,P|220:350|224:301,1,72,2|2,1:3|3:0,2:0:0:0:
38,225,150845,5,8,1:3:0:0:
81,221,150932,1,8,1:3:0:0:
119,201,151019,1,4,1:3:0:0:
145,167,151105,1,4,1:3:0:0:
154,124,151192,6,0,B|210:109|210:109|287:249|287:249|341:237,1,270,4|0,1:2|2:0,2:0:0:0:
357,151,151539,5,2,1:0:0:0:
357,151,151626,6,0,L|135:211,1,229.5,2|2,2:0|3:0,2:0:0:0:
76,84,152059,5,2,3:0:0:0:
73,77,152146,1,0,2:0:0:0:
70,70,152233,2,0,B|80:35|80:35|122:44,1,76.5,0|0,1:0|2:0,2:0:0:0:
264,24,152406,6,0,L|200:344,1,306,2|0,1:0|1:0,2:0:0:0:
130,374,152839,1,0,2:0:0:0:
130,374,152926,2,0,P|124:356|109:334,2,38.25,8|2|2,1:0|2:0|2:0,2:0:0:0:
312,191,153100,6,0,P|237:258|136:258,1,202.5,2|0,1:0|2:0,2:0:0:0:
133,253,153446,1,2,1:2:0:0:
352,368,153620,5,2,2:0:0:0:
368,340,153707,1,2,2:0:0:0:
400,324,153793,1,2,2:0:0:0:
436,324,153880,1,2,2:0:0:0:
462,337,153967,1,0,1:0:0:0:
500,260,154140,2,0,P|502:223|486:193,2,67.5,2|0|8,2:0|2:0|1:0,2:0:0:0:
312,191,154487,6,0,P|329:110|343:13,1,162,0|0,1:0|2:0,2:0:0:0:
340,31,154834,1,0,1:0:0:0:
461,65,155007,2,0,P|436:95|409:98,1,54,8|0,1:0|2:0,2:0:0:0:
119,11,155181,6,0,P|213:38|236:143,1,202.5,0|0,1:0|2:0,2:0:0:0:
235,139,155527,1,0,1:0:0:0:
413,220,155701,2,0,P|344:242|325:305,1,135,8|0,1:0|1:0,2:0:0:0:
327,305,155961,1,0,1:0:0:0:
332,313,156048,2,0,P|310:352|269:361,2,67.5,0|0|0,1:0|2:0|1:0,2:0:0:0:
155,112,156394,6,0,P|168:195|247:223,1,175.5,8|0,1:0|2:0,2:0:0:0:
247,223,156741,6,0,L|368:190,1,126,2|0,1:0|2:0,2:0:0:0:
401,212,157001,1,0,2:0:0:0:
440,204,157088,1,0,1:0:0:0:
379,370,157261,1,0,1:0:0:0:
367,332,157348,1,0,1:0:0:0:
332,313,157435,2,0,L|129:372,1,189,8|0,1:0|2:0,2:0:0:0:
97,232,157782,5,0,1:0:0:0:
97,232,157868,1,0,2:0:0:0:
97,232,157955,2,0,P|190:240|227:325,1,189,2|0,1:0|2:0,2:0:0:0:
227,318,158302,1,0,1:0:0:0:
312,168,158475,2,0,P|226:183|200:234,1,126,8|2,1:0|2:0,2:0:0:0:
19,27,158822,6,0,P|41:53|78:60,3,63,2|0|0|0,1:0|2:0|1:0|2:0,2:0:0:0:
136,120,159169,1,2,2:3:0:0:
159,111,159256,1,2,2:3:0:0:
179,97,159342,1,10,2:3:0:0:
193,71,159429,1,10,2:3:0:0:
198,44,159516,1,2,1:0:0:0:
56,192,159689,6,0,P|98:206|119:239,1,63,4|0,2:0|2:0,2:0:0:0:
114,226,159863,2,0,P|218:202|277:131,1,189,2|0,1:2|1:0,2:0:0:0:
392,0,160209,6,0,P|374:57|363:128,1,126,8|0,1:0|1:0,2:0:0:0:
448,104,160470,1,0,2:0:0:0:
448,104,160556,2,0,P|452:72|462:42,1,63,0|0,1:0|2:0,2:0:0:0:
271,143,160730,6,0,B|329:122|329:122|407:223|407:223|473:198,1,252,2|0,1:0|1:0,2:0:0:0:
501,282,161163,1,0,2:0:0:0:
501,282,161250,2,0,L|296:253,1,189,8|0,1:0|1:0,2:0:0:0:
226,295,161597,6,0,P|230:325|247:352,3,63,2|0|0|0,1:0|2:0|1:0|2:0,2:0:0:0:
325,325,161944,2,0,P|320:294|303:267,3,63,2|2|10|10,1:3|1:3|1:3|1:3,2:0:0:0:
144,246,162290,6,0,P|57:229|16:118,1,189,2|2,1:0|2:0,2:0:0:0:
195,14,162637,2,0,P|111:81|117:173,1,189,2|0,1:2|1:0,2:0:0:0:
109,156,162984,1,8,1:0:0:0:
247,352,163157,5,0,1:0:0:0:
247,352,163244,1,0,2:0:0:0:
247,352,163331,2,0,P|233:318|222:266,1,63,0|0,1:0|2:0,2:0:0:0:
309,120,163504,6,0,P|397:122|437:222,1,189,2|0,1:0|2:0,2:0:0:0:
439,203,163851,1,0,1:0:0:0:
456,87,164024,6,0,P|438:112|414:122,2,31.5,8|0|0,1:0|2:0|2:0,2:0:0:0:
354,196,164198,1,2,2:0:0:0:
258,5,164371,6,0,P|297:78|309:124,1,126,2|0,1:0|1:0,2:0:0:0:
311,289,164718,1,2,2:3:0:0:
279,293,164805,1,2,1:3:0:0:
250,304,164892,1,10,1:3:0:0:
224,321,164978,1,10,1:3:0:0:
202,344,165065,1,2,1:0:0:0:
57,216,165238,5,2,2:0:0:0:
57,216,165325,1,2,2:0:0:0:
57,216,165412,2,0,P|124:219|175:304,1,126,2|0,1:2|1:0,2:0:0:0:
258,67,165759,2,0,P|221:123|122:125,1,126,8|0,1:0|1:0,2:0:0:0:
158,134,166019,1,0,2:0:0:0:
152,124,166105,2,0,P|164:97|161:57,1,63,0|0,1:0|2:0,2:0:0:0:
264,216,166279,6,0,P|343:155|453:140,1,189,2|0,1:0|2:0,2:0:0:0:
440,142,166626,1,0,1:0:0:0:
504,68,166799,2,0,L|496:32,2,31.5,8|0|0,1:0|2:0|2:0,2:0:0:0:
464,224,166972,1,0,2:0:0:0:
464,224,167059,1,0,1:0:0:0:
464,224,167146,2,0,B|379:246|343:187|348:176|354:164|312:103|226:139,1,270,2|2,1:0|1:3,2:0:0:0:
166,75,167579,1,2,1:3:0:0:
169,69,167666,2,0,L|180:12,1,45,10|10,1:3|1:3,2:0:0:0:
262,8,167839,6,0,B|255:64|255:64|120:130|120:130|103:218,1,256.5,2|0,1:0|2:0,2:0:0:0:
57,237,168186,6,0,P|116:231|157:299,1,135,0|0,1:0|1:0,2:0:0:0:
161,293,168446,1,0,1:0:0:0:
169,292,168533,2,0,P|198:261|195:232,1,67.5,8|0,1:0|2:0,2:0:0:0:
233,136,168707,1,0,1:0:0:0:
320,338,168880,5,0,1:0:0:0:
320,338,168967,1,0,2:0:0:0:
320,338,169053,2,0,B|346:293|404:265|468:280|468:280|437:333,1,202.5,2|0,1:0|2:0,2:0:0:0:
447,315,169400,1,0,1:0:0:0:
390,161,169574,6,0,P|397:145|401:129,2,33.75,8|2|2,1:0|2:0|2:0,2:0:0:0:
333,225,169747,2,0,P|315:201|305:163,1,67.5,0|0,2:0|1:0,2:0:0:0:
352,16,169920,1,2,1:0:0:0:
456,40,170094,5,0,1:0:0:0:
456,40,170181,1,0,2:0:0:0:
456,40,170267,2,0,P|352:64|256:96,1,202.5,2|10,1:3|1:3,2:0:0:0:
261,94,170614,1,2,1:0:0:0:
122,13,170787,5,2,2:0:0:0:
122,13,170874,1,2,2:0:0:0:
122,13,170961,2,0,P|146:41|146:80,1,67.5,0|0,1:0|2:0,2:0:0:0:
20,87,171134,5,0,1:0:0:0:
20,87,171221,1,0,1:0:0:0:
20,87,171308,2,0,P|125:103|178:196,1,202.5,8|0,1:0|2:0,2:0:0:0:
344,215,171655,5,0,1:0:0:0:
344,215,171741,1,0,2:0:0:0:
344,215,171828,2,0,P|244:235|189:345,1,202.5,2|2,1:0|2:0,2:0:0:0:
191,314,172175,1,2,1:2:0:0:
137,384,172348,2,0,P|116:363|126:303,1,67.5,8|0,1:0|2:0,2:0:0:0:
312,312,172522,5,2,2:0:0:0:
312,312,172608,1,2,1:2:0:0:
312,312,172695,2,0,P|377:338|448:343,1,135,2|0,1:0|1:0,2:0:0:0:
441,343,172955,1,0,2:0:0:0:
441,343,173042,2,0,P|403:353|375:375,3,67.5,2|2|10|10,1:3|1:3|1:3|1:3,2:0:0:0:
500,167,173389,6,0,L|307:224,1,162,2|0,1:0|2:0,2:0:0:0:
344,212,173735,1,0,1:0:0:0:
393,66,173909,2,0,L|375:126,2,54,2|0|8,1:0|2:0|1:0,2:0:0:0:
282,144,174256,1,0,1:0:0:0:
244,294,174429,6,0,L|263:219,1,54,0|0,1:0|2:0,2:0:0:0:
102,154,174602,2,0,B|144:185|144:185|216:166,1,108,2|0,1:0|2:0,2:0:0:0:
197,170,174863,1,0,2:0:0:0:
197,170,174949,1,0,1:0:0:0:
413,107,175123,6,0,B|361:143|361:143|344:212,1,135,8|0,1:0|2:0,2:0:0:0:
416,264,175383,1,0,1:0:0:0:
416,264,175470,2,0,L|497:238,2,67.5,2|0|0,1:0|2:0|1:0,2:0:0:0:
288,384,175816,5,2,1:2:0:0:
280,346,175903,1,2,1:2:0:0:
260,311,175990,1,2,1:2:0:0:
229,288,176076,1,2,1:2:0:0:
190,282,176163,6,0,P|192:259|202:239,3,45,2|2|2|2,1:3|2:3|2:3|2:3,2:0:0:0:
276,170,176510,2,0,P|273:147|263:127,3,45,2|2|2|2,1:3|2:3|2:3|2:3,2:0:0:0:
152,28,176857,5,10,1:3:0:0:
139,30,176944,1,10,2:3:0:0:
130,32,177030,1,10,2:3:0:0:
120,34,177117,1,10,2:3:0:0:
82,20,177204,5,4,1:3:0:0:
41,53,177290,1,4,2:3:0:0:
28,97,177377,1,4,2:3:0:0:
46,147,177464,1,4,2:3:0:0:
89,174,177550,6,0,P|121:147|160:146,1,67.5,0|0,1:0|2:0,2:0:0:0:
240,24,177724,2,0,P|216:47|208:88,1,67.5,0|0,1:0|2:0,2:0:0:0:
280,286,177897,6,0,P|259:214|225:155,1,135,8|0,1:0|1:2,2:0:0:0:
229,161,178157,1,0,2:0:0:0:
229,161,178244,1,0,1:0:0:0:
296,89,178418,1,0,1:0:0:0:
400,151,178591,2,0,P|359:163|332:175,1,67.5,2|0,1:0|2:0,2:0:0:0:
480,48,178764,2,0,P|449:33|416:25,1,67.5,0|0,2:0|2:0,2:0:0:0:
512,208,178938,6,0,P|458:249|447:327,1,135,2|2,1:0|2:0,2:0:0:0:
448,318,179198,1,0,2:0:0:0:
454,325,179285,2,0,P|498:345|505:374,1,67.5,8|0,2:1|2:0,2:0:0:0:
352,265,179458,5,2,1:2:0:0:
352,265,179545,2,0,L|224:305,1,135,2|0,2:0|2:0,2:0:0:0:
213,301,179805,1,2,1:2:0:0:
244,148,179978,2,0,P|266:185|267:223,1,67.5,8|0,2:1|2:0,2:0:0:0:
156,360,180152,2,0,P|134:323|133:285,1,67.5,2|0,2:0|2:0,2:0:0:0:
41,192,180325,6,0,P|111:216|176:212,1,135,2|2,1:0|2:0,2:0:0:0:
171,213,180585,1,0,2:0:0:0:
171,213,180672,1,8,2:1:0:0:
151,124,180845,5,2,1:2:0:0:
151,124,180932,1,2,2:0:0:0:
151,124,181019,2,0,P|136:90|138:54,2,67.5,2|0|2,2:0|2:0|1:2,2:0:0:0:
283,44,181366,2,0,P|239:58|211:80,1,67.5,8|0,2:1|2:0,2:0:0:0:
288,160,181539,2,0,P|284:138|275:120,2,33.75,2|0|0,2:0|2:0|2:0,2:0:0:0:
400,8,181712,6,0,P|379:62|370:120,1,117,2|2,1:0|2:0,2:0:0:0:
171,213,182059,6,0,P|266:240|325:320,1,202.5,8|0,2:1|2:0,2:0:0:0:
398,278,182406,1,2,2:0:0:0:
398,278,182493,1,2,2:0:0:0:
398,278,182579,2,0,P|410:245|412:221,1,58.5,2|0,1:2|2:0,2:0:0:0:
288,160,182753,1,8,2:1:0:0:
455,120,182926,2,0,L|483:112,2,29.25,2|0|0,2:0|2:0|2:0,2:0:0:0:
335,10,183100,6,0,P|366:85|370:130,1,117,2|2,1:0|2:0,2:0:0:0:
369,120,183360,1,2,2:0:0:0:
369,120,183446,1,8,2:1:0:0:
227,327,183620,5,2,1:2:0:0:
227,327,183707,1,0,2:0:0:0:
227,327,183793,2,0,P|201:280|200:257,1,58.5,2|2,2:0|2:0,2:0:0:0:
300,209,183967,2,0,P|286:237|280:279,1,58.5,2|0,1:2|2:0,2:0:0:0:
395,384,184140,6,0,L|365:265,1,117,8|2,2:1|2:0,2:0:0:0:
366,270,184400,1,0,2:0:0:0:
366,270,184487,1,2,1:0:0:0:
205,193,184660,1,2,2:0:0:0:
393,137,184834,2,0,P|351:196|279:212,1,117,8|2,2:1|1:2,2:0:0:0:
300,209,185094,1,0,2:0:0:0:
287,201,185181,2,0,P|283:165|265:138,1,58.5,2|2,2:0|2:0,2:0:0:0:
325,68,185354,1,2,1:2:0:0:
151,175,185527,6,0,P|179:177|204:192,1,58.5,8|0,2:1|2:0,2:0:0:0:
159,286,185701,2,0,L|149:248,2,29.25,2|0|0,2:0|2:0|2:0,2:0:0:0:
56,153,185874,6,0,P|14:93|8:42,1,117,2|2,1:0|2:0,2:0:0:0:
7,50,186134,1,0,2:0:0:0:
7,50,186221,1,8,2:1:0:0:
123,18,186394,1,2,1:2:0:0:
123,18,186481,1,2,2:0:0:0:
123,18,186568,2,0,P|110:48|106:80,2,58.5,2|0|2,2:0|2:0|1:2,2:0:0:0:
0,224,186915,6,0,P|29:237|48:258,1,58.5,8|0,2:1|2:0,2:0:0:0:
151,175,187088,2,0,L|155:146,2,29.25,2|0|0,2:0|2:0|2:0,2:0:0:0:
159,286,187261,6,0,P|230:265|263:237,1,117,2|2,1:0|2:0,2:0:0:0:
262,237,187522,1,2,2:0:0:0:
262,237,187608,1,8,2:1:0:0:
308,384,187782,5,2,1:2:0:0:
308,384,187868,1,0,2:0:0:0:
308,384,187955,2,0,P|293:341|294:310,2,58.5,2|0|2,2:0|2:0|1:2,2:0:0:0:
424,224,188302,6,0,P|396:288|388:344,1,117,8|2,2:1|2:0,2:0:0:0:
388,334,188562,1,0,2:0:0:0:
388,334,188649,1,2,1:0:0:0:
205,221,188822,6,0,L|265:237,1,58.5,6|0,2:0|2:0,2:0:0:0:
472,112,188996,2,0,P|418:178|333:185,1,175.5,0|0,2:0|2:0,2:0:0:0:
272,120,189342,5,2,1:0:0:0:
272,120,189429,1,2,2:0:0:0:
272,120,189516,2,0,L|287:56,1,58.5,2|0,1:2|2:0,2:0:0:0:
261,236,189689,5,8,2:1:0:0:
277,258,189776,1,0,2:0:0:0:
287,284,189863,1,2,2:0:0:0:
293,309,189949,1,0,2:0:0:0:
294,336,190036,1,2,1:0:0:0:
152,338,190209,6,0,P|197:315|226:316,1,58.5,2|2,2:0|2:0,2:0:0:0:
334,163,190383,2,0,P|263:211|153:207,1,175.5,8|0,2:1|2:0,2:0:0:0:
99,168,190730,2,0,L|110:114,2,45,2|2|2,2:0|2:0|1:2,2:0:0:0:
184,56,191076,1,8,2:1:0:0:
4,232,191250,5,2,2:0:0:0:
4,232,191337,1,0,2:0:0:0:
4,232,191423,2,0,P|57:248|116:284,1,117,2|2,1:0|2:0,2:0:0:0:
284,79,191770,2,0,P|265:135|259:193,1,117,8|2,2:1|1:2,2:0:0:0:
259,193,192030,1,0,2:0:0:0:
259,193,192117,1,2,2:0:0:0:
381,172,192290,1,2,1:2:0:0:
457,257,192464,2,0,P|503:238|522:224,1,58.5,8|0,2:1|2:0,2:0:0:0:
363,338,192637,2,0,P|358:309|349:281,1,58.5,2|0,2:0|2:0,2:0:0:0:
381,172,192811,6,0,P|399:115|397:57,1,117,2|2,1:0|2:0,2:0:0:0:
397,58,193071,1,0,2:0:0:0:
397,58,193157,1,8,2:1:0:0:
257,95,193331,5,2,1:2:0:0:
257,95,193418,1,2,2:0:0:0:
257,95,193504,2,0,P|298:103|325:126,1,58.5,2|0,2:0|2:0,2:0:0:0:
172,156,193678,1,2,1:2:0:0:
278,237,193851,2,0,P|270:210|257:183,1,58.5,8|0,2:1|2:0,2:0:0:0:
164,65,194024,2,0,L|172:26,2,29.25,2|0|0,2:0|2:0|2:0,2:0:0:0:
42,165,194198,6,0,P|108:176|151:210,1,117,2|2,1:0|2:0,2:0:0:0:
154,208,194458,1,2,2:0:0:0:
161,212,194545,2,0,P|172:181|169:144,1,58.5,8|0,2:1|2:0,2:0:0:0:
360,66,194718,5,2,1:2:0:0:
360,66,194805,1,0,2:0:0:0:
360,66,194892,2,0,L|241:104,1,117,2|2,2:0|1:2,2:0:0:0:
397,178,195238,6,0,L|328:166,1,58.5,8|0,2:1|2:0,2:0:0:0:
461,49,195412,2,0,P|446:83|441:121,1,58.5,2|0,2:0|2:0,2:0:0:0:
492,256,195585,2,0,P|434:271|386:304,1,117,2|0,1:0|2:0,2:0:0:0:
387,302,195845,1,0,2:0:0:0:
387,302,195932,2,0,P|410:328|420:368,1,58.5,8|0,2:1|2:0,2:0:0:0:
272,380,196105,5,2,1:2:0:0:
272,380,196192,1,0,2:0:0:0:
272,380,196279,2,0,P|282:323|289:264,1,117,2|2,2:0|1:2,2:0:0:0:
248,101,196626,1,8,2:1:0:0:
352,148,196799,2,0,P|304:168|272:188,1,58.5,2|2,2:0|2:0,2:0:0:0:
168,15,196972,6,0,P|147:70|140:128,1,117,2|0,1:0|2:0,2:0:0:0:
140,128,197233,1,0,2:0:0:0:
140,128,197319,1,8,2:1:0:0:
4,292,197493,6,0,P|44:300|68:316,1,58.5,2|0,1:2|2:0,2:0:0:0:
105,212,197666,1,2,2:0:0:0:
126,227,197753,1,2,2:0:0:0:
140,254,197839,1,2,1:2:0:0:
256,384,198013,6,0,L|240:326,1,58.5,8|0,2:1|2:0,2:0:0:0:
339,226,198186,2,0,P|341:258|313:279,1,58.5,2|0,2:0|2:0,2:0:0:0:
252,240,198360,6,0,P|235:191|206:133,1,117,2|0,1:0|2:0,2:0:0:0:
205,132,198620,1,0,2:0:0:0:
205,132,198707,1,8,2:1:0:0:
408,112,198880,1,2,1:2:0:0:
399,133,198967,1,2,2:0:0:0:
376,151,199053,1,2,2:0:0:0:
343,157,199140,1,2,2:0:0:0:
320,152,199227,1,2,1:2:0:0:
323,11,199400,6,0,P|333:37|342:74,1,58.5,8|2,2:1|2:0,2:0:0:0:
234,184,199574,2,0,P|244:211|251:240,1,58.5,2|2,2:0|2:0,2:0:0:0:
101,50,199747,6,0,P|170:67|219:86,1,117,2|4,1:0|2:0,2:0:0:0:
212,83,200007,1,0,2:0:0:0:
212,83,200094,1,0,2:0:0:0:
372,72,200267,1,2,1:2:0:0:
363,87,200354,1,0,2:0:0:0:
357,104,200441,1,2,1:0:0:0:
353,120,200527,1,0,1:0:0:0:
350,141,200614,1,2,1:2:0:0:
300,232,200787,6,0,P|328:238|354:251,1,58.5,8|0,2:1|2:0,2:0:0:0:
452,124,200961,2,0,P|453:153|462:180,1,58.5,2|0,1:2|2:0,2:0:0:0:
448,272,201134,5,2,1:0:0:0:
