osu file format v14

[General]
AudioFilename: audio.mp3
AudioLeadIn: 0
PreviewTime:175816
Countdown: 0
SampleSet: Soft
StackLeniency: 0.6
Mode: 0
LetterboxInBreaks: 0
WidescreenStoryboard: 1

[Editor]
Bookmarks:45759,56857,67955,79053,90152,101250,112348,123446,134545,145643,156741,178938,190036,201134
DistanceSpacing: 0.75
BeatDivisor: 4
GridSize: 4
TimelineZoom: 2.1

[Metadata]
Title:Hesperos
TitleUnicode:❂Hesperos❂
Artist:Mysteka
ArtistUnicode:Mysteka
Creator:Acylica
Version:Dailycare's Normal
Source:
Tags:owc2021ro16nm4 electronic instrumental shikibe mayu kazato asa shizuku- zhuxiaoyan frostwich acyl dailycare morinaga synderes down
BeatmapID:3571264
BeatmapSetID:1610294

[Difficulty]
HPDrainRate:5
CircleSize:3.6
OverallDifficulty:5
ApproachRate:5
SliderMultiplier:1.27
SliderTickRate:1

[Events]
//Background and Video events
0,0,"owcbg.jpg",0,0
//Break Periods
2,95901,111148
//Storyboard Layer 0 (Background)
//Storyboard Layer 1 (Fail)
//Storyboard Layer 2 (Pass)
//Storyboard Layer 3 (Foreground)
//Storyboard Layer 4 (Overlay)
//Storyboard Sound Samples

[TimingPoints]
1366,346.820809248555,4,2,1,60,1,0
50961,-100,4,1,2,60,0,0
51048,-100,4,2,1,60,0,0
68302,-100,4,2,12,60,0,0
68475,-100,4,2,1,60,0,0
70036,-100,4,2,11,60,0,0
70123,-100,4,2,1,60,0,0
70383,-100,4,2,13,60,0,0
70426,-100,4,2,1,60,0,0
70730,-100,4,2,12,60,0,0
70816,-100,4,2,1,60,0,0
72811,-100,4,2,11,60,0,0
72897,-100,4,2,1,60,0,0
73504,-100,4,2,12,60,0,0
73678,-100,4,2,1,60,0,0
75585,-100,4,2,13,60,0,0
75672,-100,4,2,1,60,0,0
76279,-100,4,2,14,60,0,0
76452,-100,4,2,1,60,0,0
77666,-100,4,2,14,60,0,0
77753,-100,4,2,1,60,0,0
78013,-100,4,2,13,60,0,0
78100,-100,4,2,1,60,0,0
78707,-100,4,2,13,60,0,0
79053,-100,4,2,12,60,0,0
79140,-100,4,2,1,60,0,0
79574,-100,4,2,11,60,0,0
79660,-100,4,2,1,60,0,0
80094,-100,4,2,13,60,0,0
80181,-100,4,2,1,60,0,0
80614,-100,4,2,12,60,0,0
80701,-100,4,2,1,60,0,0
81134,-100,4,2,12,60,0,0
81221,-100,4,2,1,60,0,0
81481,-100,4,2,11,60,0,0
81568,-100,4,2,1,60,0,0
81828,-100,4,2,12,60,0,0
81915,-100,4,2,1,60,0,0
82348,-100,4,2,11,60,0,0
82522,-100,4,2,1,60,0,0
82868,-100,4,2,15,60,0,0
82955,-100,4,2,1,60,0,0
83389,-100,4,2,14,60,0,0
83475,-100,4,2,1,60,0,0
83909,-100,4,2,14,60,0,0
83996,-100,4,2,1,60,0,0
84256,-100,4,2,11,60,0,0
84342,-100,4,2,1,60,0,0
84602,-100,4,2,12,60,0,0
84689,-100,4,2,1,60,0,0
85123,-100,4,2,11,60,0,0
85296,-100,4,2,1,60,0,0
85643,-100,4,2,13,60,0,0
85730,-100,4,2,1,60,0,0
86163,-100,4,2,12,60,0,0
86337,-100,4,2,1,60,0,0
86683,-100,4,2,12,60,0,0
86770,-100,4,2,1,60,0,0
87030,-100,4,2,11,60,0,0
87117,-100,4,2,1,60,0,0
87377,-100,4,2,12,60,0,0
87550,-100,4,2,1,60,0,0
87897,-100,4,2,11,60,0,0
88071,-100,4,2,1,60,0,0
88418,-100,4,2,15,60,0,0
88504,-100,4,2,1,60,0,0
88938,-100,4,2,14,60,0,0
89024,-100,4,2,1,60,0,0
89458,-100,4,2,14,60,0,0
89545,-100,4,2,1,60,0,0
89805,-100,4,2,11,60,0,0
89892,-100,4,2,1,60,0,0
90152,-100,4,2,15,60,0,0
90238,-100,4,2,1,60,0,0
90498,-100,4,2,1,40,0,0
112348,-100,4,2,1,55,0,0
134892,-100,4,2,12,65,0,0
134978,-100,4,2,1,65,0,0
135759,-100,4,2,14,65,0,0
135845,-100,4,2,1,65,0,0
136452,-100,4,2,15,65,0,0
136539,-100,4,2,1,65,0,0
137666,-100,4,2,12,65,0,0
137839,-100,4,2,1,65,0,0
138533,-100,4,2,15,65,0,0
138620,-100,4,2,1,65,0,0
139227,-100,4,2,17,65,0,0
139313,-100,4,2,1,65,0,0
140441,-100,4,2,13,65,0,0
140614,-100,4,2,1,65,0,0
141308,-100,4,2,15,65,0,0
141394,-100,4,2,1,65,0,0
142001,-100,4,2,18,65,0,0
142088,-100,4,2,1,65,0,0
145990,-100,4,2,12,65,0,0
146076,-100,4,2,1,65,0,0
146857,-100,4,2,14,65,0,0
146944,-100,4,2,1,65,0,0
147550,-100,4,2,15,65,0,0
147897,-100,4,2,1,65,0,0
148764,-100,4,2,12,65,0,0
148938,-100,4,2,1,65,0,0
149631,-100,4,2,15,65,0,0
149718,-100,4,2,1,65,0,0
150325,-100,4,2,17,65,0,0
150412,-100,4,2,1,65,0,0
151539,-100,4,2,13,65,0,0
151712,-100,4,2,1,65,0,0
152406,-100,4,2,15,65,0,0
152493,-100,4,2,1,65,0,0
153100,-100,4,2,18,65,0,0
153186,-100,4,2,1,65,0,0
156741,-100,4,2,12,65,0,0
156828,-100,4,2,1,65,0,0
157955,-100,4,2,17,65,0,0
158042,-100,4,2,1,65,0,0
158822,-100,4,2,16,65,0,0
158909,-100,4,2,1,65,0,0
159516,-100,4,2,12,65,0,0
159602,-100,4,2,1,65,0,0
160730,-100,4,2,18,65,0,0
160816,-100,4,2,1,65,0,0
161597,-100,4,2,17,65,0,0
161683,-100,4,2,1,65,0,0
162290,-100,4,2,13,65,0,0
162377,-100,4,2,1,65,0,0
163504,-100,4,2,13,65,0,0
163591,-100,4,2,1,65,0,0
164371,-100,4,2,18,65,0,0
164458,-100,4,2,1,65,0,0
165065,-100,4,2,17,65,0,0
165152,-100,4,2,1,65,0,0
166279,-100,4,2,17,65,0,0
166366,-100,4,2,1,65,0,0
167146,-100,4,2,16,65,0,0
167233,-100,4,2,1,65,0,0
167839,-100,4,2,12,65,0,0
167926,-100,4,2,1,65,0,0
169053,-100,4,2,17,65,0,0
169140,-100,4,2,1,65,0,0
169920,-100,4,2,16,65,0,0
170007,-100,4,2,1,65,0,0
170614,-100,4,2,12,65,0,0
170701,-100,4,2,1,65,0,0
171828,-100,4,2,18,65,0,0
171915,-100,4,2,1,65,0,0
172695,-100,4,2,17,65,0,0
172782,-100,4,2,1,65,0,0
173389,-100,4,2,13,65,0,0
173475,-100,4,2,1,65,0,0
174602,-100,4,2,13,65,0,0
174689,-100,4,2,1,65,0,0
175470,-100,4,2,18,65,0,0
175556,-100,4,2,1,65,0,0
178591,-100,4,2,2,75,0,0
178678,-100,4,2,1,75,0,0
178938,-100,4,2,12,75,0,0
179024,-100,4,2,1,75,0,0
180325,-100,4,2,11,75,0,0
180412,-100,4,2,1,75,0,0
181019,-100,4,2,1,75,0,0
181105,-100,4,2,1,75,0,0
181712,-100,4,2,13,75,0,0
181799,-100,4,2,1,75,0,0
183100,-100,4,2,14,75,0,0
183186,-100,4,2,1,75,0,0
184487,-100,4,2,12,75,0,0
184574,-100,4,2,1,75,0,0
185874,-100,4,2,11,75,0,0
185961,-100,4,2,1,75,0,0
186568,-100,4,2,1,75,0,0
186655,-100,4,2,1,75,0,0
187261,-100,4,2,15,75,0,0
187348,-100,4,2,1,75,0,0
188649,-100,4,2,14,75,0,0
188735,-100,4,2,1,75,0,0
189342,-100,4,2,13,75,0,0
189429,-100,4,2,1,75,0,0
190036,-100,4,2,13,75,0,0
190123,-100,4,2,1,75,0,0
191423,-100,4,2,12,75,0,0
191510,-100,4,2,1,75,0,0
192117,-100,4,2,1,75,0,0
192204,-100,4,2,1,75,0,0
192811,-100,4,2,15,75,0,0
192897,-100,4,2,1,75,0,0
194198,-100,4,2,14,75,0,0
194285,-100,4,2,1,75,0,0
194892,-100,4,2,1,75,0,0
194978,-100,4,2,1,75,0,0
195585,-100,4,2,11,75,0,0
195672,-100,4,2,1,75,0,0
196972,-100,4,2,12,75,0,0
197059,-100,4,2,1,75,0,0
197666,-100,4,2,1,75,0,0
197753,-100,4,2,1,75,0,0
198360,-100,4,2,15,75,0,0
198446,-100,4,2,1,75,0,0
199747,-100,4,2,14,75,0,0
199834,-100,4,2,1,75,0,0
200441,-100,4,2,13,75,0,0
200527,-100,4,2,1,75,0,0
201134,-100,4,2,12,75,0,0
201221,-100,4,2,1,75,0,0

[Colours]
Combo1 : 155,232,238
Combo2 : 231,88,152
Combo3 : 232,149,211
Combo4 : 175,131,231
Combo5 : 132,134,232
Combo6 : 84,182,228

[HitObjects]
112,184,45759,6,0,P|187:250|163:350,2,190.5,4|4|12,1:2|1:2|0:0,0:0:0:0:
22,151,47146,6,0,P|42:117|146:92,1,127,2|8,1:2|2:1,0:0:0:0:
158,57,47666,1,2,1:2:0:0:
212,135,48013,2,0,P|259:146|284:175,1,63.5,2|8,1:0|1:0,0:0:0:0:
297,194,48360,1,2,1:0:0:0:
344,189,48533,6,0,P|352:100|366:-6,2,190.5,4|4|12,1:2|1:2|0:0,0:0:0:0:
291,268,49920,6,0,P|313:326|371:353,1,127,2|8,1:2|2:1,0:0:0:0:
410,377,50441,2,0,P|465:350|487:292,1,127,2|10,1:2|1:0,0:0:0:0:
509,249,50961,2,0,P|505:217|505:168,1,63.5,2|0,0:0|0:0,0:0:0:0:
462,163,51308,6,0,P|444:99|541:13,2,190.5,4|4|12,1:2|1:2|0:0,0:0:0:0:
407,240,52695,6,0,P|372:202|280:220,1,127,2|8,1:2|2:1,0:0:0:0:
253,195,53215,1,2,1:2:0:0:
161,222,53562,2,0,P|130:215|107:193,1,63.5,2|8,1:0|1:0,0:0:0:0:
104,146,53909,1,2,1:0:0:0:
132,108,54082,6,0,P|114:42|3:21,2,190.5,4|4|12,1:2|1:2|0:0,0:0:0:0:
36,112,55470,6,0,P|-10:157|-1:232,1,127,2|8,1:2|2:1,0:0:0:0:
13,257,55990,2,0,P|51:263|95:275,1,63.5,2|2,1:2|0:0,0:0:0:0:
107,304,56337,2,0,P|164:282|189:225,1,127,2|2,1:0|1:0,0:0:0:0:
223,191,56857,5,4,1:2:0:0:
313,160,57204,1,2,1:2:0:0:
240,98,57550,1,2,1:2:0:0:
327,60,57897,6,0,P|366:56|402:47,1,63.5,2|2,1:2|1:2,0:0:0:0:
431,28,58244,1,2,1:2:0:0:
497,96,58591,2,0,P|460:135|467:219,1,127,2|2,1:2|1:2,0:0:0:0:
429,241,59111,1,2,3:2:0:0:
429,241,59285,2,0,P|459:258|482:302,1,63.5,2|2,1:2|1:2,0:0:0:0:
471,328,59631,5,2,1:2:0:0:
387,374,59978,1,2,1:2:0:0:
296,343,60325,1,2,1:2:0:0:
261,254,60672,1,2,1:2:0:0:
289,163,61019,6,0,P|296:110|231:52,1,127,2|2,1:2|1:2,0:0:0:0:
225,22,61539,1,2,3:2:0:0:
225,22,61712,2,0,P|191:32|152:34,1,63.5,2|2,1:2|3:2,0:0:0:0:
128,67,62059,1,2,1:2:0:0:
33,57,62406,6,0,P|24:90|45:130,1,63.5,2|2,1:2|1:2,0:0:0:0:
24,164,62753,2,0,P|43:192|86:202,1,63.5,2|2,1:2|1:2,0:0:0:0:
98,240,63100,2,0,P|131:244|168:217,1,63.5,2|2,1:2|1:2,0:0:0:0:
204,227,63446,1,2,1:2:0:0:
293,194,63793,6,0,P|284:161|305:120,1,63.5,2|2,1:2|1:2,0:0:0:0:
284,87,64140,2,0,P|303:58|346:48,1,63.5,2|2,1:2|1:2,0:0:0:0:
358,12,64487,2,0,P|391:7|428:34,1,63.5,2|2,1:2|1:2,0:0:0:0:
464,24,64833,1,2,1:2:0:0:
507,109,65181,5,2,1:2:0:0:
256,192,65267,12,2,66568,1:2:0:0:
507,109,67955,6,0,L|355:88,1,127,4|2,1:2|1:0,0:0:0:0:
289,94,68649,5,0,1:0:0:0:
289,94,68822,2,0,P|300:50|294:12,2,63.5,2|8|2,2:3|0:1|2:3,0:0:0:0:
301,140,69342,2,0,P|276:190|218:242,1,127,0|8,1:0|0:1,0:0:0:0:
215,285,69863,1,2,2:3:0:0:
192,327,70036,2,0,P|123:345|49:337,1,127,2|2,1:0|1:0,0:0:0:0:
5,268,70730,6,0,L|23:125,1,127,2|4,1:0|2:0,0:0:0:0:
76,65,71423,5,0,1:0:0:0:
76,65,71597,2,0,P|46:51|3:48,2,63.5,2|8|2,2:3|0:1|2:3,0:0:0:0:
119,46,72117,2,0,P|185:75|235:129,1,127,0|8,1:0|0:1,0:0:0:0:
271,112,72637,1,2,2:3:0:0:
301,149,72811,1,2,1:0:0:0:
344,167,72984,2,0,P|409:160|483:120,1,127,2|2,0:0|1:3,0:0:0:0:
507,116,73504,6,0,L|489:259,1,127,2|4,1:0|0:2,0:0:0:0:
444,326,74198,5,2,1:3:0:0:
444,326,74371,2,0,P|382:321|313:262,1,127,0|2,0:0|1:3,0:0:0:0:
281,290,74892,2,0,P|261:259|255:217,1,63.5,0|2,1:0|2:3,0:0:0:0:
215,207,75238,2,0,P|202:141|220:76,1,127,8|2,0:1|1:0,0:0:0:0:
201,38,75759,2,0,L|339:52,1,127,2|2,0:0|1:3,0:0:0:0:
361,84,76279,6,0,L|446:76,2,63.5,2|0|4,1:0|0:0|0:2,0:0:0:0:
284,140,76972,1,0,1:0:0:0:
241,144,77146,2,0,L|103:158,1,127,2|2,2:3|2:3,0:0:0:0:
82,191,77666,1,2,1:0:0:0:
154,252,78013,6,0,L|262:265,2,95.25,2|8|8,1:0|1:0|1:0,0:0:0:0:
123,288,78707,1,10,2:1:0:0:
160,375,79053,6,0,P|210:351|298:352,1,127,2|8,1:0|1:0,0:0:0:0:
327,360,79574,2,0,L|351:214,1,127,2|2,2:1|1:2,0:0:0:0:
354,188,80094,1,10,2:1:0:0:
261,163,80441,2,0,L|275:85,1,63.5,2|2,1:2|2:1,0:0:0:0:
304,65,80787,2,0,L|158:89,1,127,8|2,1:0|1:1,0:0:0:0:
169,132,81308,1,0,0:0:0:0:
159,178,81481,2,0,L|96:189,1,63.5,10|10,2:1|0:3,0:0:0:0:
49,197,81828,6,0,P|11:136|28:73,1,127,2|8,1:0|1:0,0:0:0:0:
15,37,82348,2,0,L|161:61,1,127,2|2,2:1|1:2,0:0:0:0:
178,85,82868,1,10,2:1:0:0:
258,34,83215,2,0,L|321:45,1,63.5,2|2,1:2|2:1,0:0:0:0:
357,74,83562,2,0,L|368:137,1,63.5,8|2,1:0|0:0,0:0:0:0:
410,158,83909,1,2,1:1:0:0:
453,138,84082,2,0,L|477:284,1,127,2|10,1:2|0:3,0:0:0:0:
503,300,84602,6,1,P|473:335|369:339,1,127,2|8,1:0|1:0,0:0:0:0:
353,327,85123,2,1,L|207:351,1,127,2|2,2:1|1:2,0:0:0:0:
186,323,85643,1,10,2:1:0:0:
255,258,85990,2,0,L|266:195,1,63.5,2|2,1:2|2:1,0:0:0:0:
221,176,86337,2,0,L|75:200,1,127,8|2,1:0|1:1,0:0:0:0:
54,172,86857,1,2,1:2:0:0:
7,181,87030,1,10,2:1:0:0:
17,86,87377,6,0,P|69:55|149:73,1,127,2|8,1:0|1:0,0:0:0:0:
139,110,87897,2,0,P|186:147|198:228,1,127,2|2,0:1|1:2,0:0:0:0:
176,250,88418,1,10,2:1:0:0:
225,325,88764,1,2,1:2:0:0:
253,363,88938,2,0,P|344:358|372:314,1,127,2|2,2:1|1:2,0:0:0:0:
408,350,89458,2,0,P|455:271|428:222,2,127,2|10|10,2:1|2:1|2:1,0:0:0:0:
256,192,90238,12,2,95701,3:0:0:0:
415,115,112348,6,0,P|363:116|312:184,1,127,2|2,1:3|0:0,0:0:0:0:
311,216,112868,1,2,1:2:0:0:
311,216,113042,2,0,P|337:237|345:287,1,63.5,2|2,0:0|0:0,0:0:0:0:
336,311,113389,2,0,L|186:277,1,127,2|2,1:2|1:3,0:0:0:0:
200,236,113909,2,0,L|76:264,1,127,2|2,0:1|1:2,0:0:0:0:
32,245,114429,5,2,0:0:0:0:
54,152,114776,2,0,L|-7:110,2,63.5,2|2|2,1:2|0:0|1:3,0:0:0:0:
126,89,115470,2,0,L|106:17,2,63.5,2|2|2,0:0|1:2|0:0,0:0:0:0:
172,79,115990,2,0,L|295:107,1,127,2|2,0:0|0:0,0:0:0:0:
340,89,116510,1,2,1:3:0:0:
428,53,116857,6,0,L|447:124,1,63.5,2|2,0:0|1:2,0:0:0:0:
483,142,117204,1,2,0:0:0:0:
483,142,117377,2,0,P|428:166|401:237,1,127,2|2,0:0|0:0,0:0:0:0:
353,218,117897,6,0,P|307:265|228:260,1,127,2|2,1:3|0:0,0:0:0:0:
208,252,118418,1,2,1:2:0:0:
208,252,118591,2,0,P|205:209|186:173,1,63.5,2|2,0:0|0:0,0:0:0:0:
219,148,118938,2,0,L|91:122,1,127,2|2,1:2|1:3,0:0:0:0:
59,90,119458,2,0,L|-6:201,1,127,2|2,0:1|1:2,0:0:0:0:
12,244,119978,5,2,0:0:0:0:
89,299,120325,2,0,L|103:383,2,63.5,2|2|2,1:2|0:0|1:3,0:0:0:0:
182,320,121019,2,0,L|232:394,2,63.5,2|2|2,0:0|1:2|0:0,0:0:0:0:
221,292,121539,2,0,L|246:139,1,127,2|2,0:0|0:0,0:0:0:0:
284,145,122059,5,2,1:3:0:0:
272,98,122233,2,0,P|312:70|401:86,1,127,2|2,0:1|1:2,0:0:0:0:
430,96,122753,2,0,P|438:38|451:-23,2,95.25,2|0|2,0:0|0:0|0:0,0:0:0:0:
423,143,123446,5,4,1:2:0:0:
489,210,123793,1,2,1:2:0:0:
442,293,124140,2,0,P|414:306|357:287,1,63.5,2|2,1:2|3:2,0:0:0:0:
345,272,124487,1,2,1:2:0:0:
257,310,124834,2,0,P|235:288|233:228,1,63.5,2|2,1:2|3:2,0:0:0:0:
192,224,125181,2,0,P|194:193|239:153,1,63.5,2|2,1:2|3:2,0:0:0:0:
211,119,125527,1,2,1:2:0:0:
244,85,125701,2,0,P|219:37|125:26,1,127,2|2,3:2|1:2,0:0:0:0:
104,14,126221,5,2,1:2:0:0:
23,65,126568,1,2,1:2:0:0:
3,158,126915,1,2,1:2:0:0:
32,248,127261,1,2,1:2:0:0:
118,288,127608,1,2,1:2:0:0:
212,277,127955,2,0,L|225:204,1,63.5,2|2,1:2|3:2,0:0:0:0:
268,200,128302,2,0,L|281:127,1,63.5,2|2,1:2|3:2,0:0:0:0:
274,92,128649,1,2,1:2:0:0:
362,56,128996,6,0,P|390:75|399:119,1,63.5,2|2,1:2|1:2,0:0:0:0:
437,132,129343,2,0,P|440:165|413:200,1,63.5,2|2,1:2|1:2,0:0:0:0:
429,238,129690,2,0,P|406:262|360:265,1,63.5,2|2,1:2|1:2,0:0:0:0:
340,296,130036,1,2,1:2:0:0:
268,359,130383,6,0,P|233:362|198:334,1,63.5,2|2,1:2|1:2,0:0:0:0:
161,349,130730,2,0,P|136:325|134:281,1,63.5,2|2,1:2|1:2,0:0:0:0:
99,263,131077,2,0,P|100:229|133:198,1,63.5,2|2,1:2|1:2,0:0:0:0:
130,161,131423,1,2,1:2:0:0:
220,130,131770,5,2,1:2:0:0:
256,192,131857,12,2,133157,1:2:0:0:
220,130,134545,5,4,1:2:0:0:
310,160,134892,6,0,P|309:219|278:264,2,95.25,2|2|0,1:0|1:3|0:0,0:0:0:0:
339,123,135585,1,2,1:0:0:0:
334,75,135759,2,0,P|298:27|209:21,1,127,2|0,1:0|1:0,0:0:0:0:
189,25,136279,1,8,1:0:0:0:
148,0,136452,2,0,P|84:12|41:88,1,127,2|0,1:0|1:0,0:0:0:0:
7,85,136972,2,0,L|32:222,1,127,8|4,1:0|1:2,0:0:0:0:
0,300,137666,6,0,P|33:351|112:364,1,127,2|0,1:0|1:0,0:0:0:0:
130,336,138186,2,0,L|206:344,1,63.5,2|2,1:2|1:3,0:0:0:0:
237,360,138533,2,0,P|292:342|324:281,1,127,2|0,1:0|1:0,0:0:0:0:
359,252,139053,1,10,0:3:0:0:
341,207,139227,1,2,1:0:0:0:
377,176,139400,2,0,L|370:96,1,63.5,2|2,0:3|1:3,0:0:0:0:
397,72,139747,1,8,1:3:0:0:
466,137,140094,6,0,L|473:217,1,63.5,4|2,1:2|0:0,0:0:0:0:
488,242,140441,1,2,1:0:0:0:
459,332,140787,2,0,P|415:371|338:364,1,127,2|0,0:3|1:0,0:0:0:0:
301,373,141308,2,0,P|244:366|203:295,1,127,2|0,1:0|1:0,0:0:0:0:
174,275,141828,1,8,1:0:0:0:
147,235,142001,2,0,P|138:182|178:119,1,127,2|2,1:0|1:2,0:0:0:0:
215,96,142522,1,2,0:0:0:0:
241,4,142868,6,0,P|275:12|313:15,1,63.5,0|2,1:0|0:0,0:0:0:0:
335,50,143215,1,8,1:0:0:0:
382,43,143389,2,0,P|420:73|419:159,1,127,0|0,1:0|1:0,0:0:0:0:
395,184,143909,1,8,1:0:0:0:
395,184,144082,2,0,P|331:193|263:206,1,127,0|0,1:0|1:0,0:0:0:0:
224,189,144602,2,0,P|214:252|208:281,1,63.5,8|0,1:0|1:0,0:0:0:0:
183,287,144949,1,0,1:0:0:0:
199,331,145123,2,0,P|262:340|291:347,1,63.5,0|8,1:0|1:0,0:0:0:0:
352,369,145643,5,4,1:2:0:0:
390,281,145990,2,0,P|353:273|308:209,2,95.25,2|2|2,1:0|1:3|3:0,0:0:0:0:
431,257,146683,1,0,1:0:0:0:
478,260,146857,2,0,P|516:218|507:131,1,127,2|0,1:0|1:0,0:0:0:0:
482,117,147377,1,8,1:0:0:0:
481,69,147550,2,0,P|448:27|374:18,1,127,2|0,1:0|1:0,0:0:0:0:
346,52,148071,2,0,L|205:89,1,127,8|4,1:0|1:2,0:0:0:0:
138,40,148764,6,0,P|85:47|32:124,1,127,2|0,1:0|0:0,0:0:0:0:
1,132,149285,2,0,L|12:204,1,63.5,2|2,3:0|0:0,0:0:0:0:
1,241,149631,2,0,P|21:289|94:324,1,127,2|0,1:0|1:0,0:0:0:0:
125,349,150152,1,10,0:3:0:0:
167,328,150325,1,2,1:0:0:0:
206,354,150498,2,0,L|288:370,1,63.5,2|2,0:3|1:3,0:0:0:0:
315,358,150845,1,8,1:3:0:0:
359,273,151192,6,0,L|277:257,1,63.5,4|2,1:2|0:0,0:0:0:0:
249,269,151539,1,2,1:0:0:0:
157,243,151886,2,0,P|125:200|134:117,1,127,2|0,3:0|1:0,0:0:0:0:
102,88,152406,2,0,P|122:35|209:13,1,127,2|0,1:0|1:0,0:0:0:0:
226,28,152926,1,8,1:0:0:0:
267,4,153100,2,0,P|321:9|362:78,1,127,2|2,1:0|1:2,0:0:0:0:
388,104,153620,1,2,0:0:0:0:
300,141,153967,6,0,P|295:177|288:221,1,63.5,0|2,1:0|0:0,0:0:0:0:
312,246,154313,1,8,1:0:0:0:
282,283,154487,2,0,P|230:296|181:360,1,127,0|0,1:0|1:0,0:0:0:0:
140,370,155007,1,8,1:0:0:0:
97,348,155181,2,0,P|92:311|85:268,1,63.5,0|0,1:0|1:0,0:0:0:0:
20,217,155701,2,0,P|5:166|48:104,1,127,8|0,1:0|1:0,0:0:0:0:
77,74,156221,1,0,1:0:0:0:
65,27,156394,2,0,P|101:22|145:15,1,63.5,8|0,1:0|1:0,0:0:0:0:
172,34,156741,6,0,P|165:86|160:184,1,127,2|0,1:0|1:0,0:0:0:0:
202,246,157435,2,0,P|224:230|265:225,1,63.5,8|0,1:0|1:0,0:0:0:0:
303,243,157782,1,0,1:0:0:0:
342,217,157955,2,0,P|335:164|330:67,1,127,2|0,1:0|1:0,0:0:0:0:
307,48,158475,1,8,1:0:0:0:
391,4,158822,2,0,P|413:20|454:25,1,63.5,2|0,1:0|1:0,0:0:0:0:
493,40,159169,2,0,P|458:80|470:155,1,127,2|2,0:3|1:0,0:0:0:0:
504,237,159863,5,2,1:2:0:0:
442,309,160209,2,0,P|411:283|367:290,1,63.5,8|0,1:0|1:0,0:0:0:0:
343,294,160556,1,0,1:0:0:0:
304,265,160730,2,0,P|256:316|182:330,1,127,2|0,1:0|1:0,0:0:0:0:
169,364,161250,2,0,P|132:358|104:332,1,63.5,8|0,1:0|0:0,0:0:0:0:
65,330,161597,1,2,1:0:0:0:
1,259,161944,2,0,P|29:216|30:183,1,63.5,2|10,1:3|1:3,0:0:0:0:
29,157,162290,6,0,P|94:169|164:174,1,127,2|2,1:0|1:2,0:0:0:0:
248,154,162984,2,0,P|238:123|218:99,1,63.5,8|0,1:0|1:0,0:0:0:0:
226,52,163331,1,0,1:0:0:0:
206,8,163504,2,0,P|140:20|71:25,1,127,2|0,1:0|1:0,0:0:0:0:
50,61,164024,1,8,1:0:0:0:
29,157,164371,2,0,P|64:160|111:176,1,63.5,2|0,1:0|1:0,0:0:0:0:
137,155,164718,2,0,P|107:190|99:280,1,127,2|2,0:3|1:0,0:0:0:0:
150,346,165412,5,2,1:2:0:0:
236,305,165759,2,0,P|266:310|307:341,1,63.5,8|0,1:0|1:0,0:0:0:0:
323,364,166105,1,0,1:0:0:0:
370,366,166279,2,0,P|400:331|408:241,1,127,2|0,1:0|1:0,0:0:0:0:
454,232,166799,2,0,P|455:198|432:160,1,63.5,8|0,1:0|0:0,0:0:0:0:
452,124,167146,1,2,1:0:0:0:
475,31,167493,2,0,P|430:23|398:6,1,63.5,2|10,1:3|1:3,0:0:0:0:
367,27,167839,6,0,P|362:86|345:173,1,127,2|0,1:0|1:0,0:0:0:0:
370,246,168533,2,0,P|325:254|293:271,1,63.5,8|0,1:0|1:0,0:0:0:0:
272,291,168880,1,0,1:0:0:0:
228,272,169053,2,0,P|223:213|206:126,1,127,2|0,1:0|1:0,0:0:0:0:
182,107,169574,1,8,1:0:0:0:
126,183,169920,2,0,P|81:175|49:158,1,63.5,2|0,1:0|1:0,0:0:0:0:
21,188,170267,2,0,P|-11:141|8:66,1,127,2|2,1:3|1:0,0:0:0:0:
81,24,170961,5,0,1:0:0:0:
159,78,171308,2,0,P|193:77|229:58,1,63.5,8|0,1:0|1:0,0:0:0:0:
255,34,171655,1,0,1:0:0:0:
299,49,171828,2,0,P|289:112|285:181,1,127,2|2,1:0|1:2,0:0:0:0:
242,197,172348,2,0,P|252:235|257:284,1,63.5,8|2,1:0|0:0,0:0:0:0:
279,300,172695,1,2,1:0:0:0:
216,371,173042,2,0,P|184:354|148:358,1,63.5,2|10,1:3|1:3,0:0:0:0:
110,365,173389,6,0,P|56:361|7:285,1,127,2|0,1:0|1:0,0:0:0:0:
11,260,173909,1,2,1:0:0:0:
11,260,174082,2,1,P|47:253|70:237,1,63.5,8|0,1:0|1:0,0:0:0:0:
95,198,174429,1,0,1:0:0:0:
55,111,174776,6,0,P|92:72|182:83,1,127,0|8,0:0|1:0,0:0:0:0:
199,103,175296,1,0,0:0:0:0:
199,103,175469,2,0,P|181:135|178:162,1,63.5,2|0,1:0|1:0,0:0:0:0:
193,207,175816,1,2,1:2:0:0:
240,210,175990,1,2,1:2:0:0:
270,246,176163,6,0,P|329:231|406:222,1,127,2|2,1:3|1:3,0:0:0:0:
439,238,176683,2,0,P|472:208|458:113,1,127,2|10,0:3|0:3,0:0:0:0:
476,82,177204,1,4,1:3:0:0:
443,47,177377,6,0,L|361:64,1,63.5,4|0,0:3|1:0,0:0:0:0:
333,63,177724,2,0,L|321:-14,2,63.5,0|8|0,1:0|1:0|1:2,0:0:0:0:
287,77,178244,2,0,L|299:154,1,63.5,0|0,1:0|1:0,0:0:0:0:
304,186,178591,1,2,1:0:0:0:
323,283,178938,5,2,1:0:0:0:
323,283,179111,2,0,P|292:268|255:270,1,63.5,2|8,0:0|0:1,0:0:0:0:
226,237,179458,2,0,P|169:252|126:328,1,127,2|2,1:2|1:2,0:0:0:0:
82,312,179978,2,0,P|47:300|25:260,1,63.5,8|2,0:1|0:2,0:0:0:0:
23,233,180324,2,0,P|56:187|38:108,1,127,2|8,1:0|0:1,0:0:0:0:
10,89,180845,1,2,1:2:0:0:
21,42,181019,2,0,P|40:27|105:34,1,63.5,2|2,0:0|1:2,0:0:0:0:
119,44,181366,1,8,0:1:0:0:
152,138,181712,5,2,1:0:0:0:
152,138,181886,2,0,P|183:140|209:158,1,63.5,2|8,0:0|0:1,0:0:0:0:
235,198,182233,2,0,P|256:147|333:111,1,127,2|2,1:2|1:2,0:0:0:0:
337,69,182753,2,0,P|364:83|396:84,1,63.5,8|2,0:1|0:2,0:0:0:0:
439,63,183100,2,0,P|500:94|525:152,1,127,2|8,1:0|0:1,0:0:0:0:
500,186,183620,1,2,1:2:0:0:
452,184,183793,2,0,P|453:215|452:266,1,63.5,2|2,0:0|1:2,0:0:0:0:
422,284,184140,1,8,0:1:0:0:
331,275,184487,5,2,1:0:0:0:
331,275,184660,2,0,P|299:277|271:292,1,63.5,2|8,0:0|0:1,0:0:0:0:
239,328,185007,2,0,P|187:319|105:308,1,127,2|2,1:2|1:2,0:0:0:0:
70,329,185527,2,0,P|69:297|58:267,1,63.5,8|2,0:1|0:2,0:0:0:0:
30,229,185874,2,0,P|73:220|143:143,1,127,2|8,1:0|0:1,0:0:0:0:
150,121,186394,1,2,1:2:0:0:
138,74,186568,2,0,P|169:73|199:62,1,63.5,2|2,0:0|1:2,0:0:0:0:
245,75,186915,1,8,0:1:0:0:
340,55,187261,5,2,1:0:0:0:
340,55,187435,2,0,P|328:91|335:140,1,63.5,2|8,0:0|0:1,0:0:0:0:
302,156,187782,2,0,P|264:211|274:290,1,127,2|2,1:2|1:2,0:0:0:0:
251,314,188302,2,0,P|294:321|329:332,1,63.5,8|2,0:1|0:2,0:0:0:0:
346,360,188649,2,0,P|390:329|466:323,1,127,2|0,1:0|0:0,0:0:0:0:
490,284,189169,1,2,1:2:0:0:
497,237,189342,2,0,P|439:211|401:161,1,127,2|8,1:0|0:1,0:0:0:0:
377,69,190036,5,2,1:0:0:0:
377,69,190209,2,0,P|346:42|302:32,1,63.5,2|8,0:0|0:1,0:0:0:0:
290,2,190556,2,0,P|248:0|187:56,1,127,2|2,1:2|1:2,0:0:0:0:
145,75,191076,2,0,P|165:109|171:143,1,63.5,8|2,0:1|0:2,0:0:0:0:
213,151,191423,2,0,P|201:213|191:283,1,127,2|8,1:0|0:1,0:0:0:0:
156,308,191944,1,2,1:2:0:0:
110,293,192117,2,0,P|78:301|32:303,1,63.5,2|2,0:0|1:2,0:0:0:0:
2,288,192464,1,8,0:1:0:0:
10,193,192811,5,2,1:0:0:0:
10,193,192984,2,0,P|41:190|72:182,1,63.5,2|8,0:0|0:1,0:0:0:0:
118,196,193331,2,0,P|94:139|111:76,1,127,2|2,1:2|1:2,0:0:0:0:
92,33,193851,2,0,P|117:9|159:8,1,63.5,8|2,0:1|0:2,0:0:0:0:
186,27,194198,2,0,P|249:37|317:46,1,127,2|8,1:0|0:1,0:0:0:0:
349,74,194718,1,2,1:2:0:0:
396,69,194892,2,0,P|388:104|385:142,1,63.5,2|2,0:0|1:2,0:0:0:0:
357,169,195238,1,8,0:1:0:0:
439,226,195585,5,2,1:0:0:0:
439,226,195759,2,0,P|435:257|428:288,1,63.5,0|8,0:0|0:1,0:0:0:0:
451,329,196105,2,0,P|405:366|322:363,1,127,2|2,1:2|1:2,0:0:0:0:
313,329,196626,2,0,P|282:322|253:289,1,63.5,8|2,0:1|0:2,0:0:0:0:
211,304,196972,2,0,P|196:258|136:212,1,127,2|8,1:0|0:1,0:0:0:0:
109,173,197493,1,2,1:2:0:0:
62,164,197666,2,0,P|34:184|23:230,1,63.5,2|2,0:0|1:2,0:0:0:0:
2,253,198013,1,8,0:1:0:0:
41,339,198360,5,2,1:0:0:0:
41,339,198533,2,0,P|79:323|113:317,1,63.5,0|8,0:0|0:1,0:0:0:0:
132,282,198880,2,0,P|194:286|270:327,1,127,2|2,1:2|1:2,0:0:0:0:
289,342,199400,2,0,P|294:304|304:263,1,63.5,8|2,0:1|0:2,0:0:0:0:
324,238,199747,2,0,P|312:178|301:94,1,127,2|0,1:0|0:0,0:0:0:0:
275,73,200267,1,2,1:2:0:0:
298,31,200441,2,0,L|384:42,1,63.5,2|2,1:0|1:2,0:0:0:0:
402,16,200787,2,0,P|413:75|425:160,1,127,8|2,0:1|1:0,0:0:0:0:
