osu file format v14

[General]
AudioFilename: audio.mp3
AudioLeadIn: 0
PreviewTime: 177182
Countdown: 0
SampleSet: None
StackLeniency: 0.4
Mode: 0
LetterboxInBreaks: 0
WidescreenStoryboard: 0

[Editor]
Bookmarks: 16635,24604,34448,53198,63198,211010,220698
DistanceSpacing: 1.6
BeatDivisor: 4
GridSize: 32
TimelineZoom: 2.4

[Metadata]
Title:Endure The Silence
TitleUnicode:Endure The Silence
Artist:Myrath
ArtistUnicode:Myrath
Creator:LMT
Version:Mir's Hard
Source:
Tags:Mir BOUYAAA tunisian middle eastern folk progressive metal Xtazy legacy ميراث
BeatmapID:1219574
BeatmapSetID:555454

[Difficulty]
HPDrainRate:5
CircleSize:3.5
OverallDifficulty:6
ApproachRate:8
SliderMultiplier:1
SliderTickRate:1

[Events]
//Background and Video events
0,0,"arab_drawing.jpg",0,0
//Break Periods
2,40659,42366
//Storyboard Layer 0 (Background)
//Storyboard Layer 1 (Fail)
//Storyboard Layer 2 (Pass)
//Storyboard Layer 3 (Foreground)
//Storyboard Sound Samples

[TimingPoints]
616,625,4,3,2,30,1,0
616,-200,4,3,2,30,0,0
20616,312.5,4,3,2,90,1,0
20616,-100,4,3,2,90,0,0
43116,-133.333333333333,4,2,0,30,0,0
53116,-117.647058823529,4,3,2,90,0,0
87334,-100,4,3,2,5,0,0
87491,-80,4,3,2,90,0,0
87647,-80,4,3,2,5,0,0
87803,-66.6666666666667,4,3,2,90,0,0
87959,-66.6666666666667,4,3,2,5,0,0
88116,-100,4,3,2,90,0,1
108116,-133.333333333333,4,2,0,30,0,0
113116,-100,4,3,2,90,0,0
133116,-117.647058823529,4,3,2,90,0,0
178116,-100,4,3,2,90,0,1
198116,-100,4,3,2,90,0,0
218116,-100,4,3,2,90,0,1
258116,-100,4,2,0,30,0,0

[Colours]
Combo1 : 141,245,254
Combo2 : 232,249,23
Combo3 : 109,208,245
Combo4 : 255,255,198

[HitObjects]
197,63,20616,6,0,P|201:109|193:182,1,100,4|0,0:0|0:0,0:0:0:0:
238,234,21084,1,0,0:0:0:0:
238,234,21241,2,0,L|304:230,1,50,8|0,0:0|0:0,0:0:0:0:
318,158,21553,2,0,L|367:161,1,50
442,101,21866,6,0,P|466:162|456:207,1,100,4|0,0:0|0:0,0:0:0:0:
410,254,22334,1,0,0:0:0:0:
410,254,22491,2,0,L|412:318,1,50,8|0,0:0|0:0,0:0:0:0:
350,356,22803,2,0,L|290:356,1,50,0|0,0:0|0:0,0:0:0:0:
204,358,23116,6,0,P|190:304|208:242,1,100,4|0,0:0|0:0,0:0:0:0:
206,182,23584,1,0,0:0:0:0:
118,174,23741,2,0,L|54:173,2,50,8|0|0,0:0|0:0|0:0,0:0:0:0:
168,104,24209,1,0,0:0:0:0:
257,105,24366,6,0,P|319:117|373:107,1,100,4|0,0:0|0:0,0:0:0:0:
440,71,24834,1,0,0:0:0:0:
440,71,24991,2,0,L|443:131,1,50,12|0,0:0|0:0,0:0:0:0:
399,186,25303,2,0,L|396:235,1,50,0|0,0:0|0:0,0:0:0:0:
446,301,25616,6,0,P|401:278|341:276,1,100,4|0,0:0|0:0,0:0:0:0:
285,307,26084,1,0,0:0:0:0:
218,265,26241,2,0,L|157:270,2,50,8|0|8,0:0|0:0|0:0,0:0:0:0:
265,199,26709,1,0,0:0:0:0:
246,122,26866,6,0,P|206:115|128:128,1,100,4|0,0:0|0:0,0:0:0:0:
64,138,27334,1,0,0:0:0:0:
121,200,27491,2,0,P|126:230|123:258,2,50,8|0|8,0:0|0:0|0:0,0:0:0:0:
42,229,27959,1,0,0:0:0:0:
92,328,28116,6,0,P|159:327|195:295,1,100,4|0,0:0|0:0,0:0:0:0:
227,240,28584,1,0,0:0:0:0:
227,240,28741,2,0,L|280:245,1,50,8|0,0:0|0:0,0:0:0:0:
315,318,29053,2,0,L|364:313,1,50,8|0,0:0|0:0,0:0:0:0:
405,230,29366,6,0,L|404:196,7,25,8|0|0|0|0|0|0|0,2:3|2:3|2:3|2:3|0:0|0:0|0:0|0:0,0:0:0:0:
371,176,29991,2,0,L|372:142,7,25,0|0|0|0|0|0|0|0,0:0|0:0|0:0|0:0|0:3|0:0|0:3|0:0,0:0:0:0:
422,107,30616,6,0,L|309:108,1,100,4|0,0:0|0:0,0:0:0:0:
240,83,31084,1,0,0:0:0:0:
240,83,31241,2,0,L|234:148,1,50,8|0,0:0|0:0,0:0:0:0:
164,184,31553,2,0,L|170:249,1,50,0|0,0:0|0:0,0:0:0:0:
182,315,31866,6,0,P|228:322|297:306,1,100,4|0,0:0|0:0,0:0:0:0:
326,246,32334,1,0,0:0:0:0:
326,246,32491,2,0,L|323:179,1,50,8|0,0:0|0:0,0:0:0:0:
414,140,32803,2,0,L|411:189,1,50
458,261,33116,5,4,0:0:0:0:
464,277,33428,2,0,P|401:292|356:269,1,100,0|8,0:0|0:0,0:0:0:0:
310,205,33897,1,0,0:0:0:0:
258,282,34053,2,0,L|195:278,1,50,0|0,0:0|0:0,0:0:0:0:
130,235,34366,6,0,P|116:181|139:121,1,100,4|0,0:0|0:0,0:0:0:0:
169,66,34834,1,0,0:0:0:0:
169,66,34991,2,0,L|234:69,1,50,8|0,0:0|0:0,0:0:0:0:
280,117,35303,2,0,L|329:114,1,50,8|0,0:0|0:0,0:0:0:0:
413,59,35616,6,0,P|427:94|408:175,1,100,12|0,0:0|0:0,0:0:0:0:
370,215,36084,1,0,0:0:0:0:
442,253,36241,2,0,P|456:288|437:369,1,100,8|0,0:0|0:0,0:0:0:0:
374,378,36709,1,0,0:0:0:0:
299,346,36866,6,0,P|256:336|179:350,1,100,12|0,0:0|0:0,0:0:0:0:
121,360,37334,1,0,0:0:0:0:
139,278,37491,2,0,B|150:230|114:231|136:161,1,100,8|0,0:0|0:0,0:0:0:0:
150,103,37959,1,0,0:0:0:0:
230,119,38116,6,0,L|339:112,1,100,4|0,0:0|0:0,0:0:0:0:
414,77,38584,1,0,0:0:0:0:
414,77,38741,2,0,L|416:138,1,50,12|0,0:0|0:0,0:0:0:0:
362,190,39053,2,0,L|360:251,1,50,0|0,0:0|0:0,0:0:0:0:
413,318,39366,5,12,0:0:0:0:
413,318,39522,2,0,L|477:321,2,50,8|0|0,0:0|0:0|0:0,0:0:0:0:
332,361,39991,2,0,L|268:364,2,50,8|8|8,0:0|0:0|0:0,0:0:0:0:
360,239,40459,5,8,0:3:0:0:
118,90,43116,6,0,L|281:89,2,150.000005722046,4|0|0,0:0|0:0|0:0,0:0:0:0:
51,160,44678,1,2,0:3:0:0:
95,247,44991,1,0,0:0:0:0:
48,332,45303,1,0,0:3:0:0:
138,368,45616,6,0,P|205:359|268:301,2,150.000005722046,4|0|0,0:0|0:0|0:0,0:0:0:0:
48,332,47178,1,2,0:3:0:0:
95,247,47491,1,0,0:0:0:0:
142,162,47803,1,0,0:0:0:0:
239,168,48116,6,0,P|288:191|314:194,1,75.0000028610231,4|0,0:0|0:0,0:0:0:0:
378,125,48741,2,0,P|427:102|453:99,1,75.0000028610231,2|0,0:0|0:0,0:0:0:0:
469,194,49366,6,0,L|465:308,1,112.500004291535,4|0,0:0|0:0,0:0:0:0:
433,343,49991,2,0,P|374:335|312:351,1,112.500004291535,2|0,0:0|0:0,0:0:0:0:
275,357,50616,6,0,P|214:369|129:333,1,150.000005722046,4|0,0:0|0:0,0:0:0:0:
220,241,51553,2,0,L|226:167,1,75.0000028610231,2|4,0:3|0:0,0:0:0:0:
231,63,52178,1,0,0:0:0:0:
312,116,52491,2,0,P|405:135|425:147,1,112.500004291535,2|0,0:0|0:0,0:0:0:0:
447,190,53116,6,0,P|461:245|451:280,1,85.0000016212464,4|0,0:0|0:0,0:0:0:0:
421,366,53584,1,0,0:0:0:0:
421,366,53741,2,0,L|472:364,2,42.5000008106232,8|0|0,0:0|0:0|0:0,0:0:0:0:
362,292,54209,1,0,0:0:0:0:
349,210,54366,6,0,P|338:169|338:127,1,85.0000016212464,0|0,0:0|0:0,0:0:0:0:
421,7,54991,2,0,P|420:49|409:90,1,85.0000016212464,8|0,0:0|0:0,0:0:0:0:
338,127,55459,1,0,0:0:0:0:
260,101,55616,6,0,L|163:104,1,85.0000016212464
102,154,56084,1,0,0:0:0:0:
102,154,56241,1,8,0:0:0:0:
97,66,56397,2,0,L|99:23,2,42.5000008106232,0|0|0,0:0|0:0|0:0,0:0:0:0:
102,154,56866,6,0,P|99:197|108:248,1,85.0000016212464
149,305,57334,1,0,0:0:0:0:
210,256,57491,2,0,P|242:260|293:281,1,85.0000016212464,8|0,0:0|0:0,0:0:0:0:
344,339,57959,1,0,0:0:0:0:
382,270,58116,6,0,L|382:168,1,85.0000016212464
432,120,58584,1,0,0:0:0:0:
432,120,58741,2,0,L|478:117,2,42.5000008106232,8|0|0,0:0|0:0|0:0,0:0:0:0:
363,72,59209,1,0,0:0:0:0:
363,72,59366,6,0,P|328:64|266:68,1,85.0000016212464,0|0,0:0|0:0,0:0:0:0:
196,86,59834,1,0,0:0:0:0:
196,86,59991,2,0,L|193:178,1,85.0000016212464,8|0,0:0|0:0,0:0:0:0:
71,281,60616,6,0,L|165:272,1,85.0000016212464
235,314,61084,1,0,0:0:0:0:
235,314,61241,2,0,L|319:322,1,85.0000016212464,8|0,0:0|0:0,0:0:0:0:
399,243,61866,6,0,P|408:197|397:147,1,85.0000016212464
359,97,62334,1,0,0:0:0:0:
283,109,62491,1,8,0:0:0:0:
283,109,62647,2,0,L|223:109,2,42.5000008106232,8|0|0,0:0|0:0|0:0,0:0:0:0:
281,192,63116,6,0,L|279:247,1,42.5000008106232,4|0,0:0|0:0,0:0:0:0:
200,250,63428,2,0,L|202:305,1,42.5000008106232,0|0,0:0|0:0,0:0:0:0:
269,344,63741,2,0,L|311:345,2,42.5000008106232,8|0|0,0:0|0:0|0:0,0:0:0:0:
190,379,64209,1,0,0:0:0:0:
124,325,64366,6,0,L|81:326,1,42.5000008106232,0|0,0:0|0:0,0:0:0:0:
157,248,64678,2,0,L|199:249,1,42.5000008106232,0|0,0:0|0:0,0:0:0:0:
106,184,64991,2,0,L|63:185,2,42.5000008106232,8|0|0,0:0|0:0|0:0,0:0:0:0:
161,119,65459,1,0,0:0:0:0:
246,118,65616,6,0,L|306:121,1,42.5000008106232,4|0,0:0|0:0,0:0:0:0:
355,76,65928,2,0,L|397:73,1,42.5000008106232,0|0,0:0|0:0,0:0:0:0:
456,126,66241,2,0,L|516:129,2,42.5000008106232,8|0|0,0:0|0:0|0:0,0:0:0:0:
395,186,66709,1,0,0:0:0:0:
436,255,66866,6,0,P|433:290|436:313,1,42.5000008106232
510,325,67178,2,0,P|513:360|510:383,1,42.5000008106232,0|0,0:0|0:0,0:0:0:0:
424,380,67491,2,0,P|389:383|366:380,1,42.5000008106232,8|0,0:0|0:0,0:0:0:0:
346,309,67803,2,0,P|311:306|288:309,1,42.5000008106232,0|0,0:0|0:0,0:0:0:0:
193,304,68116,6,0,L|189:248,1,42.5000008106232,4|0,0:0|0:0,0:0:0:0:
198,188,68428,1,0,0:0:0:0:
156,119,68584,1,0,0:0:0:0:
198,53,68741,2,0,P|249:46|292:53,1,85.0000016212464,8|0,0:0|0:0,0:0:0:0:
346,106,69209,1,0,0:0:0:0:
346,106,69366,6,0,L|344:155,1,42.5000008106232,0|0,0:0|0:0,0:0:0:0:
284,195,69678,2,0,L|286:244,1,42.5000008106232,0|0,0:0|0:0,0:0:0:0:
364,259,69991,2,0,L|362:308,1,42.5000008106232,8|0,0:0|0:0,0:0:0:0:
285,320,70303,2,0,L|287:369,1,42.5000008106232,0|0,0:0|0:0,0:0:0:0:
195,343,70616,6,0,L|145:341,2,42.5000008106232,4|0|0,0:0|0:0|0:0,0:0:0:0:
285,320,71084,1,0,0:0:0:0:
223,251,71241,2,0,P|203:220|205:162,1,85.0000016212464,8|0,0:0|0:0,0:0:0:0:
238,92,71709,1,0,0:0:0:0:
238,92,71866,6,0,L|190:91,1,42.5000008106232,0|0,0:0|0:0,0:0:0:0:
125,143,72178,2,0,L|82:143,1,42.5000008106232,0|0,0:0|0:0,0:0:0:0:
156,220,72491,2,0,L|198:220,1,42.5000008106232,8|0,0:0|0:0,0:0:0:0:
276,198,72803,1,8,0:0:0:0:
355,209,72959,1,8,0:0:0:0:
430,187,73116,6,0,P|430:135|414:92,1,85.0000016212464,4|0,0:0|0:0,0:0:0:0:
356,56,73584,1,0,0:0:0:0:
356,56,73741,2,0,L|307:56,1,42.5000008106232,8|0,0:0|0:0,0:0:0:0:
253,107,74053,2,0,L|210:107,1,42.5000008106232,0|0,0:0|0:0,0:0:0:0:
132,45,74366,6,0,L|134:87,1,42.5000008106232,0|0,0:0|0:0,0:0:0:0:
86,148,74678,2,0,L|83:190,1,42.5000008106232,0|0,0:0|0:0,0:0:0:0:
144,255,74991,1,8,0:0:0:0:
144,255,75147,2,0,P|184:260|231:254,1,85.0000016212464,8|0,0:0|0:0,0:0:0:0:
319,259,75616,6,0,L|315:216,1,42.5000008106232,4|0,0:0|0:0,0:0:0:0:
251,162,75928,2,0,L|254:119,1,42.5000008106232,0|0,0:0|0:0,0:0:0:0:
241,35,76241,1,8,0:0:0:0:
241,35,76397,1,0,0:0:0:0:
322,66,76553,2,0,L|364:69,1,42.5000008106232,0|0,0:0|0:0,0:0:0:0:
449,60,76866,6,0,L|445:102,1,42.5000008106232,0|0,0:0|0:0,0:0:0:0:
380,154,77178,2,0,L|383:196,1,42.5000008106232,0|0,0:0|0:0,0:0:0:0:
438,263,77491,1,8,0:0:0:0:
438,263,77647,2,0,P|386:281|351:276,1,85.0000016212464,8|0,0:0|0:0,0:0:0:0:
263,274,78116,6,0,P|233:268|212:267,1,42.5000008106232,4|0,0:0|0:0,0:0:0:0:
145,253,78428,1,0,0:0:0:0:
69,262,78584,1,0,0:0:0:0:
5,306,78741,2,0,P|31:330|91:337,1,85.0000016212464,8|0,0:0|0:0,0:0:0:0:
69,262,79209,1,0,0:0:0:0:
16,198,79366,6,0,L|20:147,1,42.5000008106232,0|0,0:0|0:0,0:0:0:0:
101,150,79678,2,0,L|97:99,1,42.5000008106232,0|0,0:0|0:0,0:0:0:0:
44,49,79991,1,8,0:0:0:0:
44,49,80147,2,0,L|2:45,2,42.5000008106232,8|0|0,0:0|0:0|0:0,0:0:0:0:
131,33,80616,6,0,L|173:29,1,42.5000008106232,4|0,0:0|0:0,0:0:0:0:
237,72,80928,2,0,L|279:76,1,42.5000008106232,0|0,0:0|0:0,0:0:0:0:
347,35,81241,1,8,0:0:0:0:
347,35,81397,2,0,L|389:31,2,42.5000008106232,8|0|0,0:0|0:0|0:0,0:0:0:0:
361,131,81866,6,0,L|365:173,1,42.5000008106232,0|0,0:0|0:0,0:0:0:0:
287,185,82178,2,0,L|283:227,1,42.5000008106232,0|0,0:0|0:0,0:0:0:0:
361,259,82491,2,0,L|365:301,1,42.5000008106232,8|8,0:0|0:0,0:0:0:0:
289,328,82803,1,8,0:0:0:0:
289,328,82959,1,8,0:0:0:0:
208,283,83116,5,4,0:0:0:0:
256,192,85616,12,0,87491,0:0:0:0:
404,81,88116,6,0,P|454:126|477:215,1,150,4|0,0:0|0:0,0:0:0:0:
461,283,88741,2,0,L|400:289,1,50,8|0,0:0|0:0,0:0:0:0:
346,240,89053,1,0,0:0:0:0:
284,291,89209,6,0,P|246:275|229:160,1,150,4|0,0:0|0:0,0:0:0:0:
200,38,89991,2,0,L|145:34,1,50,8|0,0:0|0:0,0:0:0:0:
91,91,90303,2,0,L|41:94,1,50,0|0,0:0|0:0,0:0:0:0:
48,194,90616,6,0,P|44:248|130:303,1,150,4|0,0:0|0:0,0:0:0:0:
199,272,91241,2,0,L|255:272,1,50,8|0,0:0|0:0,0:0:0:0:
335,310,91553,1,0,0:0:0:0:
407,259,91709,6,0,P|468:221|472:149,1,150,4|0,0:0|0:0,0:0:0:0:
330,95,92491,2,0,L|269:99,1,50,8|0,0:0|0:0,0:0:0:0:
193,70,92803,1,0,0:0:0:0:
193,70,92959,1,0,0:0:0:0:
211,155,93116,6,0,P|205:220|145:275,1,150,4|0,0:0|0:0,0:0:0:0:
77,307,93741,2,0,P|50:314|14:306,1,50,8|0,0:0|0:0,0:0:0:0:
49,230,94053,1,0,0:0:0:0:
19,154,94209,6,0,L|28:39,1,100,4|0,0:0|0:0,0:0:0:0:
117,32,94678,2,0,L|170:34,1,50,0|0,0:0|0:0,0:0:0:0:
245,72,94991,1,8,0:0:0:0:
245,72,95147,2,0,L|294:70,2,50,8|0|0,0:0|0:0|0:0,0:0:0:0:
205,156,95616,6,0,B|188:227|188:227|197:307,1,150,4|0,0:0|0:0,0:0:0:0:
267,355,96241,2,0,L|327:358,1,50,8|0,0:0|0:0,0:0:0:0:
379,298,96553,1,8,0:0:0:0:
379,298,96709,6,0,L|382:237,1,50,4|0,0:0|0:0,0:0:0:0:
321,179,97022,2,0,L|323:129,2,50,0|8|8,0:0|0:0|0:0,0:0:0:0:
243,210,97491,2,0,L|193:207,1,50,8|8,0:0|0:0,0:0:0:0:
128,151,97803,1,8,0:0:0:0:
128,151,97959,1,8,0:0:0:0:
66,228,98116,6,0,P|61:275|141:349,1,150,4|0,0:0|0:0,0:0:0:0:
205,317,98741,2,0,P|236:314|258:315,1,50,8|0,0:0|0:0,0:0:0:0:
336,361,99053,1,0,0:0:0:0:
336,275,99209,6,0,B|326:219|326:219|342:178|342:178|331:118,1,150,4|0,0:0|0:0,0:0:0:0:
163,60,99991,1,8,0:0:0:0:
163,60,100147,2,0,P|154:107|166:165,1,100,8|0,0:0|0:0,0:0:0:0:
233,222,100616,6,0,P|191:249|92:222,1,150,4|0,0:0|0:0,0:0:0:0:
18,182,101241,2,0,L|15:234,1,50,8|0,0:0|0:0,0:0:0:0:
49,309,101553,1,0,0:0:0:0:
123,350,101709,6,0,B|166:343|166:343|220:358|220:358|276:349,1,150,4|0,0:0|0:0,0:0:0:0:
415,303,102491,2,0,L|415:235,1,50,8|0,0:0|0:0,0:0:0:0:
358,188,102803,1,0,0:0:0:0:
358,188,102959,1,0,0:0:0:0:
262,222,103116,6,0,P|227:227|152:140,1,150,4|0,0:0|0:0,0:0:0:0:
173,62,103741,2,0,L|234:64,1,50,8|0,0:0|0:0,0:0:0:0:
311,22,104053,1,0,0:0:0:0:
311,22,104209,2,0,L|307:128,1,100,4|0,0:0|0:0,0:0:0:0:
358,188,104678,5,0,0:0:0:0:
358,188,104834,1,0,0:0:0:0:
429,138,104991,2,0,P|458:137|486:142,1,50,8|0,0:0|0:0,0:0:0:0:
450,220,105303,2,0,L|447:274,1,50,8|0,0:0|0:0,0:0:0:0:
387,335,105616,6,0,B|329:342|329:342|288:326|288:326|231:333,1,150,4|0,0:0|0:0,0:0:0:0:
147,336,106241,2,0,L|140:277,1,50,8|0,0:0|0:0,0:0:0:0:
181,197,106553,1,0,0:0:0:0:
181,197,106709,6,0,P|240:195|286:209,1,100,4|8,0:0|0:0,0:0:0:0:
281,293,107178,2,0,L|282:343,1,50,8|8,0:0|0:0,0:0:0:0:
365,285,107491,2,0,L|366:235,1,50,8|8,0:0|0:0,0:0:0:0:
451,304,107803,1,8,0:0:0:0:
451,304,107959,1,8,0:0:0:0:
485,225,108116,6,0,P|493:187|485:142,1,75.0000028610231,4|0,0:0|0:0,0:0:0:0:
401,68,108741,2,0,P|365:60|328:65,1,75.0000028610231
216,111,109366,2,0,P|208:73|216:28,1,75.0000028610231
327,65,109991,2,0,P|331:102|323:138,1,75.0000028610231
168,84,110616,5,0,0:0:0:0:
168,84,111241,2,0,L|171:52,3,18.7500007152558
103,137,111866,2,0,L|103:158,3,18.7500007152558
33,86,112491,2,0,L|32:57,3,18.7500007152558
59,199,113116,6,0,L|166:193,1,100,4|0,0:0|0:0,0:0:0:0:
226,140,113584,1,0,0:0:0:0:
226,140,113741,2,0,L|224:81,1,50,8|0,0:0|0:0,0:0:0:0:
278,206,114053,2,0,L|276:255,1,50,0|0,0:0|0:0,0:0:0:0:
338,345,114366,6,0,L|221:346,1,100,4|0,0:0|0:0,0:0:0:0:
161,378,114834,1,0,0:0:0:0:
161,378,114991,2,0,L|98:377,1,50,8|0,0:0|0:0,0:0:0:0:
83,302,115303,2,0,P|80:265|87:237,1,50,0|0,0:0|0:0,0:0:0:0:
145,202,115616,6,0,P|148:165|141:137,1,50,4|0,0:0|0:0,0:0:0:0:
105,83,115928,2,0,L|53:83,2,50,0|0|8,0:0|0:0|0:0,0:0:0:0:
184,78,116397,1,0,0:0:0:0:
263,71,116553,2,0,L|315:71,1,50,0|0,0:0|0:0,0:0:0:0:
413,27,116866,6,0,L|414:142,1,100,4|0,0:0|0:0,0:0:0:0:
371,196,117334,1,0,0:0:0:0:
371,196,117491,2,0,P|373:256|378:266,1,50,8|0,0:0|0:0,0:0:0:0:
416,321,117803,2,0,P|414:381|409:391,1,50
331,344,118116,6,0,L|214:342,1,100,4|0,0:0|0:0,0:0:0:0:
160,285,118584,1,0,0:0:0:0:
188,206,118741,2,0,L|190:157,2,50,8|0|8,0:0|0:0|0:0,0:0:0:0:
160,285,119209,1,0,0:0:0:0:
77,259,119366,6,0,P|54:213|62:158,1,100,4|0,0:0|0:0,0:0:0:0:
119,114,119834,1,0,0:0:0:0:
190,157,119991,2,0,P|214:157|239:152,1,50,8|0,0:0|0:0,0:0:0:0:
270,55,120303,2,0,P|245:53|220:58,1,50,8|0,0:0|0:0,0:0:0:0:
341,111,120616,6,0,L|332:221,1,100,4|0,0:0|0:0,0:0:0:0:
386,290,121084,1,0,0:0:0:0:
306,340,121241,2,0,P|254:346|236:341,1,50,8|0,0:0|0:0,0:0:0:0:
200,289,121553,2,0,P|175:282|151:282,1,50,0|0,0:0|0:0,0:0:0:0:
62,252,121866,6,0,L|58:206,7,25,8|0|0|0|0|0|0|0,0:3|0:3|0:3|0:3|0:0|0:0|0:0|0:0,0:0:0:0:
97,214,122491,2,0,L|101:168,7,25,0|0|0|0|0|0|0|0,0:0|0:0|0:3|0:0|0:3|0:0|0:3|0:0,0:0:0:0:
46,140,123116,6,0,L|167:142,1,100,4|0,0:0|0:0,0:0:0:0:
230,95,123584,1,0,0:0:0:0:
230,95,123741,2,0,L|228:35,1,50,8|0,0:0|0:0,0:0:0:0:
312,138,124053,2,0,L|310:187,1,50,0|0,0:0|0:0,0:0:0:0:
364,70,124366,6,0,L|477:72,1,100,4|0,0:0|0:0,0:0:0:0:
465,154,124834,1,0,0:0:0:0:
465,154,124991,2,0,L|463:218,1,50,8|0,0:0|0:0,0:0:0:0:
449,287,125303,1,0,0:0:0:0:
385,230,125459,1,0,0:0:0:0:
325,285,125616,6,0,L|267:286,1,50,4|0,0:0|0:0,0:0:0:0:
194,243,125928,2,0,P|188:198|192:172,2,50,0|0|8,0:0|0:0|0:0,0:0:0:0:
199,328,126397,1,0,0:0:0:0:
115,305,126553,2,0,P|90:305|65:310,1,50,0|0,0:0|0:0,0:0:0:0:
3,247,126866,6,0,L|4:129,1,100,4|0,0:0|0:0,0:0:0:0:
41,71,127334,1,0,0:0:0:0:
116,105,127491,2,0,L|165:102,1,50,4|8,0:0|0:0,0:0:0:0:
236,55,127803,2,0,L|285:57,1,50,4|8,0:0|0:0,0:0:0:0:
313,135,128116,6,0,P|316:184|297:249,1,100,4|0,0:0|0:0,0:0:0:0:
255,302,128584,1,0,0:0:0:0:
255,302,128741,2,0,L|186:301,1,50,8|0,0:0|0:0,0:0:0:0:
143,242,129053,2,0,L|93:242,1,50,0|0,0:0|0:0,0:0:0:0:
21,303,129366,6,0,P|49:346|112:358,1,100,4|0,0:0|0:0,0:0:0:0:
173,382,129834,1,0,0:0:0:0:
252,351,129991,2,0,P|259:321|255:282,1,50,8|0,0:0|0:0,0:0:0:0:
229,227,130303,2,0,P|222:197|226:158,1,50,8|0,0:0|0:0,0:0:0:0:
238,84,130616,6,0,L|342:85,1,100,4|0,0:0|0:0,0:0:0:0:
389,158,131084,1,0,0:0:0:0:
389,158,131241,2,0,L|387:222,1,50,12|0,0:0|0:0,0:0:0:0:
327,262,131553,2,0,L|328:311,1,50,0|0,0:0|0:0,0:0:0:0:
251,350,131866,6,0,P|206:351|190:345,1,50,4|8,0:0|0:0,0:0:0:0:
138,282,132178,1,8,0:0:0:0:
138,282,132334,1,8,0:0:0:0:
201,213,132491,2,0,L|204:140,1,50,8|8,0:0|0:0,0:0:0:0:
143,102,132803,2,0,L|141:53,1,50,8|8,0:0|0:0,0:0:0:0:
233,79,133116,6,0,L|333:78,1,85.0000016212464,4|0,0:0|0:0,0:0:0:0:
387,130,133584,1,0,0:0:0:0:
387,130,133741,2,0,L|386:219,1,85.0000016212464,8|0,0:0|0:0,0:0:0:0:
294,314,134366,6,0,P|250:309|197:316,1,85.0000016212464,0|0,0:0|0:0,0:0:0:0:
100,294,134991,2,0,P|96:251|100:209,1,85.0000016212464,8|0,0:0|0:0,0:0:0:0:
178,107,135616,6,0,L|278:107,1,85.0000016212464,4|0,0:0|0:0,0:0:0:0:
361,111,136084,1,0,0:0:0:0:
361,111,136241,6,0,L|362:56,3,42.5000008106232,8|0|0|0,0:0|0:0|0:0|0:0,0:0:0:0:
359,194,136866,2,0,L|359:251,3,42.5000008106232,0|0|0|0,0:0|0:0|0:0|0:0,0:0:0:0:
444,183,137491,2,0,L|444:140,3,42.5000008106232,8|0|0|0,0:0|0:0|0:0|0:0,0:0:0:0:
454,50,138116,6,0,L|352:50,1,85.0000016212464,4|0,0:0|0:0,0:0:0:0:
274,51,138584,1,0,0:0:0:0:
274,51,138741,2,0,P|272:82|287:151,1,85.0000016212464,8|0,0:0|0:0,0:0:0:0:
361,257,139366,6,0,P|326:255|261:257,1,85.0000016212464,4|0,0:0|0:0,0:0:0:0:
190,259,139834,1,0,0:0:0:0:
190,259,139991,2,0,L|190:201,1,42.5000008106232,8|0,0:0|0:0,0:0:0:0:
256,169,140303,2,0,L|256:111,1,42.5000008106232,0|0,0:0|0:0,0:0:0:0:
202,59,140616,6,0,L|104:60,1,85.0000016212464,4|0,0:0|0:0,0:0:0:0:
39,96,141084,1,0,0:0:0:0:
39,96,141241,2,0,L|37:191,1,85.0000016212464,8|0,0:0|0:0,0:0:0:0:
126,325,141866,6,0,L|122:345,2,21.2500004053116,0|0|8,0:0|0:0|0:0,0:0:0:0:
138,240,142178,2,0,L|199:241,1,42.5000008106232,8|8,0:0|0:0,0:0:0:0:
244,290,142491,2,0,L|286:289,1,42.5000008106232,8|8,0:0|0:0,0:0:0:0:
335,227,142803,2,0,L|377:227,1,42.5000008106232,8|8,0:0|0:0,0:0:0:0:
461,213,143116,6,0,L|462:310,1,85.0000016212464,12|0,0:0|0:0,0:0:0:0:
399,355,143584,1,0,0:0:0:0:
399,355,143741,2,0,L|347:353,1,42.5000008106232,8|0,0:0|0:0,0:0:0:0:
271,350,144053,1,0,0:0:0:0:
271,350,144209,1,0,0:0:0:0:
192,296,144366,6,0,P|145:301|92:293,1,85.0000016212464
96,124,144991,2,0,P|143:119|196:127,1,85.0000016212464,8|0,0:0|0:0,0:0:0:0:
223,196,145459,1,0,0:0:0:0:
315,196,145616,6,0,L|317:98,1,85.0000016212464,4|0,0:0|0:0,0:0:0:0:
295,28,146084,1,0,0:0:0:0:
295,28,146241,2,0,L|348:27,1,42.5000008106232,8|0,0:0|0:0,0:0:0:0:
416,58,146553,2,0,L|415:100,1,42.5000008106232
414,185,146866,5,0,0:0:0:0:
230,204,147178,2,0,L|145:207,2,85.0000016212464,0|8|0,0:0|0:0|0:0,0:0:0:0:
308,251,147959,1,0,0:0:0:0:
308,251,148116,6,0,P|319:296|305:349,1,85.0000016212464,4|0,0:0|0:0,0:0:0:0:
226,349,148584,1,0,0:0:0:0:
226,349,148741,2,0,L|169:345,1,42.5000008106232,8|0,0:0|0:0,0:0:0:0:
125,286,149053,1,0,0:0:0:0:
125,286,149209,6,0,P|121:251|125:230,1,42.5000008106232,0|0,0:0|0:0,0:0:0:0:
124,107,149678,2,0,P|126:61|113:19,2,85.0000016212464,0|8|0,0:0|0:0|0:0,0:0:0:0:
227,167,150616,6,0,L|323:166,1,85.0000016212464,8|0,0:3|0:0,0:0:0:0:
385,122,151084,1,0,0:0:0:0:
385,122,151241,2,0,P|399:150|401:168,1,42.5000008106232,8|0,0:0|0:0,0:0:0:0:
483,178,151553,2,0,P|473:207|461:221,1,42.5000008106232,0|0,0:0|0:0,0:0:0:0:
383,251,151866,6,0,L|298:249,1,85.0000016212464,4|8,0:0|0:0,0:0:0:0:
226,192,152334,1,8,0:0:0:0:
150,243,152491,2,0,L|95:242,1,42.5000008106232,8|8,0:0|0:0,0:0:0:0:
108,155,152803,2,0,L|163:154,1,42.5000008106232,8|8,0:0|0:0,0:0:0:0:
93,67,153116,6,0,P|52:81|19:129,1,85.0000016212464,4|0,0:0|0:0,0:0:0:0:
31,196,153584,1,0,0:0:0:0:
31,196,153741,2,0,L|34:247,1,42.5000008106232,8|0,0:0|0:0,0:0:0:0:
87,298,154053,2,0,L|84:349,1,42.5000008106232,0|0,0:0|0:0,0:0:0:0:
182,325,154366,6,0,L|232:325,1,42.5000008106232,0|0,0:0|0:0,0:0:0:0:
283,263,154678,2,0,L|325:263,1,42.5000008106232,0|0,0:0|0:0,0:0:0:0:
396,321,154991,2,0,L|446:321,2,42.5000008106232,8|0|0,0:0|0:0|0:0,0:0:0:0:
314,350,155459,1,0,0:0:0:0:
283,263,155616,6,0,L|284:209,1,42.5000008106232,4|0,0:0|0:0,0:0:0:0:
359,191,155928,2,0,L|358:137,1,42.5000008106232,0|0,0:0|0:0,0:0:0:0:
289,92,156241,2,0,L|290:38,2,42.5000008106232,8|0|0,0:0|0:0|0:0,0:0:0:0:
222,152,156709,1,0,0:0:0:0:
152,97,156866,6,0,L|97:101,1,42.5000008106232,0|0,0:0|0:0,0:0:0:0:
102,187,157178,2,0,L|157:191,1,42.5000008106232,0|0,0:0|0:0,0:0:0:0:
155,272,157491,2,0,L|100:276,1,42.5000008106232,8|0,0:0|0:0,0:0:0:0:
109,356,157803,2,0,L|164:360,1,42.5000008106232,0|0,0:0|0:0,0:0:0:0:
252,306,158116,6,0,P|285:307|307:303,1,42.5000008106232,4|0,0:0|0:0,0:0:0:0:
363,268,158428,1,0,0:0:0:0:
419,212,158584,1,0,0:0:0:0:
452,139,158741,2,0,P|455:109|452:85,1,42.5000008106232,8|0,0:0|0:0,0:0:0:0:
373,37,159053,2,0,P|370:67|373:91,1,42.5000008106232,0|0,0:0|0:0,0:0:0:0:
328,157,159366,6,0,L|275:157,1,42.5000008106232,0|0,0:0|0:0,0:0:0:0:
236,90,159678,2,0,L|193:90,1,42.5000008106232,0|0,0:0|0:0,0:0:0:0:
137,148,159991,2,0,L|94:148,1,42.5000008106232,8|0,0:0|0:0,0:0:0:0:
45,84,160303,2,0,L|2:84,1,42.5000008106232,0|0,0:0|0:0,0:0:0:0:
14,177,160616,6,0,P|17:217|25:232,1,42.5000008106232,4|0,0:0|0:0,0:0:0:0:
100,231,160928,2,0,P|97:271|89:286,1,42.5000008106232,0|0,0:0|0:0,0:0:0:0:
25,316,161241,2,0,P|28:356|36:371,2,42.5000008106232,8|0|0,0:0|0:0|0:0,0:0:0:0:
120,351,161709,1,0,0:0:0:0:
195,300,161866,6,0,L|250:297,1,42.5000008106232,0|0,0:0|0:0,0:0:0:0:
142,233,162178,2,0,L|87:230,1,42.5000008106232,0|0,0:0|0:0,0:0:0:0:
189,167,162491,1,8,0:0:0:0:
261,141,162647,1,0,0:0:0:0:
334,162,162803,2,0,P|356:168|388:166,1,42.5000008106232,8|0,0:0|0:0,0:0:0:0:
363,92,163116,6,0,L|364:32,1,42.5000008106232,4|0,0:0|0:0,0:0:0:0:
300,6,163428,2,0,L|240:7,1,42.5000008106232,0|0,0:0|0:0,0:0:0:0:
183,28,163741,2,0,L|140:27,2,42.5000008106232,8|0|0,0:0|0:0|0:0,0:0:0:0:
243,83,164209,1,0,0:0:0:0:
181,135,164366,6,0,L|182:183,1,42.5000008106232
256,206,164678,2,0,L|255:254,1,42.5000008106232,0|0,0:0|0:0,0:0:0:0:
180,273,164991,2,0,L|181:316,2,42.5000008106232,8|0|0,0:0|0:0|0:0,0:0:0:0:
110,232,165459,1,0,0:0:0:0:
25,242,165616,6,0,P|25:220|28:199,1,42.5000008106232,4|0,0:0|0:0,0:0:0:0:
93,153,165928,2,0,P|92:131|89:110,1,42.5000008106232
52,41,166241,2,0,L|0:38,2,42.5000008106232,8|0|0,0:0|0:0|0:0,0:0:0:0:
140,42,166709,1,0,0:0:0:0:
225,37,166866,6,0,L|267:34,1,42.5000008106232,8|8,0:0|0:0,0:0:0:0:
325,91,167178,2,0,L|367:93,1,42.5000008106232,0|0,0:0|0:0,0:0:0:0:
426,39,167491,2,0,L|468:36,1,42.5000008106232,8|0,0:0|0:0,0:0:0:0:
455,125,167803,2,0,L|457:167,1,42.5000008106232,0|0,0:0|0:0,0:0:0:0:
479,254,168116,6,0,P|435:254|427:251,1,42.5000008106232,4|0,0:0|0:0,0:0:0:0:
370,214,168428,1,0,0:0:0:0:
293,214,168584,1,0,0:0:0:0:
224,249,168741,2,0,P|202:251|182:248,1,42.5000008106232,8|0,0:0|0:0,0:0:0:0:
110,176,169053,2,0,P|131:173|151:176,1,42.5000008106232,0|0,0:0|0:0,0:0:0:0:
65,245,169366,6,0,P|39:222|32:208,1,42.5000008106232,8|8,0:0|0:0,0:0:0:0:
41,131,169678,2,0,L|45:82,1,42.5000008106232,0|0,0:0|0:0,0:0:0:0:
116,52,169991,2,0,L|112:9,2,42.5000008106232,8|0|0,0:0|0:0|0:0,0:0:0:0:
191,97,170459,1,0,0:0:0:0:
255,37,170616,6,0,L|307:39,1,42.5000008106232,4|0,0:0|0:0,0:0:0:0:
356,92,170928,2,0,L|398:90,1,42.5000008106232,0|0,0:0|0:0,0:0:0:0:
473,49,171241,2,0,L|474:6,2,42.5000008106232,8|0|0,0:0|0:0|0:0,0:0:0:0:
476,137,171709,1,0,0:0:0:0:
391,174,171866,6,0,L|395:216,1,42.5000008106232,0|0,0:0|0:0,0:0:0:0:
317,228,172178,2,0,L|313:270,1,42.5000008106232
391,302,172491,2,0,L|395:344,1,42.5000008106232,8|8,0:0|0:0,0:0:0:0:
319,371,172803,1,8,0:0:0:0:
319,371,172959,1,8,0:0:0:0:
222,313,173116,5,4,0:0:0:0:
256,192,175616,12,0,177491,0:0:0:0:
323,294,178116,6,0,P|329:230|279:158,1,150,4|0,0:0|0:0,0:0:0:0:
208,147,178741,1,8,0:0:0:0:
79,99,179053,1,0,0:0:0:0:
79,99,179209,6,0,P|116:68|185:69,1,100,4|0,0:0|0:0,0:0:0:0:
248,66,179678,2,0,L|297:65,1,50,0|0,0:0|0:0,0:0:0:0:
371,40,179991,2,0,L|420:40,1,50,8|0,0:0|0:0,0:0:0:0:
472,95,180303,1,0,0:0:0:0:
461,170,180459,1,0,0:0:0:0:
499,234,180616,6,0,P|504:274|431:352,1,150,4|0,0:0|0:0,0:0:0:0:
358,341,181241,1,8,0:0:0:0:
261,239,181553,1,0,0:0:0:0:
261,239,181709,6,0,B|249:184|249:184|260:121,1,100,4|0,0:0|0:0,0:0:0:0:
277,63,182178,1,0,0:0:0:0:
127,4,182491,2,0,P|123:44|123:71,1,50,8|0,0:0|0:0,0:0:0:0:
129,133,182803,1,0,0:0:0:0:
129,133,182959,1,8,0:0:0:0:
133,209,183116,6,0,B|140:261|140:261|121:303|121:303|132:360,1,150,4|0,0:0|0:0,0:0:0:0:
217,348,183741,1,8,0:0:0:0:
326,335,184053,1,0,0:0:0:0:
326,335,184209,6,0,B|375:345|375:345|439:330,1,100,4|0,0:0|0:0,0:0:0:0:
459,265,184678,1,0,0:0:0:0:
414,199,184834,1,0,0:0:0:0:
459,134,184991,2,0,L|456:85,1,50,8|0,0:0|0:0,0:0:0:0:
377,26,185303,2,0,L|374:75,1,50,0|0,0:0|0:0,0:0:0:0:
310,146,185616,6,0,B|256:157|256:157|209:144|209:144|156:152,1,150,4|0,0:0|0:0,0:0:0:0:
206,231,186241,1,8,0:0:0:0:
322,281,186553,2,0,L|320:220,2,50,0|4|0,0:0|0:0|0:0,0:0:0:0:
267,346,187022,6,0,L|207:350,1,50,0|8,0:0|0:0,0:0:0:0:
146,310,187334,1,8,0:0:0:0:
93,242,187491,2,0,P|89:199|93:185,1,50,8|8,0:0|0:0,0:0:0:0:
163,150,187803,2,0,P|167:107|163:93,1,50,8|8,0:0|0:0,0:0:0:0:
92,77,188116,6,0,B|145:70|145:70|193:84|193:84|255:75,1,150,4|0,0:0|0:0,0:0:0:0:
313,49,188741,1,8,0:0:0:0:
445,56,189053,1,0,0:0:0:0:
445,56,189209,6,0,P|466:101|456:165,1,100,4|0,0:0|0:0,0:0:0:0:
429,222,189678,1,0,0:0:0:0:
362,327,189991,1,8,0:0:0:0:
362,327,190147,2,0,B|312:338|312:338|253:327,1,100,8|0,0:0|0:0,0:0:0:0:
160,302,190616,6,0,B|153:255|153:255|173:209|173:209|168:157,1,150,4|0,0:0|0:0,0:0:0:0:
204,85,191241,1,8,0:0:0:0:
69,156,191553,1,0,0:0:0:0:
69,156,191709,6,0,L|179:158,1,100,4|0,0:0|0:0,0:0:0:0:
247,160,192178,1,0,0:0:0:0:
387,68,192491,2,0,L|385:123,1,50,8|0,0:0|0:0,0:0:0:0:
416,188,192803,1,0,0:0:0:0:
375,255,192959,1,0,0:0:0:0:
427,322,193116,6,0,P|345:335|292:276,1,150,4|0,0:0|0:0,0:0:0:0:
299,214,193741,1,8,0:0:0:0:
205,94,194053,1,0,0:0:0:0:
205,94,194209,6,0,B|152:86|152:86|96:95,1,100,4|0,0:0|0:0,0:0:0:0:
67,161,194678,1,0,0:0:0:0:
37,236,194834,1,8,0:0:0:0:
37,236,194991,2,0,B|22:286|22:286|33:343,1,100,8|8,0:0|0:0,0:0:0:0:
94,377,195459,1,0,0:0:0:0:
160,317,195616,6,0,P|219:319|264:329,1,100,4|0,0:0|0:0,0:0:0:0:
343,331,196084,1,0,0:0:0:0:
300,256,196241,2,0,P|290:206|289:157,1,100,8|0,0:0|0:0,0:0:0:0:
352,71,196709,1,0,0:0:0:0:
352,71,196866,6,0,L|231:77,1,100,4|8,0:0|0:0,0:0:0:0:
178,35,197334,1,8,0:0:0:0:
117,87,197491,2,0,L|118:154,1,50,8|8,0:0|0:0,0:0:0:0:
187,193,197803,1,8,0:0:0:0:
187,193,197959,1,8,0:0:0:0:
111,242,198116,6,0,P|110:294|113:309,1,50,4|0,0:0|0:0,0:0:0:0:
180,342,198428,2,0,P|204:343|229:340,1,50,0|0,0:0|0:0,0:0:0:0:
273,268,198741,2,0,P|297:265|322:266,1,50,8|0,0:0|0:0,0:0:0:0:
361,337,199053,2,0,P|385:339|410:338,1,50,0|0,0:0|0:0,0:0:0:0:
446,256,199366,6,0,P|448:202|463:148,2,100,4|0|8,0:0|0:0|0:0,0:0:0:0:
486,338,200147,1,0,0:0:0:0:
486,338,200303,2,0,P|451:349|416:343,1,50,0|0,0:0|0:0,0:0:0:0:
446,256,200616,5,4,0:0:0:0:
472,117,200928,2,0,L|416:114,1,50,0|0,0:0|0:0,0:0:0:0:
358,165,201241,2,0,L|308:167,1,50,8|0,0:0|0:0,0:0:0:0:
261,101,201553,2,0,L|211:98,1,50,0|0,0:0|0:0,0:0:0:0:
127,150,201866,5,8,0:3:0:0:
53,98,202022,1,8,0:3:0:0:
53,98,202178,2,0,L|55:48,1,50,0|0,0:0|0:0,0:0:0:0:
130,4,202491,2,0,L|132:53,1,50,8|0,0:0|0:0,0:0:0:0:
210,33,202803,1,0,0:0:0:0:
286,38,202959,1,0,0:0:0:0:
366,42,203116,5,4,0:0:0:0:
307,136,203428,2,0,P|302:160|301:185,1,50,0|0,0:0|0:0,0:0:0:0:
386,198,203741,2,0,P|390:222|391:247,1,50,8|0,0:0|0:0,0:0:0:0:
310,275,204053,2,0,P|305:299|304:324,1,50,0|0,0:0|0:0,0:0:0:0:
380,372,204366,6,0,P|435:376|495:350,1,100,4|0,0:0|0:0,0:0:0:0:
508,282,204834,1,0,0:0:0:0:
508,282,204991,2,0,L|506:220,1,50,8|0,0:0|0:0,0:0:0:0:
443,176,205303,2,0,L|444:126,1,50,0|0,0:0|0:0,0:0:0:0:
465,41,205616,6,0,L|415:42,1,50,0|0,0:0|0:0,0:0:0:0:
332,49,205928,1,0,0:0:0:0:
254,20,206084,1,0,0:0:0:0:
254,20,206241,2,0,P|203:10|144:20,1,100,8|8,0:3|0:3,0:0:0:0:
88,60,206709,1,8,0:3:0:0:
134,122,206866,6,0,L|129:153,7,25,8|8|8|8|0|0|0|0,0:3|0:3|0:3|0:3|0:0|0:0|0:0|0:0,0:0:0:0:
95,167,207491,2,0,L|100:198,7,25
75,244,208116,5,4,0:0:0:0:
192,289,208428,2,0,L|241:292,1,50,0|0,0:0|0:0,0:0:0:0:
290,225,208741,2,0,L|339:221,1,50,8|0,0:0|0:0,0:0:0:0:
390,291,209053,2,0,L|439:294,1,50,0|0,0:0|0:0,0:0:0:0:
446,193,209366,6,0,L|448:71,1,100,4|0,0:0|0:0,0:0:0:0:
382,35,209834,1,0,0:0:0:0:
382,35,209991,2,0,L|323:36,1,50,8|0,0:0|0:0,0:0:0:0:
263,83,210303,2,0,L|213:82,1,50,0|0,0:0|0:0,0:0:0:0:
123,45,210616,5,4,0:0:0:0:
48,172,210928,2,0,L|49:232,1,50,0|0,0:0|0:0,0:0:0:0:
136,235,211241,2,0,L|135:295,1,50,8|0,0:0|0:0,0:0:0:0:
62,342,211553,1,0,0:0:0:0:
62,342,211709,5,0,0:0:0:0:
247,297,212022,1,8,0:0:0:0:
299,375,212178,2,0,L|348:373,1,50
355,277,212491,2,0,L|356:227,1,50,8|0,0:0|0:0,0:0:0:0:
276,175,212803,2,0,L|274:125,1,50
302,42,213116,5,4,0:0:0:0:
445,65,213428,2,0,P|448:104|447:118,1,50
393,169,213741,2,0,P|390:208|391:222,1,50,8|0,0:0|0:0,0:0:0:0:
476,258,214053,1,0,0:0:0:0:
316,361,214366,6,0,L|250:363,1,50,4|0,0:0|0:0,0:0:0:0:
229,274,214678,1,0,0:0:0:0:
229,274,214834,1,0,0:0:0:0:
310,229,214991,2,0,P|312:192|308:162,1,50,8|0,0:0|0:0,0:0:0:0:
237,122,215303,1,0,0:0:0:0:
414,34,215616,6,0,L|442:37,3,25,8|8|8|8,0:3|0:3|0:3|0:3,0:0:0:0:
396,74,215928,2,0,L|371:76,3,25
419,112,216241,2,0,L|447:115,3,25,8|8|8|8,0:3|0:3|0:3|0:3,0:0:0:0:
402,154,216553,2,0,L|377:156,3,25
447,189,216866,6,0,L|445:310,1,100,8|0,0:3|0:0,0:0:0:0:
363,280,217334,1,0,0:0:0:0:
311,214,217491,2,0,L|286:211,3,25,8|0|0|0,0:0|0:0|0:0|0:0,0:0:0:0:
278,244,217803,2,0,L|253:246,3,25
272,289,218116,6,0,L|102:294,1,150,4|0,0:0|0:0,0:0:0:0:
49,355,218741,1,8,0:0:0:0:
108,174,219053,1,0,0:0:0:0:
108,174,219209,6,0,P|156:178|204:227,1,100,4|0,0:0|0:0,0:0:0:0:
254,279,219678,2,0,L|303:278,1,50,0|0,0:0|0:0,0:0:0:0:
381,229,219991,2,0,L|430:229,1,50,8|0,0:0|0:0,0:0:0:0:
407,133,220303,1,0,0:0:0:0:
453,52,220459,1,0,0:0:0:0:
354,54,220616,6,0,L|200:55,1,150,4|0,0:0|0:0,0:0:0:0:
107,57,221241,1,8,0:0:0:0:
157,258,221553,1,0,0:0:0:0:
157,258,221709,6,0,B|145:203|145:203|156:140,1,100,4|0,0:0|0:0,0:0:0:0:
249,158,222178,1,0,0:0:0:0:
391,283,222491,2,0,L|389:233,1,50,8|0,0:0|0:0,0:0:0:0:
476,194,222803,1,0,0:0:0:0:
476,194,222959,1,8,0:0:0:0:
483,104,223116,6,0,B|438:92|438:92|382:108|382:108|330:98,1,150,4|0,0:0|0:0,0:0:0:0:
253,73,223741,1,8,0:0:0:0:
81,179,224053,1,0,0:0:0:0:
81,179,224209,6,0,B|130:189|130:189|178:177,1,100,4|0,0:0|0:0,0:0:0:0:
268,163,224678,1,0,0:0:0:0:
355,195,224834,1,0,0:0:0:0:
427,132,224991,2,0,L|424:83,1,50,8|0,0:0|0:0,0:0:0:0:
339,26,225303,2,0,L|336:75,1,50,0|0,0:0|0:0,0:0:0:0:
268,163,225616,6,0,B|214:174|214:174|167:161|167:161|114:169,1,150,4|0,0:0|0:0,0:0:0:0:
34,217,226241,1,8,0:0:0:0:
176,305,226553,2,0,L|178:366,2,50,0|4|0,0:0|0:0|0:0,0:0:0:0:
243,250,227022,6,0,L|303:254,1,50,0|8,0:0|0:0,0:0:0:0:
386,255,227334,1,8,0:0:0:0:
335,172,227491,2,0,P|331:129|335:115,1,50,8|8,0:0|0:0,0:0:0:0:
419,93,227803,2,0,P|423:50|419:36,1,50,8|8,0:0|0:0,0:0:0:0:
324,27,228116,6,0,B|277:33|277:33|229:19|229:19|176:26,1,150,4|0,0:0|0:0,0:0:0:0:
98,74,228741,1,8,0:0:0:0:
189,194,229053,1,0,0:0:0:0:
189,194,229209,6,0,P|210:239|200:303,1,100,4|0,0:0|0:0,0:0:0:0:
191,374,229678,1,0,0:0:0:0:
369,323,229991,1,8,0:0:0:0:
369,323,230147,2,0,B|419:334|419:334|478:323,1,100,0|0,0:0|0:0,0:0:0:0:
420,232,230616,6,0,B|413:185|413:185|433:139|433:139|428:87,1,150,4|0,0:0|0:0,0:0:0:0:
346,23,231241,1,8,0:0:0:0:
147,84,231553,1,0,0:0:0:0:
147,84,231709,6,0,L|37:86,1,100,4|0,0:0|0:0,0:0:0:0:
26,179,232178,1,0,0:0:0:0:
214,203,232491,2,0,L|212:258,1,50,8|0,0:0|0:0,0:0:0:0:
123,285,232803,1,0,0:0:0:0:
116,379,232959,1,0,0:0:0:0:
209,358,233116,6,0,B|260:348|260:348|311:366|311:366|367:355,1,150,4|0,0:0|0:0,0:0:0:0:
416,301,233741,1,8,0:0:0:0:
337,139,234053,1,0,0:0:0:0:
337,139,234209,6,0,B|284:131|284:131|228:140,1,100,4|0,0:0|0:0,0:0:0:0:
154,151,234678,1,0,0:0:0:0:
61,159,234834,1,0,0:0:0:0:
61,159,234991,2,0,B|46:109|46:109|57:52,1,100,8|8,0:0|0:0,0:0:0:0:
136,32,235459,1,0,0:0:0:0:
221,17,235616,6,0,P|280:19|322:41,1,100,4|0,0:0|0:0,0:0:0:0:
304,123,236084,1,0,0:0:0:0:
218,159,236241,2,0,P|208:209|207:258,1,100,8|8,0:0|0:3,0:0:0:0:
261,330,236709,2,0,L|296:328,2,25,8|8|0,0:3|0:3|0:0,0:0:0:0:
206,257,237022,1,0,0:0:0:0:
137,315,237178,1,0,0:0:0:0:
137,315,237334,1,8,0:3:0:0:
86,240,237491,2,0,L|91:207,3,25,0|0|0|0,0:0|0:0|0:0|0:0,0:0:0:0:
70,180,237803,2,0,L|65:147,3,25,0|0|0|0,0:0|0:0|0:0|0:0,0:0:0:0:
0,114,238116,6,0,L|170:119,1,150,4|0,0:0|0:0,0:0:0:0:
250,130,238741,1,8,0:0:0:0:
146,240,239053,1,0,0:0:0:0:
146,240,239209,6,0,P|109:271|40:270,1,100,4|0,0:0|0:0,0:0:0:0:
18,367,239678,2,0,L|67:366,1,50,0|0,0:0|0:0,0:0:0:0:
159,342,239991,2,0,L|208:342,1,50,8|0,0:0|0:0,0:0:0:0:
299,369,240303,1,0,0:0:0:0:
366,303,240459,1,0,0:0:0:0:
275,272,240616,6,0,P|262:205|290:161,1,100,4|0,0:0|0:0,0:0:0:0:
320,99,241084,1,0,0:0:0:0:
368,167,241241,1,8,0:0:0:0:
225,98,241553,1,0,0:0:0:0:
225,98,241709,6,0,B|213:43|213:43|224:-20,1,100,4|0,0:0|0:0,0:0:0:0:
316,12,242178,2,0,L|381:17,1,50,0|0,0:0|0:0,0:0:0:0:
455,22,242491,1,8,0:0:0:0:
460,25,242647,1,0,0:0:0:0:
415,124,242803,2,0,L|416:173,1,50,0|0,0:0|0:0,0:0:0:0:
508,264,243116,6,0,B|463:252|463:252|407:268|407:268|355:258,1,150,4|0,0:0|0:0,0:0:0:0:
275,240,243741,2,0,P|275:274|281:299,1,50,8|0,0:0|0:0,0:0:0:0:
204,339,244053,1,0,0:0:0:0:
204,339,244209,6,0,B|155:349|155:349|106:337,1,100,4|0,0:0|0:0,0:0:0:0:
53,280,244678,2,0,L|57:216,1,50,0|0,0:0|0:0,0:0:0:0:
140,212,244991,2,0,L|137:163,1,50,8|0,0:0|0:0,0:0:0:0:
55,97,245303,2,0,L|52:146,1,50,0|0,0:0|0:0,0:0:0:0:
146,69,245616,6,0,B|191:62|191:62|238:75|238:75|292:64,1,150,4|0,0:0|0:0,0:0:0:0:
390,75,246241,2,0,L|388:136,1,50,8|0,0:0|0:0,0:0:0:0:
304,159,246553,2,0,L|306:220,1,50,0|0,0:0|0:0,0:0:0:0:
296,303,246866,6,0,L|255:300,4,25,8|8|8|8|8,0:3|0:3|0:3|0:3|0:0,0:0:0:0:
376,271,247334,1,0,0:0:0:0:
440,210,247491,2,0,P|444:167|440:153,1,50,0|0,0:0|0:0,0:0:0:0:
367,102,247803,2,0,P|361:77|364:52,1,50,0|0,0:0|0:0,0:0:0:0:
242,24,248116,6,0,B|195:30|195:30|147:16|147:16|94:23,1,150,4|0,0:0|0:0,0:0:0:0:
16,91,248741,1,8,0:0:0:0:
222,128,249053,1,0,0:0:0:0:
222,128,249209,6,0,P|243:173|233:237,1,100,4|0,0:0|0:0,0:0:0:0:
174,292,249678,1,0,0:0:0:0:
54,185,249991,1,8,0:0:0:0:
54,185,250147,2,0,B|104:196|104:196|163:185,1,100,8|0,0:0|0:0,0:0:0:0:
239,222,250616,6,0,B|245:52,1,150,4|0,0:0|0:0,0:0:0:0:
333,29,251241,1,8,0:0:0:0:
147,84,251553,1,0,0:0:0:0:
147,84,251709,6,0,L|37:86,1,100,4|0,0:0|0:0,0:0:0:0:
2,152,252178,1,0,0:0:0:0:
160,175,252491,2,0,L|215:172,1,50,8|0,0:0|0:0,0:0:0:0:
307,162,252803,1,0,0:0:0:0:
307,162,252959,1,0,0:0:0:0:
269,281,253116,6,0,B|218:271|218:271|167:289|167:289|111:278,1,150,4|0,0:0|0:0,0:0:0:0:
43,264,253741,1,8,0:0:0:0:
0,103,254053,1,0,0:0:0:0:
0,103,254209,6,0,P|45:93|109:104,1,100,4|0,0:0|0:0,0:0:0:0:
181,138,254678,1,0,0:0:0:0:
274,133,254834,1,0,0:0:0:0:
274,133,254991,2,0,B|270:26,1,100,8|0,0:0|0:0,0:0:0:0:
358,21,255459,1,0,0:0:0:0:
435,80,255616,6,0,P|447:143|425:186,1,100,4|0,0:0|0:0,0:0:0:0:
354,211,256084,1,0,0:0:0:0:
420,276,256241,2,0,L|417:337,1,50,8|0,0:0|0:0,0:0:0:0:
331,363,256553,6,0,L|212:358,1,100,8|4,0:0|0:0,0:0:0:0:
165,287,257022,1,0,0:0:0:0:
226,218,257178,2,0,L|222:158,1,50,8|8,0:0|0:0,0:0:0:0:
142,147,257491,2,0,L|146:87,1,50,8|8,0:0|0:0,0:0:0:0:
230,80,257803,2,0,L|226:20,1,50,8|8,0:0|0:0,0:0:0:0:
326,31,258116,6,0,P|378:35|423:67,1,100,4|0,0:0|0:0,0:0:0:0:
417,162,258741,2,0,P|365:166|320:198,1,100,0|0,0:0|0:0,0:0:0:0:
315,280,259366,2,0,P|367:284|412:316,1,100,0|0,0:0|0:0,0:0:0:0:
336,373,259834,1,0,0:0:0:0:
247,337,259990,2,0,L|197:335,1,50
110,374,260303,2,0,L|60:376,1,50
44,282,260616,5,0,0:0:0:0:
44,282,261241,2,0,L|36:235,3,25
146,257,261866,2,0,L|138:304,3,25
235,225,262491,2,0,L|230:200,3,25
245,175,262803,1,0,0:0:0:0:
330,79,263116,5,0,0:0:0:0:
