osu file format v14

[General]
AudioFilename: audio.mp3
AudioLeadIn: 0
PreviewTime: 177182
Countdown: 0
SampleSet: Soft
StackLeniency: 0.4
Mode: 0
LetterboxInBreaks: 0
WidescreenStoryboard: 0

[Editor]
Bookmarks: 24604,53198,63198,220698
DistanceSpacing: 1.5
BeatDivisor: 4
GridSize: 32
TimelineZoom: 1.8

[Metadata]
Title:Endure The Silence
TitleUnicode:Endure The Silence
Artist:Myrath
ArtistUnicode:Myrath
Creator:LMT
Version:Insane
Source:
Tags:Mir BOUYAAA tunisian middle eastern folk progressive metal Xtazy legacy ميراث
BeatmapID:1219563
BeatmapSetID:555454

[Difficulty]
HPDrainRate:6
CircleSize:4
OverallDifficulty:7
ApproachRate:9
SliderMultiplier:1.5
SliderTickRate:1

[Events]
//Background and Video events
0,0,"arab_drawing.jpg",0,0
//Break Periods
2,43116,47516
//Storyboard Layer 0 (Background)
//Storyboard Layer 1 (Fail)
//Storyboard Layer 2 (Pass)
//Storyboard Layer 3 (Foreground)
//Storyboard Sound Samples

[TimingPoints]
616,625,4,2,0,30,1,0
20616,312.5,4,3,2,90,1,0
29991,-66.6666666666667,4,3,2,90,0,0
30303,-100,4,3,2,90,0,0
88116,-100,4,3,2,90,0,1
108116,-100,4,2,0,30,0,0
122491,-66.6666666666667,4,3,2,90,0,0
122803,-100,4,3,2,90,0,0
178116,-100,4,3,2,90,0,1
198116,-100,4,3,2,90,0,0
207491,-66.6666666666667,4,3,2,90,0,0
208116,-100,4,3,2,90,0,0
218116,-100,4,3,2,90,0,1
258116,-100,4,2,0,30,0,0

[Colours]
Combo1 : 141,245,254
Combo2 : 232,249,23
Combo3 : 109,208,245
Combo4 : 255,255,198

[HitObjects]
222,118,616,6,0,L|195:278,1,150,0|0,0:0|0:0,0:0:0:0:
241,339,1553,1,0,0:0:0:0:
439,295,1866,2,0,L|277:268,1,150,0|0,0:0|0:0,0:0:0:0:
241,339,2803,1,0,0:0:0:0:
241,339,3428,1,0,0:0:0:0:
116,286,3741,2,0,L|222:262,1,75,0|0,0:0|0:0,0:0:0:0:
241,339,4366,1,0,0:0:0:0:
241,339,4991,1,0,0:0:0:0:
227,107,5303,1,0,0:0:0:0:
427,303,5616,6,0,L|448:137,1,150,4|0,0:0|0:0,0:0:0:0:
456,75,6553,1,0,0:0:0:0:
251,304,6866,6,0,L|234:148,1,150,4|0,0:0|0:0,0:0:0:0:
223,73,7803,1,0,0:0:0:0:
76,290,8116,5,0,0:0:0:0:
41,156,8428,2,0,L|27:104,1,37.5,0|0,0:0|0:0,0:0:0:0:
11,50,8741,1,0,0:0:0:0:
138,150,9053,2,0,L|154:91,1,37.5,0|0,0:0|0:0,0:0:0:0:
166,44,9366,1,0,0:0:0:0:
229,179,9678,2,0,L|272:139,1,37.5,0|0,0:0|0:0,0:0:0:0:
311,104,9991,1,0,0:0:0:0:
375,373,10616,6,0,L|388:273,1,75,0|0,0:0|0:0,0:0:0:0:
344,212,11241,1,0,0:0:0:0:
282,285,11553,1,0,0:0:0:0:
81,241,11866,2,0,L|237:204,1,150,0|0,0:0|0:0,0:0:0:0:
282,285,12803,1,0,0:0:0:0:
489,246,13116,2,0,L|333:209,1,150,0|0,0:0|0:0,0:0:0:0:
282,285,14053,1,0,0:0:0:0:
282,285,14678,1,0,0:0:0:0:
306,55,14991,1,0,0:0:0:0:
282,285,15303,1,0,0:0:0:0:
177,56,15616,6,0,L|161:230,1,150,4|0,0:0|0:0,0:0:0:0:
151,301,16553,1,0,0:0:0:0:
306,55,16866,6,0,L|328:236,1,150,4|0,0:0|0:0,0:0:0:0:
343,302,17803,1,0,0:0:0:0:
471,71,18116,6,0,L|465:31,2,37.5,0|0|0,0:0|0:0|0:0,0:0:0:0:
482,153,18584,1,0,0:0:0:0:
493,234,18741,2,0,L|500:274,2,37.5,0|0|0,0:0|0:0|0:0,0:0:0:0:
482,153,19209,1,0,0:0:0:0:
325,180,19366,5,0,0:0:0:0:
403,166,19522,1,0,0:0:0:0:
248,194,19678,2,0,L|191:207,2,37.5,0|0|0,0:0|0:0|0:0,0:0:0:0:
325,180,20147,1,0,0:0:0:0:
354,104,20303,1,0,0:0:0:0:
373,242,20459,2,0,L|375:270,1,18.75,0|0,0:0|0:0,0:0:0:0:
439,294,20616,6,0,P|372:290|280:328,1,150,4|0,0:0|0:0,0:0:0:0:
219,365,21084,2,0,L|213:261,1,75,0|8,0:0|0:0,0:0:0:0:
156,236,21397,1,0,0:0:0:0:
31,307,21553,2,0,P|73:308|113:296,1,75,0|0,0:0|0:0,0:0:0:0:
209,171,21866,6,0,B|240:158|240:158|298:188|365:158,1,150,4|0,0:0|0:0,0:0:0:0:
403,95,22334,1,0,0:0:0:0:
455,235,22491,2,0,L|462:129,1,75,8|0,0:0|0:0,0:0:0:0:
501,83,22803,1,0,0:0:0:0:
403,95,22959,1,0,0:0:0:0:
312,57,23116,6,0,P|236:44|151:66,1,150,4|0,0:0|0:0,0:0:0:0:
96,110,23584,2,0,L|86:59,2,37.5,0|0|8,0:0|0:0|0:0,0:0:0:0:
173,136,23897,1,0,0:0:0:0:
33,180,24053,2,0,L|107:191,1,75,0|0,0:0|0:0,0:0:0:0:
135,350,24366,5,4,0:0:0:0:
161,265,24522,2,0,P|211:252|256:266,2,75,0|0|0,0:0|0:0|0:0,0:0:0:0:
19,351,24991,2,0,L|10:261,1,75,12|0,0:0|0:0,0:0:0:0:
104,123,25303,1,0,0:0:0:0:
26,191,25459,1,0,0:0:0:0:
199,92,25616,6,0,B|236:77|236:77|267:93|290:82|290:82|314:68|353:88,1,150,4|0,0:0|0:0,0:0:0:0:
420,122,26084,2,0,L|423:79,2,37.5,0|0|8,0:0|0:0|0:0,0:0:0:0:
477,181,26397,2,0,L|471:229,1,37.5,0|0,0:0|0:0,0:0:0:0:
409,263,26553,2,0,P|357:275|320:264,1,75,8|0,0:0|0:0,0:0:0:0:
175,203,26866,6,0,B|212:188|212:188|243:204|266:193|266:193|290:179|329:199,1,150,4|0,0:0|0:0,0:0:0:0:
409,263,27334,2,0,L|412:220,2,37.5,0|0|8,0:0|0:0|0:0,0:0:0:0:
477,310,27647,2,0,L|471:358,1,37.5,0|0,0:0|0:0,0:0:0:0:
392,370,27803,2,0,P|342:357|304:362,1,75,8|0,0:0|0:0,0:0:0:0:
192,362,28116,6,0,L|184:320,7,37.5,0|0|0|0|0|0|0|0,0:0|0:0|0:0|0:0|0:0|0:0|0:0|0:0,0:0:0:0:
113,274,28741,2,0,L|120:218,3,37.5,0|0|0|0,0:0|0:0|0:0|0:0,0:0:0:0:
191,196,29053,2,0,L|182:132,3,37.5,0|0|0|0,0:0|0:0|0:0|0:0,0:0:0:0:
105,99,29366,6,0,L|88:47,1,37.5,8|0,2:3|2:3,0:0:0:0:
182,58,29522,2,0,L|182:14,1,37.5,8|0,2:3|2:3,0:0:0:0:
257,96,29678,2,0,P|307:77|374:88,1,112.5
440,77,29991,2,0,B|448:112|410:148|410:148|427:172|427:172|395:221|417:293,1,225.000008583069,0|8,0:0|0:3,0:0:0:0:
476,370,30459,1,8,0:3:0:0:
344,344,30616,6,0,P|268:328|183:347,1,150,4|0,0:0|0:0,0:0:0:0:
118,350,31084,2,0,L|107:268,1,75,0|8,0:0|0:0,0:0:0:0:
72,201,31397,1,0,0:0:0:0:
234,203,31553,2,0,P|175:213|132:203,1,75,0|0,0:0|0:0,0:0:0:0:
129,73,31866,6,0,L|125:35,1,37.5,4|0,0:0|0:0,0:0:0:0:
74,120,32022,2,0,P|144:100|247:116,1,150,0|0,0:0|0:0,0:0:0:0:
302,144,32491,2,0,L|313:40,1,75,8|0,0:0|0:0,0:0:0:0:
374,18,32803,1,0,0:0:0:0:
442,96,32959,1,0,0:0:0:0:
462,198,33116,6,0,L|450:295,1,75,4|0,0:0|0:0,0:0:0:0:
387,362,33428,1,0,0:0:0:0:
283,326,33584,2,0,L|274:367,2,37.5
232,234,33897,1,0,0:0:0:0:
341,145,34053,2,0,P|294:141|246:153,1,75
350,289,34366,6,0,P|363:202|332:132,1,150,4|0,0:0|0:0,0:0:0:0:
282,58,34834,1,0,0:0:0:0:
126,86,34991,2,0,L|228:95,1,75,8|0,0:0|0:0,0:0:0:0:
416,135,35303,2,0,L|328:147,1,75,8|0,0:0|0:0,0:0:0:0:
237,354,35616,6,0,L|283:44,1,300,12|8,0:0|0:0,0:0:0:0:
51,222,36553,2,0,L|42:165,2,37.5,0|0|0,0:0|0:0|0:0,0:0:0:0:
148,349,36866,6,0,L|102:39,1,300,12|8,0:0|0:0,0:0:0:0:
201,166,37647,2,0,L|206:203,2,37.5,0|0|8,0:0|0:0|0:0,0:0:0:0:
304,114,38116,6,0,P|362:103|424:114,1,112.5,4|0,0:0|0:0,0:0:0:0:
455,170,38428,2,0,L|456:221,1,37.5,0|0,0:0|0:0,0:0:0:0:
455,279,38584,1,0,0:0:0:0:
369,350,38741,6,0,P|311:361|249:350,1,112.5,12|0,0:0|0:0,0:0:0:0:
218,294,39053,2,0,L|217:243,1,37.5,0|0,0:0|0:0,0:0:0:0:
218,185,39209,1,0,0:0:0:0:
154,97,39366,6,0,L|153:48,2,37.5,12|0|0,0:0|0:0|0:0,0:0:0:0:
96,185,39678,1,8,0:0:0:0:
218,185,39834,1,8,0:0:0:0:
279,88,39991,1,0,0:0:0:0:
402,82,40147,1,0,0:0:0:0:
342,185,40303,1,8,0:0:0:0:
279,88,40459,5,8,0:3:0:0:
256,192,48116,12,0,52491,0:0:0:0:
178,296,53116,6,0,L|158:140,1,150,4|0,0:0|0:0,0:0:0:0:
148,70,53584,1,0,0:0:0:0:
148,70,53897,2,0,L|223:86,2,75,0|0|0,0:0|0:0|0:0,0:0:0:0:
50,34,54991,5,8,0:0:0:0:
283,365,55616,6,0,L|304:211,1,150
356,163,56084,1,0,0:0:0:0:
356,163,56397,6,0,L|404:146,1,37.5,0|0,0:0|0:0,0:0:0:0:
434,209,56553,2,0,P|422:147|430:106,1,75,0|0,0:0|0:0,0:0:0:0:
464,72,56866,1,0,0:0:0:0:
471,351,57491,5,8,0:0:0:0:
356,163,58116,6,0,L|202:184,1,150
154,236,58584,1,0,0:0:0:0:
154,236,58897,6,0,L|146:290,2,37.5,0|0|0,0:0|0:0|0:0,0:0:0:0:
255,253,59209,2,0,L|248:292,1,37.5,0|0,0:0|0:0,0:0:0:0:
189,351,59366,1,0,0:0:0:0:
50,34,59991,5,8,0:0:0:0:
310,155,60616,5,0,0:0:0:0:
310,155,60928,1,0,0:0:0:0:
352,74,61084,2,0,L|434:65,1,75,0|8,0:0|0:0,0:0:0:0:
200,329,61866,5,4,0:0:0:0:
200,329,62178,1,0,0:0:0:0:
158,248,62334,2,0,L|76:239,1,75,0|8,0:0|0:0,0:0:0:0:
429,366,62803,1,0,0:0:0:0:
371,107,63116,6,0,P|318:98|267:106,1,75,4|0,0:0|0:0,0:0:0:0:
139,140,63428,2,0,P|192:131|243:139,1,75,0|0,0:0|0:0,0:0:0:0:
293,249,63741,2,0,L|278:158,2,75,8|0|0,0:0|0:0|0:0,0:0:0:0:
228,298,64209,1,0,0:0:0:0:
304,328,64366,6,0,L|378:316,1,75,0|0,0:0|0:0,0:0:0:0:
487,231,64678,2,0,L|405:247,1,75,0|0,0:0|0:0,0:0:0:0:
434,375,64991,2,0,P|456:324|392:237,1,150,8|0,0:0|0:0,0:0:0:0:
331,216,65459,1,0,0:0:0:0:
331,216,65772,6,0,P|256:240|183:216,1,150,0|0,0:0|0:0,0:0:0:0:
121,168,66241,2,0,L|112:86,1,75,8|0,0:0|0:0,0:0:0:0:
176,0,66553,2,0,L|185:82,1,75,0|0,0:0|0:0,0:0:0:0:
196,148,66866,5,0,0:0:0:0:
259,96,67022,2,0,P|308:88|359:97,2,75,0|0|0,0:0|0:0|0:0,0:0:0:0:
275,244,67491,2,0,L|268:146,1,75,8|0,0:0|0:0,0:0:0:0:
203,297,67803,2,0,L|189:373,1,75,0|0,0:0|0:0,0:0:0:0:
353,321,68116,6,0,P|301:329|266:316,2,75,4|0|0,0:0|0:0|0:0,0:0:0:0:
399,254,68584,1,0,0:0:0:0:
318,164,68741,2,0,L|230:155,1,75,8|0,0:0|0:0,0:0:0:0:
87,197,69053,2,0,L|175:206,1,75
215,322,69366,6,0,P|231:279|228:225,1,75
67,341,69678,2,0,L|218:322,1,150,0|8,0:0|0:0,0:0:0:0:
316,360,70147,1,0,0:0:0:0:
401,305,70303,2,0,L|408:221,1,75,0|0,0:0|0:0,0:0:0:0:
361,138,70616,6,0,P|412:136|452:118,2,75,4|0|0,0:0|0:0|0:0,0:0:0:0:
287,77,71084,1,0,0:0:0:0:
195,176,71241,2,0,L|182:273,1,75,8|0,0:0|0:0,0:0:0:0:
101,325,71553,2,0,L|114:228,1,75,0|0,0:0|0:0,0:0:0:0:
328,268,71866,6,0,P|285:279|235:269,1,75,0|0,0:0|0:0,0:0:0:0:
425,210,72178,2,0,P|468:199|518:209,1,75,0|0,0:0|0:0,0:0:0:0:
343,168,72491,2,0,L|333:90,1,75,8|0,0:0|0:0,0:0:0:0:
401,310,72803,2,0,L|411:388,1,75,8|0,0:0|0:0,0:0:0:0:
196,171,73116,6,0,P|261:156|355:173,1,150,4|0,0:0|0:0,0:0:0:0:
425,210,73584,1,0,0:0:0:0:
446,121,73741,2,0,L|459:41,1,75,8|0,0:0|0:0,0:0:0:0:
509,184,74053,2,0,L|496:264,1,75,0|0,0:0|0:0,0:0:0:0:
416,304,74366,6,0,L|336:290,1,75,0|0,0:0|0:0,0:0:0:0:
275,344,74678,2,0,L|181:326,1,75,0|0,0:0|0:0,0:0:0:0:
232,190,74991,2,0,P|236:263|189:340,1,150,8|0,0:0|0:0,0:0:0:0:
125,355,75459,1,0,0:0:0:0:
50,306,75616,6,0,L|41:222,1,75,4|0,0:0|0:0,0:0:0:0:
14,131,75928,2,0,P|82:150|174:126,1,150,0|8,0:0|0:0,0:0:0:0:
217,64,76397,1,0,0:0:0:0:
271,146,76553,2,0,L|264:203,2,37.5,0|0|0,0:0|0:0|0:0,0:0:0:0:
343,73,76866,5,0,0:0:0:0:
394,153,77022,2,0,P|442:161|487:150,1,75,0|0,0:0|0:0,0:0:0:0:
327,224,77334,1,0,0:0:0:0:
260,289,77490,2,0,P|212:297|167:286,1,75,8|0,0:0|0:0,0:0:0:0:
163,205,77803,2,0,L|168:113,1,75,0|0,0:0|0:0,0:0:0:0:
2,205,78116,6,0,P|59:193|104:206,2,75,4|0|0,0:0|0:0|0:0,0:0:0:0:
51,298,78584,1,0,0:0:0:0:
160,319,78741,2,0,L|247:310,1,75,8|0,0:0|0:0,0:0:0:0:
393,232,79053,2,0,L|306:241,1,75
246,151,79366,6,0,P|228:203|238:242,1,75
396,136,79678,2,0,L|240:152,1,150,0|8,0:0|0:0,0:0:0:0:
170,92,80147,1,0,0:0:0:0:
49,172,80303,2,0,L|138:161,1,75,0|0,0:0|0:0,0:0:0:0:
195,367,80616,6,0,P|201:309|182:207,2,150,4|0|8,0:0|0:0|0:0,0:0:0:0:
310,333,81397,2,0,P|302:278|311:238,2,75,0|0|0,0:0|0:0|0:0,0:0:0:0:
269,164,81866,6,0,L|281:62,1,75,0|0,0:0|0:0,0:0:0:0:
419,48,82178,1,0,0:0:0:0:
339,32,82334,1,0,0:0:0:0:
351,192,82491,2,0,L|361:93,1,75,8|8,0:0|0:0,0:0:0:0:
491,113,82803,1,8,0:0:0:0:
419,48,82959,1,8,0:0:0:0:
415,250,83116,5,4,0:0:0:0:
256,192,83350,12,0,86866,0:0:0:0:
141,284,87178,5,0,0:0:0:0:
256,47,87491,1,0,0:0:0:0:
383,289,87803,1,0,0:0:0:0:
46,171,88116,6,0,P|118:158|207:174,1,150,4|0,0:0|0:0,0:0:0:0:
251,238,88584,1,0,0:0:0:0:
377,171,88741,2,0,P|333:162|290:173,1,75,8|0,0:0|0:0,0:0:0:0:
244,319,89053,1,0,0:0:0:0:
31,276,89209,6,0,P|103:263|192:279,1,150,4|0,0:0|0:0,0:0:0:0:
326,363,89678,2,0,P|337:312|325:267,1,75,0|0,0:0|0:0,0:0:0:0:
220,208,89991,2,0,P|269:192|302:159,1,75,8|0,0:0|0:0,0:0:0:0:
436,211,90303,2,0,P|386:195|353:162,1,75,0|0,0:0|0:0,0:0:0:0:
175,45,90616,6,0,P|239:32|345:60,1,150,4|0,0:0|0:0,0:0:0:0:
329,123,91084,1,0,0:0:0:0:
465,76,91241,2,0,P|422:68|373:83,1,75,8|0,0:0|0:0,0:0:0:0:
328,199,91553,1,0,0:0:0:0:
111,152,91709,6,0,P|175:139|281:167,1,150,4|0,0:0|0:0,0:0:0:0:
323,274,92178,2,0,L|314:354,1,75,0|0,0:0|0:0,0:0:0:0:
147,320,92491,2,0,P|192:313|248:328,1,75,8|0,0:0|0:0,0:0:0:0:
133,214,92803,1,0,0:0:0:0:
147,320,92959,1,0,0:0:0:0:
278,215,93116,6,0,P|223:200|114:222,1,150,4|0,0:0|0:0,0:0:0:0:
57,276,93584,1,0,0:0:0:0:
37,157,93741,2,0,L|23:71,1,75,8|0,0:0|0:0,0:0:0:0:
80,26,94053,1,0,0:0:0:0:
256,97,94209,6,0,P|172:113|99:88,1,150,4|0,0:0|0:0,0:0:0:0:
133,253,94678,2,0,L|119:167,2,75,0|0|8,0:0|0:0|0:0,0:0:0:0:
198,325,95147,1,0,0:0:0:0:
333,258,95303,2,0,P|279:248|234:267,1,75,0|0,0:0|0:0,0:0:0:0:
440,357,95616,6,0,L|461:196,1,150,4|0,0:0|0:0,0:0:0:0:
413,136,96084,1,0,0:0:0:0:
290,60,96241,1,8,0:0:0:0:
290,60,96553,1,0,0:0:0:0:
81,107,96709,6,0,P|162:119|240:104,1,150,4|0,0:0|0:0,0:0:0:0:
272,253,97178,2,0,L|279:156,1,75,8|8,0:0|0:0,0:0:0:0:
157,298,97491,2,0,L|188:215,1,75,8|8,0:0|0:0,0:0:0:0:
17,268,97803,1,8,0:0:0:0:
102,177,97959,1,8,0:0:0:0:
277,178,98116,6,0,P|355:191|430:172,1,150,4|0,0:0|0:0,0:0:0:0:
488,125,98584,1,0,0:0:0:0:
504,274,98741,2,0,P|492:215|504:169,1,75,8|0,0:0|0:0,0:0:0:0:
494,48,99053,1,0,0:0:0:0:
276,82,99209,6,0,P|354:95|429:76,1,150,4|0,0:0|0:0,0:0:0:0:
390,194,99678,2,0,P|345:202|293:187,1,75,0|0,0:0|0:0,0:0:0:0:
130,188,99991,2,0,P|175:196|227:181,1,75,8|0,0:0|0:0,0:0:0:0:
251,328,100303,2,0,P|263:273|246:228,1,75,0|0,0:0|0:0,0:0:0:0:
25,345,100616,6,0,B|99:372|178:345,1,150,4|0,0:0|0:0,0:0:0:0:
251,328,101084,1,0,0:0:0:0:
402,346,101241,2,0,P|361:357|309:346,1,75,8|0,0:0|0:0,0:0:0:0:
249,162,101553,1,0,0:0:0:0:
314,276,101709,6,0,L|339:115,1,150,4|0,0:0|0:0,0:0:0:0:
417,74,102178,2,0,L|406:-4,1,75,0|0,0:0|0:0,0:0:0:0:
253,30,102491,2,0,P|304:43|352:28,1,75,8|0,0:0|0:0,0:0:0:0:
249,162,102803,1,0,0:0:0:0:
253,30,102959,1,0,0:0:0:0:
41,90,103116,6,0,P|103:101|200:85,1,150,4|0,0:0|0:0,0:0:0:0:
249,162,103584,1,0,0:0:0:0:
391,97,103741,2,0,P|339:89|291:107,1,75,8|0,0:0|0:0,0:0:0:0:
185,271,104053,1,0,0:0:0:0:
249,162,104209,6,0,L|270:332,1,150,4|0,0:0|0:0,0:0:0:0:
185,271,104678,1,0,0:0:0:0:
326,187,104834,2,0,L|339:296,2,75,8|0|0,0:0|0:0|0:0,0:0:0:0:
176,196,105303,2,0,L|185:271,1,75,8|0,0:0|0:0,0:0:0:0:
30,350,105616,6,0,P|84:333|186:357,1,150,4|0,0:0|0:0,0:0:0:0:
261,365,106084,1,0,0:0:0:0:
396,286,106241,1,8,0:0:0:0:
396,286,106553,1,0,0:0:0:0:
191,237,106709,6,0,P|286:247|366:221,1,150,4|8,0:0|0:0,0:0:0:0:
376,171,107100,1,8,0:0:0:0:
376,171,107178,2,0,L|386:88,1,75,8|8,0:0|0:0,0:0:0:0:
465,234,107491,2,0,L|455:137,1,75,8|8,0:0|0:0,0:0:0:0:
377,314,107803,1,8,0:0:0:0:
465,234,107959,1,8,0:0:0:0:
503,380,108116,5,4,0:0:0:0:
253,334,108741,5,0,0:0:0:0:
503,380,109366,5,0,0:0:0:0:
253,334,109991,5,0,0:0:0:0:
512,136,110616,5,0,0:0:0:0:
210,210,111241,2,0,B|187:192|187:192|114:222|57:189,1,150,0|0,0:0|0:0,0:0:0:0:
302,210,111866,2,0,B|325:192|325:192|398:222|455:189,1,150,0|0,0:0|0:0,0:0:0:0:
256,312,112491,1,0,0:0:0:0:
256,100,112803,1,0,0:0:0:0:
210,210,112959,2,0,L|217:159,1,37.5,0|0,0:0|0:0,0:0:0:0:
144,246,113116,6,0,P|214:229|311:256,1,150,4|0,0:0|0:0,0:0:0:0:
351,313,113584,2,0,L|365:234,1,75,0|8,0:0|0:0,0:0:0:0:
415,181,113897,1,0,0:0:0:0:
512,249,114053,2,0,P|452:256|416:240,1,75,0|0,0:0|0:0,0:0:0:0:
310,146,114366,6,0,B|278:125|278:125|218:154|156:124,1,150,4|0,0:0|0:0,0:0:0:0:
106,174,114834,1,0,0:0:0:0:
149,302,114991,2,0,L|163:214,1,75,8|0,0:0|0:0,0:0:0:0:
100,93,115303,1,0,0:0:0:0:
106,174,115459,1,0,0:0:0:0:
168,47,115616,6,0,P|250:36|326:51,1,150,4|0,0:0|0:0,0:0:0:0:
415,127,116084,2,0,L|428:81,2,37.5,0|0|8,0:0|0:0|0:0,0:0:0:0:
352,184,116397,1,0,0:0:0:0:
400,256,116553,2,0,L|383:342,1,75,0|0,0:0|0:0,0:0:0:0:
247,365,116866,5,4,0:0:0:0:
210,263,117022,2,0,P|263:259|307:276,2,75,0|0|0,0:0|0:0|0:0,0:0:0:0:
91,328,117491,2,0,L|77:248,1,75,8|0,0:0|0:0,0:0:0:0:
139,106,117803,1,0,0:0:0:0:
107,181,117959,1,0,0:0:0:0:
215,76,118116,6,0,B|252:61|252:61|283:77|306:66|306:66|330:52|369:72,1,150,4|0,0:0|0:0,0:0:0:0:
432,118,118584,2,0,L|446:56,2,37.5,0|0|8,0:0|0:0|0:0,0:0:0:0:
469,194,118897,2,0,L|453:242,1,37.5,0|0,0:0|0:0,0:0:0:0:
393,271,119053,2,0,P|344:261|301:269,1,75,8|0,0:0|0:0,0:0:0:0:
151,347,119366,6,0,B|188:332|188:332|219:348|242:337|242:337|266:323|305:343,1,150,4|0,0:0|0:0,0:0:0:0:
393,271,119834,2,0,L|407:333,2,37.5,0|0|8,0:0|0:0|0:0,0:0:0:0:
430,195,120147,2,0,L|414:147,1,37.5,0|0,0:0|0:0,0:0:0:0:
354,118,120303,2,0,P|305:128|262:120,1,75,8|0,0:0|0:0,0:0:0:0:
175,45,120616,6,0,L|168:93,7,37.5,0|0|0|0|0|0|0|0,0:0|0:0|0:0|0:0|0:0|0:0|0:0|0:0,0:0:0:0:
95,153,121241,2,0,L|101:207,3,37.5,0|0|0|0,0:0|0:0|0:0|0:0,0:0:0:0:
159,264,121553,2,0,L|153:318,3,37.5,0|0|0|0,0:0|0:0|0:0|0:0,0:0:0:0:
280,219,121866,2,0,L|288:267,1,37.5,8|8,0:3|0:3,0:0:0:0:
325,157,122022,2,0,L|335:114,1,37.5,8|8,0:3|0:3,0:0:0:0:
362,223,122178,2,0,P|422:216|485:235,1,112.5,0|0,0:0|0:0,0:0:0:0:
495,305,122491,2,0,B|461:291|419:322|419:322|399:301|399:301|345:324|278:290,1,225.000008583069,0|8,0:0|0:3,0:0:0:0:
204,319,122959,2,0,L|191:271,1,37.5,8|0,0:3|0:0,0:0:0:0:
110,232,123116,6,0,P|191:234|265:197,1,150,4|0,0:0|0:0,0:0:0:0:
303,144,123584,2,0,L|315:63,1,75,0|8,0:0|0:0,0:0:0:0:
376,10,123897,1,0,0:0:0:0:
473,87,124053,2,0,P|430:95|382:77,1,75,0|0,0:0|0:0,0:0:0:0:
239,43,124366,6,0,L|232:-1,1,37.5,4|0,0:0|0:0,0:0:0:0:
313,69,124522,2,0,P|244:65|144:109,1,150,0|0,0:0|0:0,0:0:0:0:
122,168,124991,2,0,L|112:251,1,75,8|0,0:0|0:0,0:0:0:0:
194,354,125303,1,0,0:0:0:0:
125,320,125459,1,0,0:0:0:0:
269,323,125616,6,0,P|320:317|362:330,1,75,4|0,0:0|0:0,0:0:0:0:
488,224,125928,2,0,P|442:240|407:236,1,75,0|0,0:0|0:0,0:0:0:0:
276,109,126241,2,0,L|262:21,1,75,8|0,0:0|0:0,0:0:0:0:
212,203,126553,2,0,L|191:276,1,75,0|0,0:0|0:0,0:0:0:0:
33,123,126866,6,0,P|96:98|193:129,1,150,4|0,0:0|0:0,0:0:0:0:
212,203,127334,1,0,0:0:0:0:
276,109,127491,1,8,0:0:0:0:
208,193,127647,2,0,L|190:113,1,75,4|8,0:0|0:0,0:0:0:0:
290,192,127959,1,4,0:0:0:0:
343,331,128116,6,0,L|391:29,1,300,4|8,0:0|0:0,0:0:0:0:
148,175,129053,2,0,L|138:116,2,37.5,0|0|0,0:0|0:0|0:0,0:0:0:0:
99,332,129366,6,0,L|51:30,1,300,4|8,0:0|0:0,0:0:0:0:
158,18,130147,2,0,L|150:59,1,37.5,0|0,0:0|0:0,0:0:0:0:
246,56,130303,2,0,P|285:66|336:60,1,75,8|0,0:0|0:0,0:0:0:0:
416,24,130616,6,0,L|400:114,1,75,4|0,0:0|0:0,0:0:0:0:
451,167,130928,2,0,L|456:216,1,37.5,0|0,0:0|0:0,0:0:0:0:
427,274,131084,1,0,0:0:0:0:
357,331,131241,2,0,P|305:338|264:330,1,75,12|0,0:0|0:0,0:0:0:0:
216,274,131553,2,0,L|211:225,1,37.5,0|0,0:0|0:0,0:0:0:0:
240,167,131709,1,0,0:0:0:0:
154,86,131866,6,0,L|149:43,2,37.5,4|0|8,0:0|0:0|0:0,0:0:0:0:
240,167,132178,1,8,0:0:0:0:
288,70,132334,1,8,0:0:0:0:
362,207,132491,2,0,L|345:289,1,75,8|8,0:0|0:0,0:0:0:0:
417,73,132803,2,0,L|400:-9,1,75,8|8,0:0|0:0,0:0:0:0:
484,215,133116,5,4,0:0:0:0:
484,215,133428,1,0,0:0:0:0:
459,290,133584,2,0,L|437:363,1,75,0|8,0:0|0:0,0:0:0:0:
256,266,134366,5,0,0:0:0:0:
34,332,134991,1,8,0:0:0:0:
239,113,135616,5,4,0:0:0:0:
239,113,135928,2,0,L|154:99,1,75,0|0,0:0|0:0,0:0:0:0:
94,150,136241,2,0,P|87:186|92:223,1,75,8|0,0:0|0:0,0:0:0:0:
131,295,136553,2,0,P|178:305|222:298,1,75,0|0,0:0|0:0,0:0:0:0:
264,248,136866,2,0,P|307:243|342:247,1,75,0|0,0:0|0:0,0:0:0:0:
386,310,137178,2,0,P|429:315|464:311,1,75,0|0,0:0|0:0,0:0:0:0:
507,241,137491,2,0,P|507:179|499:144,1,75,8|0,0:0|0:0,0:0:0:0:
438,96,137803,2,0,L|441:52,2,37.5,0|0|0,0:0|0:0|0:0,0:0:0:0:
350,141,138116,5,4,0:0:0:0:
350,141,138428,1,0,0:0:0:0:
271,125,138584,2,0,L|181:109,1,75,0|8,0:0|0:0,0:0:0:0:
447,240,139366,5,4,0:0:0:0:
447,240,139678,1,0,0:0:0:0:
368,224,139834,2,0,L|278:208,1,75,0|8,0:0|0:0,0:0:0:0:
211,206,140147,1,0,0:0:0:0:
211,206,140303,1,0,0:0:0:0:
211,206,140459,1,0,0:0:0:0:
135,252,140616,5,4,0:0:0:0:
135,252,140928,1,0,0:0:0:0:
69,300,141084,2,0,L|56:377,1,75,0|8,0:0|0:0,0:0:0:0:
359,270,141866,5,0,0:0:0:0:
383,169,142022,2,0,L|389:125,2,37.5,8|8|8,0:0|0:0|0:0,0:0:0:0:
359,270,142334,1,8,0:0:0:0:
285,174,142491,2,0,L|274:82,1,75,8|8,0:0|0:0,0:0:0:0:
199,259,142803,2,0,L|165:330,1,75,8|8,0:0|0:0,0:0:0:0:
144,155,143116,5,12,0:0:0:0:
144,155,143428,1,0,0:0:0:0:
83,100,143584,2,0,L|0:91,1,75,0|8,0:0|0:0,0:0:0:0:
8,91,144053,2,0,L|1:48,2,37.5,0|0|0,0:0|0:0|0:0,0:0:0:0:
24,204,144366,6,0,L|3:366,1,150,0|0,0:0|0:0,0:0:0:0:
259,237,144991,2,0,L|238:75,1,150,8|0,0:0|0:0,0:0:0:0:
173,44,145459,1,0,0:0:0:0:
288,28,145616,5,4,0:0:0:0:
288,28,145928,1,0,0:0:0:0:
373,55,146084,2,0,L|459:44,1,75,0|8,0:0|0:0,0:0:0:0:
506,153,146397,1,0,0:0:0:0:
421,126,146553,2,0,L|335:137,1,75,0|0,0:0|0:0,0:0:0:0:
260,237,146866,5,0,0:0:0:0:
260,237,147178,1,0,0:0:0:0:
108,379,147491,2,0,L|84:210,1,150,8|0,0:0|0:0,0:0:0:0:
144,178,147959,1,0,0:0:0:0:
13,246,148116,5,4,0:0:0:0:
13,246,148428,1,0,0:0:0:0:
2,155,148584,2,0,L|19:77,1,75,0|8,0:0|0:0,0:0:0:0:
144,178,148897,1,0,0:0:0:0:
155,87,149053,2,0,L|138:9,1,75,0|0,0:0|0:0,0:0:0:0:
234,142,149366,5,0,0:0:0:0:
234,142,149678,2,0,P|294:134|324:140,1,75,0|0,0:0|0:0,0:0:0:0:
354,214,149991,2,0,L|338:45,1,150,8|0,0:0|0:0,0:0:0:0:
83,345,150616,5,8,0:3:0:0:
20,275,150772,2,0,L|60:37,1,225,4|8,0:0|0:0,0:0:0:0:
138,14,151397,1,0,0:0:0:0:
198,76,151553,2,0,L|206:165,1,75,0|0,0:0|0:0,0:0:0:0:
307,269,151866,5,4,0:0:0:0:
367,207,152022,2,0,L|375:118,1,75,8|8,0:0|0:0,0:0:0:0:
375,345,152334,1,8,0:0:0:0:
435,283,152490,2,0,L|443:194,1,75,8|8,0:0|0:0,0:0:0:0:
460,51,152803,1,8,0:0:0:0:
492,136,152959,1,8,0:0:0:0:
374,30,153116,6,0,P|321:21|270:29,1,75,4|0,0:0|0:0,0:0:0:0:
163,77,153428,2,0,P|216:68|267:76,1,75,0|0,0:0|0:0,0:0:0:0:
322,174,153741,2,0,L|307:83,2,75,8|0|0,0:0|0:0|0:0,0:0:0:0:
269,241,154209,1,0,0:0:0:0:
378,323,154366,6,0,L|304:311,1,75,0|0,0:0|0:0,0:0:0:0:
195,226,154678,2,0,L|277:242,1,75,0|0,0:0|0:0,0:0:0:0:
175,355,154991,2,0,P|153:304|217:217,1,150,8|0,0:0|0:0,0:0:0:0:
342,200,155459,2,0,L|356:108,1,75,0|4,0:0|0:0,0:0:0:0:
336,221,155772,6,0,P|261:245|188:221,1,150,0|0,0:0|0:0,0:0:0:0:
121,168,156241,2,0,L|112:86,1,75,8|0,0:0|0:0,0:0:0:0:
176,0,156553,2,0,L|185:82,1,75,0|0,0:0|0:0,0:0:0:0:
196,148,156866,5,0,0:0:0:0:
259,96,157022,2,0,P|308:88|359:97,1,75,0|0,0:0|0:0,0:0:0:0:
406,138,157334,1,0,0:0:0:0:
343,190,157490,2,0,P|294:198|243:189,1,75,8|0,0:0|0:0,0:0:0:0:
205,242,157803,1,0,0:0:0:0:
196,148,157959,1,0,0:0:0:0:
94,208,158116,6,0,P|38:215|8:213,1,75,4|0,0:0|0:0,0:0:0:0:
98,284,158428,2,0,P|42:291|12:289,1,75,0|0,0:0|0:0,0:0:0:0:
102,363,158741,2,0,P|46:370|16:368,1,75,8|0,0:0|0:0,0:0:0:0:
173,320,159053,2,0,L|190:237,1,75,0|0,0:0|0:0,0:0:0:0:
256,196,159366,5,0,0:0:0:0:
256,196,159522,1,0,0:0:0:0:
322,150,159678,2,0,P|405:135|481:158,1,150,0|8,0:0|0:0,0:0:0:0:
511,91,160147,1,0,0:0:0:0:
505,214,160303,2,0,L|484:303,1,75,0|0,0:0|0:0,0:0:0:0:
333,383,160616,6,0,P|389:376|419:378,1,75,4|0,0:0|0:0,0:0:0:0:
329,307,160928,2,0,P|385:300|415:302,1,75,0|0,0:0|0:0,0:0:0:0:
325,228,161241,2,0,P|381:221|411:223,1,75,8|0,0:0|0:0,0:0:0:0:
254,271,161553,2,0,L|237:354,1,75,0|0,0:0|0:0,0:0:0:0:
130,285,161866,6,0,P|67:296|41:294,1,75,0|0,0:0|0:0,0:0:0:0:
169,188,162178,2,0,L|175:92,1,75,0|0,0:0|0:0,0:0:0:0:
80,217,162491,2,0,P|41:218|-1:206,1,75,8|0,0:0|0:0,0:0:0:0:
258,196,162803,2,0,L|252:290,1,75,8|0,0:0|0:0,0:0:0:0:
377,341,163116,6,0,P|334:333|295:340,2,75,4|0|0,0:0|0:0|0:0,0:0:0:0:
432,289,163584,1,0,0:0:0:0:
483,228,163741,2,0,P|468:172|475:130,2,75,8|0|0,0:0|0:0|0:0,0:0:0:0:
510,300,164209,1,0,0:0:0:0:
351,259,164366,6,0,L|330:152,1,75,8|8,0:0|0:0,0:0:0:0:
293,103,164678,2,0,P|233:110|199:101,1,75,0|0,0:0|0:0,0:0:0:0:
199,256,164991,2,0,L|219:102,1,150,8|0,0:0|0:0,0:0:0:0:
175,36,165459,1,0,0:0:0:0:
114,89,165616,6,0,L|118:168,1,75,4|0,0:0|0:0,0:0:0:0:
56,255,165928,2,0,P|120:235|208:262,1,150,0|8,0:0|0:0,0:0:0:0:
260,305,166397,1,0,0:0:0:0:
313,247,166553,2,0,L|325:160,1,75,0|0,0:0|0:0,0:0:0:0:
339,47,166866,5,0,0:0:0:0:
391,111,167022,2,0,P|443:114|477:105,1,75,8|0,0:0|0:0,0:0:0:0:
279,106,167334,1,0,0:0:0:0:
227,170,167491,2,0,P|175:173|141:164,1,75,8|0,0:0|0:0,0:0:0:0:
125,94,167803,2,0,L|117:16,1,75,0|0,0:0|0:0,0:0:0:0:
161,244,168116,6,0,P|154:300|156:330,1,75,4|0,0:0|0:0,0:0:0:0:
85,240,168428,2,0,P|78:296|80:326,1,75,0|0,0:0|0:0,0:0:0:0:
6,236,168741,2,0,P|-1:292|1:322,1,75,8|0,0:0|0:0,0:0:0:0:
86,158,169053,2,0,L|0:147,1,75,0|0,0:0|0:0,0:0:0:0:
159,123,169366,5,8,0:0:0:0:
159,123,169522,1,8,0:0:0:0:
227,163,169678,2,0,P|309:172|396:144,1,150,0|8,0:0|0:0,0:0:0:0:
408,87,170147,1,0,0:0:0:0:
437,224,170303,2,0,L|450:125,1,75,0|0,0:0|0:0,0:0:0:0:
508,318,170616,6,0,P|442:298|332:316,2,150,4|0|8,0:0|0:0|0:0,0:0:0:0:
437,224,171397,2,0,P|390:228|348:222,2,75,0|0|0,0:0|0:0|0:0,0:0:0:0:
312,165,171866,6,0,L|301:72,1,75,0|0,0:0|0:0,0:0:0:0:
248,232,172178,1,8,0:0:0:0:
203,143,172334,1,8,0:0:0:0:
152,248,172491,2,0,L|127:339,1,75,8|8,0:0|0:0,0:0:0:0:
112,124,172803,1,8,0:0:0:0:
49,250,172959,1,8,0:0:0:0:
26,110,173116,5,4,0:0:0:0:
256,192,173272,12,0,174991,0:0:0:0:
145,180,175616,6,0,L|150:234,1,37.5,8|0,0:0|0:0,0:0:0:0:
235,215,175772,1,8,0:3:0:0:
235,215,175850,1,0,0:3:0:0:
235,215,175928,2,0,L|247:265,3,37.5,0|8|0|0,0:0|0:3|0:0|0:0,0:0:0:0:
313,221,176241,1,4,0:2:0:0:
321,228,176319,2,0,P|360:234|417:227,1,75,8|0,0:3|0:0,0:0:0:0:
457,196,176553,2,0,L|469:148,3,37.5,8|0|0|0,0:3|0:0|0:0|0:0,0:0:0:0:
404,114,176866,6,0,L|400:65,1,37.5,0|0,0:0|0:0,0:0:0:0:
323,90,177022,2,0,L|303:50,1,37.5,8|0,0:3|0:0,0:0:0:0:
237,89,177178,6,0,L|195:42,3,37.5
162,118,177491,2,0,L|118:97,3,37.5,0|0|0|0,0:0|0:0|0:0|0:0,0:0:0:0:
101,172,177803,2,0,L|50:174,3,37.5,0|0|0|0,0:0|0:0|0:0|0:0,0:0:0:0:
188,252,178116,6,0,P|252:267|343:245,1,150,4|0,0:0|0:0,0:0:0:0:
383,186,178584,1,0,0:0:0:0:
504,269,178741,2,0,P|446:250|407:256,1,75,8|0,0:0|0:0,0:0:0:0:
381,307,179053,1,0,0:0:0:0:
146,351,179209,6,0,P|210:366|301:344,1,150,4|0,0:0|0:0,0:0:0:0:
368,380,179678,2,0,P|381:317|375:282,1,75,0|0,0:0|0:0,0:0:0:0:
261,158,179991,2,0,P|309:200|342:213,1,75,8|0,0:0|0:0,0:0:0:0:
496,157,180303,2,0,P|447:199|414:212,1,75,0|0,0:0|0:0,0:0:0:0:
194,67,180616,6,0,P|258:82|349:60,1,150,4|0,0:0|0:0,0:0:0:0:
418,13,181084,1,0,0:0:0:0:
496,157,181241,2,0,L|505:71,2,75,8|0|0,0:0|0:0|0:0,0:0:0:0:
333,279,181709,6,0,P|402:265|510:295,1,150,4|0,0:0|0:0,0:0:0:0:
319,258,182178,2,0,L|303:157,1,75,0|0,0:0|0:0,0:0:0:0:
407,89,182491,2,0,L|391:190,1,75,8|0,0:0|0:0,0:0:0:0:
204,135,182803,1,0,0:0:0:0:
302,97,182959,1,0,0:0:0:0:
222,283,183116,6,0,L|202:123,1,150,4|0,0:0|0:0,0:0:0:0:
121,62,183584,1,0,0:0:0:0:
302,97,183741,2,0,P|356:101|404:88,2,75,8|0|0,0:0|0:0|0:0,0:0:0:0:
423,290,184209,6,0,L|443:130,1,150,4|0,0:0|0:0,0:0:0:0:
318,211,184678,2,0,L|337:310,1,75,0|0,0:0|0:0,0:0:0:0:
234,278,184991,2,0,L|223:364,1,75,8|0,0:0|0:0,0:0:0:0:
138,317,185303,2,0,L|90:380,1,75,0|0,0:0|0:0,0:0:0:0:
141,75,185616,6,0,L|161:235,1,150,4|0,0:0|0:0,0:0:0:0:
234,278,186084,1,0,0:0:0:0:
320,129,186241,1,8,0:0:0:0:
320,129,186553,1,0,0:0:0:0:
338,277,186709,6,0,L|318:117,1,150,4|0,0:0|0:0,0:0:0:0:
481,138,187178,2,0,P|426:146|382:128,1,75,8|8,0:0|0:0,0:0:0:0:
173,196,187491,2,0,P|228:204|272:186,1,75,8|8,0:0|0:0,0:0:0:0:
317,64,187803,1,8,0:0:0:0:
180,14,187959,1,8,0:0:0:0:
73,103,188116,6,0,P|147:113|241:87,1,150,4|0,0:0|0:0,0:0:0:0:
317,64,188584,1,0,0:0:0:0:
464,107,188741,2,0,P|419:118|361:99,1,75,8|0,0:0|0:0,0:0:0:0:
301,213,189053,1,0,0:0:0:0:
317,64,189209,6,0,L|301:221,1,150,4|0,0:0|0:0,0:0:0:0:
234,332,189678,2,0,P|286:332|319:345,1,75,0|0,0:0|0:0,0:0:0:0:
441,272,189991,2,0,P|389:272|356:285,1,75,8|0,0:0|0:0,0:0:0:0:
148,246,190303,2,0,P|200:246|233:259,1,75,0|0,0:0|0:0,0:0:0:0:
451,180,190616,6,0,P|378:192|294:167,1,150,4|0,0:0|0:0,0:0:0:0:
253,117,191084,1,0,0:0:0:0:
107,157,191241,2,0,P|161:164|203:151,1,75,8|0,0:0|0:0,0:0:0:0:
267,32,191553,1,0,0:0:0:0:
240,203,191709,6,0,L|216:357,1,150,4|0,0:0|0:0,0:0:0:0:
132,368,192178,2,0,L|113:291,1,75,0|0,0:0|0:0,0:0:0:0:
300,351,192491,2,0,P|348:356|397:344,1,75,8|0,0:0|0:0,0:0:0:0:
448,219,192803,1,0,0:0:0:0:
438,301,192959,1,0,0:0:0:0:
389,156,193116,6,0,L|371:-8,1,150,4|0,0:0|0:0,0:0:0:0:
292,52,193584,1,0,0:0:0:0:
137,27,193741,2,0,P|190:19|228:26,1,75,8|0,0:0|0:0,0:0:0:0:
230,107,194053,1,0,0:0:0:0:
155,257,194209,6,0,L|143:88,1,150,4|0,0:0|0:0,0:0:0:0:
243,191,194678,1,0,0:0:0:0:
160,330,194834,2,0,L|152:221,1,75,8|0,0:0|0:0,0:0:0:0:
254,374,195147,1,0,0:0:0:0:
79,364,195303,2,0,L|73:263,1,75,8|0,0:0|0:0,0:0:0:0:
243,191,195616,6,0,P|156:209|87:181,1,150,4|0,0:0|0:0,0:0:0:0:
53,125,196084,1,0,0:0:0:0:
152,28,196241,1,8,0:0:0:0:
152,28,196553,1,0,0:0:0:0:
252,64,196709,1,0,0:0:0:0:
357,27,196866,6,0,L|373:165,1,112.5,4|0,0:0|0:0,0:0:0:0:
404,161,197178,1,8,0:0:0:0:
374,295,197334,1,8,0:0:0:0:
456,235,197491,1,8,0:0:0:0:
321,215,197647,1,8,0:0:0:0:
374,301,197803,1,8,0:0:0:0:
403,169,197959,1,8,0:0:0:0:
233,308,198116,5,4,0:0:0:0:
233,308,198428,2,0,P|223:248|231:210,1,75,0|0,0:0|0:0,0:0:0:0:
137,174,198741,2,0,P|147:114|139:76,2,75,8|0|0,0:0|0:0|0:0,0:0:0:0:
83,246,199209,1,0,0:0:0:0:
10,310,199366,6,0,P|64:289|163:321,1,150,4|0,0:0|0:0,0:0:0:0:
170,322,199756,1,0,0:0:0:0:
184,334,199834,1,0,0:0:0:0:
316,323,199991,2,0,P|326:263|318:225,1,75,8|0,0:0|0:0,0:0:0:0:
419,146,200303,2,0,P|354:160|279:141,1,112.5,0|0,0:0|0:0,0:0:0:0:
280,119,200616,5,4,0:0:0:0:
280,119,200928,2,0,P|290:59|282:21,1,75,0|0,0:0|0:0,0:0:0:0:
200,203,201241,2,0,P|190:143|198:105,2,75,8|0|0,0:0|0:0|0:0,0:0:0:0:
277,263,201709,1,0,0:0:0:0:
154,313,201866,5,8,0:3:0:0:
154,313,202022,1,8,0:3:0:0:
83,258,202178,2,0,P|73:198|81:160,1,75,0|0,0:0|0:0,0:0:0:0:
8,119,202491,2,0,P|18:59|10:21,1,75,8|0,0:0|0:0,0:0:0:0:
172,16,202803,2,0,L|177:164,1,112.5,0|0,0:0|0:0,0:0:0:0:
199,162,203116,5,4,0:0:0:0:
199,162,203428,2,0,P|189:222|197:260,1,75,0|0,0:0|0:0,0:0:0:0:
289,273,203741,2,0,P|299:333|291:371,2,75,8|0|0,0:0|0:0|0:0,0:0:0:0:
376,304,204209,1,0,0:0:0:0:
477,230,204366,6,0,P|405:234|496:157,1,300,4|8,0:0|0:0,0:0:0:0:
245,210,205303,2,0,L|235:110,1,75,0|0,0:0|0:0,0:0:0:0:
159,38,205616,6,0,L|149:105,7,37.5,0|0|0|0|0|0|0|0,0:0|0:0|0:0|0:0|0:0|0:0|0:0|0:0,0:0:0:0:
92,136,206241,2,0,L|101:193,3,37.5,8|0|0|0,0:3|0:0|0:3|0:0,0:0:0:0:
160,236,206553,2,0,L|149:301,3,37.5,8|0|0|0,0:3|0:0|0:3|0:0,0:0:0:0:
226,318,206866,6,0,L|237:383,1,37.5,8|8,0:3|0:3,0:0:0:0:
311,336,207022,2,0,L|340:371,1,37.5,8|8,0:3|0:3,0:0:0:0:
399,323,207178,2,0,L|453:346,3,37.5,0|0|0|0,0:0|0:0|0:0|0:0,0:0:0:0:
444,254,207491,6,0,B|433:241|445:209|445:209|437:184|437:184|452:156|442:125,1,112.500004291535
462,54,207803,2,0,B|422:45|422:45|409:59|409:59|373:40|336:58,1,112.500004291535
265,94,208116,5,4,0:0:0:0:
265,94,208428,2,0,P|255:154|263:192,1,75,0|0,0:0|0:0,0:0:0:0:
173,225,208741,2,0,P|183:285|175:323,2,75,8|0|0,0:0|0:0|0:0,0:0:0:0:
119,153,209209,1,0,0:0:0:0:
46,89,209366,6,0,P|100:110|199:78,1,150,4|0,0:0|0:0,0:0:0:0:
212,68,209756,1,0,0:0:0:0:
238,40,209834,1,0,0:0:0:0:
362,71,209991,2,0,P|372:131|364:169,1,75,8|0,0:0|0:0,0:0:0:0:
487,170,210303,2,0,P|469:226|434:261,1,75,0|0,0:0|0:0,0:0:0:0:
316,280,210616,5,4,0:0:0:0:
316,280,210928,2,0,P|326:340|318:378,1,75,0|0,0:0|0:0,0:0:0:0:
236,196,211241,2,0,P|226:256|234:294,2,75,8|0|0,0:0|0:0|0:0,0:0:0:0:
313,136,211709,1,0,0:0:0:0:
190,86,211866,6,0,L|115:72,2,75,8|8|0,0:3|0:3|0:0,0:0:0:0:
287,26,212334,1,0,0:0:0:0:
404,87,212491,2,0,P|414:147|406:185,1,75,8|0,0:0|0:0,0:0:0:0:
286,282,212803,2,0,L|291:134,1,112.5,0|0,0:0|0:0,0:0:0:0:
313,136,213116,5,4,0:0:0:0:
75,293,213428,2,0,P|65:233|73:195,1,75,0|0,0:0|0:0,0:0:0:0:
188,190,213741,2,0,P|198:130|190:92,1,75,8|0,0:0|0:0,0:0:0:0:
92,45,214053,2,0,L|104:141,1,75,0|0,0:0|0:0,0:0:0:0:
173,280,214366,5,4,0:0:0:0:
437,293,214678,2,0,P|447:233|439:195,1,75,0|0,0:0|0:0,0:0:0:0:
324,190,214991,2,0,P|314:130|322:92,1,75,8|0,0:0|0:0,0:0:0:0:
420,45,215303,2,0,L|408:141,1,75,0|0,0:0|0:0,0:0:0:0:
339,280,215616,5,8,0:3:0:0:
339,280,215694,1,8,0:3:0:0:
339,280,215772,2,0,L|325:343,5,37.5,8|0|0|0|0|0,0:3|0:3|0:0|0:0|0:0|0:0,0:0:0:0:
242,307,216241,5,8,0:3:0:0:
242,307,216319,1,8,0:3:0:0:
242,307,216397,2,0,L|198:354,5,37.5,8|0|0|0|0|0,0:3|0:3|0:0|0:0|0:0|0:0,0:0:0:0:
154,282,216866,6,0,L|112:292,1,37.5,0|0,0:0|0:0,0:0:0:0:
113,211,217022,2,0,L|68:202,1,37.5,8|0,0:3|0:0,0:0:0:0:
148,137,217178,6,0,L|140:88,3,37.5
248,182,217491,2,0,L|236:245,3,37.5,0|0|0|0,0:0|0:0|0:0|0:0,0:0:0:0:
313,55,217803,2,0,L|317:13,3,37.5,0|0|0|0,0:0|0:0|0:0|0:0,0:0:0:0:
492,129,218116,6,0,P|420:142|331:126,1,150,4|0,0:0|0:0,0:0:0:0:
248,182,218584,1,0,0:0:0:0:
111,112,218741,2,0,P|155:103|198:114,1,75,8|0,0:0|0:0,0:0:0:0:
263,56,219053,1,0,0:0:0:0:
248,182,219209,6,0,L|228:349,1,150,4|0,0:0|0:0,0:0:0:0:
402,278,219678,2,0,P|413:227|401:182,1,75,0|0,0:0|0:0,0:0:0:0:
296,123,219991,2,0,P|345:107|378:74,1,75,8|0,0:0|0:0,0:0:0:0:
512,126,220303,2,0,P|462:110|429:77,1,75,0|0,0:0|0:0,0:0:0:0:
325,209,220616,6,0,P|261:196|155:224,1,150,4|0,0:0|0:0,0:0:0:0:
171,287,221084,1,0,0:0:0:0:
35,240,221241,2,0,P|78:232|127:247,1,75,8|0,0:0|0:0,0:0:0:0:
172,363,221553,1,0,0:0:0:0:
392,328,221709,6,0,P|328:341|222:313,1,150,4|0,0:0|0:0,0:0:0:0:
180,194,222178,2,0,L|189:274,1,75,0|0,0:0|0:0,0:0:0:0:
356,240,222491,2,0,P|311:233|255:248,1,75,8|0,0:0|0:0,0:0:0:0:
380,153,222803,1,0,0:0:0:0:
364,60,222959,1,0,0:0:0:0:
218,58,223116,6,0,P|273:73|382:51,1,150,4|0,0:0|0:0,0:0:0:0:
454,104,223584,1,0,0:0:0:0:
474,223,223741,2,0,L|488:309,1,75,8|0,0:0|0:0,0:0:0:0:
431,354,224053,1,0,0:0:0:0:
255,283,224209,6,0,P|339:267|412:292,1,150,4|0,0:0|0:0,0:0:0:0:
378,127,224678,2,0,L|392:213,2,75,0|0|8,0:0|0:0|0:0,0:0:0:0:
313,55,225147,1,0,0:0:0:0:
178,122,225303,2,0,P|232:132|277:113,1,75,0|0,0:0|0:0,0:0:0:0:
71,23,225616,6,0,L|50:184,1,150,4|0,0:0|0:0,0:0:0:0:
98,244,226084,1,0,0:0:0:0:
221,320,226241,1,8,0:0:0:0:
221,320,226553,1,0,0:0:0:0:
430,273,226709,6,0,P|349:261|271:276,1,150,4|0,0:0|0:0,0:0:0:0:
250,186,227178,2,0,L|153:193,1,75,8|8,0:0|0:0,0:0:0:0:
295,71,227491,2,0,L|212:102,1,75,8|8,0:0|0:0,0:0:0:0:
443,109,227803,1,8,0:0:0:0:
358,200,227959,1,8,0:0:0:0:
266,283,228116,6,0,P|188:296|113:277,1,150,4|0,0:0|0:0,0:0:0:0:
23,255,228584,1,0,0:0:0:0:
7,106,228741,2,0,P|19:165|7:211,1,75,8|0,0:0|0:0,0:0:0:0:
17,332,229053,1,0,0:0:0:0:
256,363,229209,6,0,P|178:376|103:357,1,150,4|0,0:0|0:0,0:0:0:0:
151,228,229678,2,0,P|158:178|143:148,1,75,0|0,0:0|0:0,0:0:0:0:
220,30,229991,2,0,P|213:80|228:110,1,75,8|0,0:0|0:0,0:0:0:0:
290,227,230303,2,0,P|283:177|298:147,1,75,0|0,0:0|0:0,0:0:0:0:
509,334,230616,6,0,B|435:361|356:334,1,150,4|0,0:0|0:0,0:0:0:0:
283,317,231084,1,0,0:0:0:0:
132,335,231241,2,0,P|173:346|225:335,1,75,8|0,0:0|0:0,0:0:0:0:
290,238,231553,1,0,0:0:0:0:
199,121,231709,6,0,L|174:282,1,150,4|0,0:0|0:0,0:0:0:0:
107,161,232178,2,0,L|96:83,1,75,0|0,0:0|0:0,0:0:0:0:
189,27,232491,2,0,P|240:40|288:25,1,75,8|0,0:0|0:0,0:0:0:0:
352,22,232803,1,0,0:0:0:0:
308,106,232959,1,0,0:0:0:0:
512,173,233116,6,0,P|450:162|353:178,1,150,4|0,0:0|0:0,0:0:0:0:
322,251,233584,1,0,0:0:0:0:
187,183,233741,2,0,P|239:175|287:193,1,75,8|0,0:0|0:0,0:0:0:0:
308,106,234053,1,0,0:0:0:0:
187,183,234209,6,0,L|166:13,1,150,4|0,0:0|0:0,0:0:0:0:
308,106,234678,1,0,0:0:0:0:
198,259,234834,2,0,L|206:333,2,75,8|0|0,0:0|0:0|0:0,0:0:0:0:
318,216,235303,2,0,L|327:291,1,75,8|0,0:0|0:0,0:0:0:0:
462,216,235616,6,0,P|408:199|306:223,1,150,4|0,0:0|0:0,0:0:0:0:
257,147,236084,1,0,0:0:0:0:
173,185,236241,1,8,0:0:0:0:
173,185,236553,1,8,0:3:0:0:
100,148,236709,1,8,0:3:0:0:
100,148,236787,1,8,0:3:0:0:
100,148,236866,2,0,L|84:93,3,37.5
138,284,237178,6,0,L|126:350,3,37.5,0|0|8|0,0:0|0:0|0:3|0:0,0:0:0:0:
252,189,237491,2,0,L|264:130,3,37.5
276,343,237803,2,0,L|281:401,3,37.5
378,248,238116,6,0,L|393:99,1,150,4|0,0:0|0:0,0:0:0:0:
435,325,238584,1,0,0:0:0:0:
496,210,238741,2,0,L|489:123,1,75,8|0,0:0|0:0,0:0:0:0:
461,31,239053,1,0,0:0:0:0:
393,99,239209,6,0,P|321:107|224:91,1,150,4|0,0:0|0:0,0:0:0:0:
236,225,239678,2,0,P|201:193|194:159,1,75,0|0,0:0|0:0,0:0:0:0:
376,225,239991,2,0,P|411:193|418:159,1,75,8|0,0:0|0:0,0:0:0:0:
310,351,240303,2,0,P|302:301|314:245,1,75,0|0,0:0|0:0,0:0:0:0:
490,206,240616,6,0,L|461:388,1,150,4|0,0:0|0:0,0:0:0:0:
389,311,241084,1,0,0:0:0:0:
343,155,241241,2,0,P|330:91|334:55,1,75,8|0,0:0|0:0,0:0:0:0:
278,17,241553,1,0,0:0:0:0:
88,88,241709,6,0,P|155:103|238:92,1,150,4|0,0:0|0:0,0:0:0:0:
253,245,242178,2,0,L|269:143,1,75,0|0,0:0|0:0,0:0:0:0:
325,338,242491,1,8,0:0:0:0:
249,347,242647,1,0,0:0:0:0:
176,332,242803,1,0,0:0:0:0:
120,284,242959,1,0,0:0:0:0:
20,358,243116,6,0,L|45:121,1,225,4|0,0:0|0:0,0:0:0:0:
163,113,243741,2,0,L|150:15,1,75,8|0,0:0|0:0,0:0:0:0:
239,242,244053,2,0,L|260:147,1,75,0|4,0:0|0:0,0:0:0:0:
157,341,244366,6,0,P|223:324|305:352,1,150,0|0,0:0|0:0,0:0:0:0:
445,274,244834,2,0,P|390:280|347:266,1,75,0|8,0:0|0:0,0:0:0:0:
345,133,245147,1,0,0:0:0:0:
290,258,245303,2,0,L|278:169,1,75,0|0,0:0|0:0,0:0:0:0:
438,375,245616,6,0,L|459:129,1,225,4|0,0:0|0:0,0:0:0:0:
345,133,246241,2,0,L|359:235,1,75,8|0,0:0|0:0,0:0:0:0:
281,25,246553,2,0,L|267:127,1,75,0|0,0:0|0:0,0:0:0:0:
153,191,246866,5,8,0:3:0:0:
153,191,246944,1,8,0:3:0:0:
153,191,247022,2,0,L|141:249,3,37.5,8|0|0|0,0:3|0:3|0:0|0:0,0:0:0:0:
226,236,247334,2,0,L|233:298,1,37.5,0|0,0:0|0:0,0:0:0:0:
311,262,247491,2,0,L|336:311,3,37.5,0|0|0|0,0:0|0:0|0:0|0:0,0:0:0:0:
396,138,247803,2,0,L|409:79,3,37.5,0|0|0|0,0:0|0:0|0:0|0:0,0:0:0:0:
442,357,248116,6,0,L|469:190,1,150,4|0,0:0|0:0,0:0:0:0:
396,138,248584,1,0,0:0:0:0:
250,175,248741,2,0,P|291:186|334:181,1,75,8|0,0:0|0:0,0:0:0:0:
256,32,249053,1,0,0:0:0:0:
325,81,249209,1,4,0:0:0:0:
239,27,249366,6,0,P|186:22|139:33,1,75
110,128,249678,2,0,P|67:129|35:120,1,75,0|0,0:0|0:0,0:0:0:0:
190,203,249991,2,0,P|234:201|286:186,1,75,8|0,0:0|0:0,0:0:0:0:
83,306,250303,2,0,P|80:235|94:209,1,75,0|0,0:0|0:0,0:0:0:0:
348,341,250616,6,0,P|269:357|185:339,1,150,4|0,0:0|0:0,0:0:0:0:
155,272,251084,1,0,0:0:0:0:
183,130,251241,2,0,P|193:187|177:228,1,75,8|0,0:0|0:0,0:0:0:0:
82,305,251553,1,0,0:0:0:0:
66,156,251709,6,0,L|83:313,1,150,4|0,0:0|0:0,0:0:0:0:
168,356,252178,2,0,L|181:270,1,75,0|0,0:0|0:0,0:0:0:0:
353,316,252491,2,0,P|300:322|263:306,1,75,8|0,0:0|0:0,0:0:0:0:
244,159,252803,1,0,0:0:0:0:
249,241,252959,1,0,0:0:0:0:
353,316,253116,6,0,L|367:84,1,225,4|0,0:0|0:0,0:0:0:0:
187,94,253741,2,0,L|179:0,1,75,8|0,0:0|0:0,0:0:0:0:
14,209,254053,2,0,P|56:196|108:208,1,75,0|4,0:0|0:0,0:0:0:0:
282,262,254366,6,0,P|208:279|130:263,1,150
53,348,254834,2,0,L|67:246,1,75,0|8,0:0|0:0,0:0:0:0:
161,138,255147,1,0,0:0:0:0:
87,193,255303,1,0,0:0:0:0:
77,102,255459,1,0,0:0:0:0:
240,168,255616,6,0,P|316:180|393:164,1,150,4|0,0:0|0:0,0:0:0:0:
420,91,256084,1,0,0:0:0:0:
464,235,256241,2,0,L|481:127,1,75,8|0,0:0|0:0,0:0:0:0:
321,313,256553,2,0,P|385:303|474:319,1,150,8|4,0:0|0:0,0:0:0:0:
89,325,257178,6,0,L|98:244,1,75,8|8,0:0|0:0,0:0:0:0:
175,113,257491,1,8,0:0:0:0:
231,175,257647,1,8,0:0:0:0:
156,190,257803,1,8,0:0:0:0:
248,99,257959,1,8,0:0:0:0:
359,162,258116,5,4,0:0:0:0:
13,56,258741,5,0,0:0:0:0:
359,162,259366,5,0,0:0:0:0:
13,56,259991,5,0,0:0:0:0:
512,341,260616,5,0,0:0:0:0:
208,166,261241,2,0,B|185:184|185:184|112:154|55:187,1,150,0|0,0:0|0:0,0:0:0:0:
300,166,261866,2,0,B|323:184|323:184|396:154|453:187,1,150,0|0,0:0|0:0,0:0:0:0:
257,62,262491,1,0,0:0:0:0:
255,275,262803,1,0,0:0:0:0:
257,62,263116,5,0,0:0:0:0:
