osu file format v14

[General]
AudioFilename: audio.mp3
AudioLeadIn: 0
PreviewTime: 177182
Countdown: 0
SampleSet: None
StackLeniency: 0.7
Mode: 0
LetterboxInBreaks: 0
WidescreenStoryboard: 0

[Editor]
Bookmarks: 24604,53198,63198,220698
DistanceSpacing: 1
BeatDivisor: 4
GridSize: 32
TimelineZoom: 1.1

[Metadata]
Title:Endure The Silence
TitleUnicode:Endure The Silence
Artist:Myrath
ArtistUnicode:Myrath
Creator:LMT
Version:Easy
Source:
Tags:Mir BOUYAAA tunisian middle eastern folk progressive metal Xtazy legacy ميراث
BeatmapID:1322072
BeatmapSetID:555454

[Difficulty]
HPDrainRate:3
CircleSize:3
OverallDifficulty:2
ApproachRate:3
SliderMultiplier:0.599999999999999
SliderTickRate:1

[Events]
//Background and Video events
0,0,"arab_drawing.jpg",0,0
//Break Periods
2,43116,46676
//Storyboard Layer 0 (Background)
//Storyboard Layer 1 (Fail)
//Storyboard Layer 2 (Pass)
//Storyboard Layer 3 (Foreground)
//Storyboard Sound Samples

[TimingPoints]
616,625,4,2,0,30,1,0
616,-50,4,2,0,30,0,0
20616,312.5,4,3,2,90,1,0
88116,-100,4,3,2,90,0,1
108116,-100,4,2,0,30,0,0
113116,-100,4,3,2,90,0,0
178116,-100,4,3,2,90,0,1
198116,-100,4,3,2,90,0,0
218116,-100,4,3,2,90,0,1
258116,-100,4,2,0,30,0,0

[Colours]
Combo1 : 141,245,254
Combo2 : 232,249,23
Combo3 : 109,208,245
Combo4 : 255,255,198

[HitObjects]
406,217,616,5,0,0:0:0:0:
287,237,1241,2,0,L|205:227,2,59.9999999999999,0|0|0,0:0|0:0|0:0,0:0:0:0:
371,321,2491,2,0,L|450:313,1,59.9999999999999,0|0,0:0|0:0,0:0:0:0:
505,221,3428,2,0,L|512:142,2,59.9999999999999,0|0|0,0:0|0:0|0:0,0:0:0:0:
501,281,4366,1,0,0:0:0:0:
384,254,4991,6,0,L|302:261,2,59.9999999999999,0|0|4,0:0|0:0|0:0,0:0:0:0:
403,369,6241,2,0,L|487:360,2,59.9999999999999,0|0|4,0:0|0:0|0:0,0:0:0:0:
384,254,7491,2,0,L|468:245,2,59.9999999999999,0|0|4,0:0|0:0|0:0,0:0:0:0:
256,276,8741,1,0,0:0:0:0:
171,192,9366,1,0,0:0:0:0:
256,107,9991,1,0,0:0:0:0:
340,192,10616,5,0,0:0:0:0:
432,269,11241,2,0,L|441:352,2,59.9999999999999
457,151,12491,2,0,L|533:117,2,59.9999999999999,0|0|0,0:0|0:0|0:0,0:0:0:0:
340,192,13741,2,0,L|263:158,1,59.9999999999999,0|0,0:0|0:0,0:0:0:0:
163,156,14678,6,0,L|173:232,2,59.9999999999999,0|0|0,0:0|0:0|0:0,0:0:0:0:
150,97,15616,1,4,0:0:0:0:
56,172,16241,2,0,L|66:248,2,59.9999999999999,0|0|4,0:0|0:0|0:0,0:0:0:0:
150,97,17491,2,0,L|140:21,2,59.9999999999999,0|0|0,0:0|0:0|0:0,0:0:0:0:
243,171,18741,1,0,0:0:0:0:
344,106,19366,1,0,0:0:0:0:
449,163,19991,1,0,0:0:0:0:
345,223,20616,6,0,B|336:258|336:258|353:299|335:346,1,120,4|8,0:0|0:0,0:0:0:0:
279,354,21553,1,0,0:0:0:0:
222,334,21866,2,0,B|189:331|166:316|166:316|137:331|105:332,1,120,4|8,0:0|0:0,0:0:0:0:
60,221,23116,6,0,B|48:173|67:135|67:135|47:97,1,120,4|8,0:0|0:0,0:0:0:0:
21,55,24053,1,0,0:0:0:0:
64,13,24366,2,0,B|94:19|117:42|117:42|160:26|211:36,1,120,4|12,0:0|0:0,0:0:0:0:
264,111,25616,6,0,B|287:162|275:197|275:197|220:205|183:164,1,180,4|8,0:0|0:0,0:0:0:0:
135,147,26866,2,0,B|79:152|53:179|53:179|75:232|129:243,1,180,4|8,0:0|0:0,0:0:0:0:
174,249,28116,5,4,0:0:0:0:
164,369,28741,2,0,L|255:361,1,59.9999999999999,8|0,0:0|0:0,0:0:0:0:
247,308,29366,2,0,B|278:280|340:304|340:304|396:327|426:306,1,180,4|8,2:3|0:3,0:0:0:0:
432,251,30616,6,0,B|422:212|422:212|441:166|420:121,1,120,4|8,0:0|0:0,0:0:0:0:
393,83,31553,1,0,0:0:0:0:
332,86,31866,2,0,B|307:84|277:108|277:108|237:85|191:93,1,120,4|8,0:0|0:0,0:0:0:0:
129,168,33116,6,0,B|120:199|120:199|139:244|120:295,1,120,4|8,0:0|0:0,0:0:0:0:
149,339,34053,1,0,0:0:0:0:
208,329,34366,2,0,B|246:324|271:311|271:311|298:324|347:332,1,120,4|8,0:0|0:0,0:0:0:0:
403,239,35616,6,0,B|416:184|398:152|398:152|343:154|314:200,1,180,4|8,0:0|0:0,0:0:0:0:
270,226,36866,2,0,B|214:230|185:206|185:206|196:152|247:131,1,180,4|8,0:0|0:0,0:0:0:0:
261,80,38116,5,4,0:0:0:0:
138,64,38741,1,12,0:0:0:0:
77,167,39366,2,0,P|64:207|74:249,1,59.9999999999999,12|8,0:0|0:0,0:0:0:0:
91,278,39991,1,8,0:0:0:0:
135,318,40303,2,0,L|181:319,1,30,8|8,0:0|0:0,0:0:0:0:
256,192,48116,12,0,51866,0:0:0:0:
256,191,53116,6,0,B|301:175|301:175|377:201,2,120,4|8|0,0:0|0:0|0:0,0:0:0:0:
148,244,54991,1,8,0:0:0:0:
253,301,55616,2,0,B|298:317|298:317|374:291,2,120,0|8|0,0:0|0:0|0:0,0:0:0:0:
148,244,57491,1,8,0:0:0:0:
125,126,58116,6,0,B|80:110|80:110|4:136,2,120,0|8|0,0:0|0:0|0:0,0:0:0:0:
236,169,59991,1,8,0:0:0:0:
342,224,60616,2,0,B|387:240|387:240|463:214,1,120,0|8,0:0|0:0,0:0:0:0:
351,316,61866,2,0,B|306:300|306:300|230:326,1,120,0|8,0:0|0:0,0:0:0:0:
180,217,63116,6,0,B|188:181|188:181|175:136,2,59.9999999999999,4|0|8,0:0|0:0|0:0,0:0:0:0:
142,263,64053,1,0,0:0:0:0:
94,299,64366,2,0,B|86:335|86:335|99:380,2,59.9999999999999,0|0|8,0:0|0:0|0:0,0:0:0:0:
90,179,65616,6,0,B|55:173|55:173|16:190,2,59.9999999999999,4|0|8,0:0|0:0|0:0,0:0:0:0:
144,204,66553,1,0,0:0:0:0:
196,233,66866,1,0,0:0:0:0:
313,208,67491,1,8,0:0:0:0:
417,266,68116,6,0,B|450:270|471:300|471:300|466:336|433:351,1,120,4|8,0:0|0:0,0:0:0:0:
327,339,69366,1,0,0:0:0:0:
276,306,69678,2,0,P|215:295|150:313,1,120,0|0,0:0|0:0,0:0:0:0:
99,316,70616,6,0,B|70:316|42:305|42:305|35:269|68:240,1,120,4|8,0:0|0:0,0:0:0:0:
155,178,71866,2,0,P|190:172|233:182,1,59.9999999999999
272,192,72491,2,0,P|307:198|350:188,1,59.9999999999999,8|8,0:0|0:0,0:0:0:0:
385,168,73116,6,0,B|373:129|373:129|383:86,2,59.9999999999999,4|0|8,0:0|0:0|0:0,0:0:0:0:
416,218,74053,1,0,0:0:0:0:
445,270,74366,2,0,B|457:309|457:309|447:352,2,59.9999999999999,0|0|8,0:0|0:0|0:0,0:0:0:0:
327,292,75616,6,0,B|339:331|339:331|329:374,2,59.9999999999999,4|0|8,0:0|0:0|0:0,0:0:0:0:
302,237,76553,1,0,0:0:0:0:
269,186,76866,1,0,0:0:0:0:
151,161,77491,1,8,0:0:0:0:
63,243,78116,6,0,B|30:259|19:281|19:281|32:318|62:324,1,120,4|8,0:0|0:0,0:0:0:0:
174,323,79366,1,0,0:0:0:0:
225,293,79678,2,0,P|278:278|362:290,1,120,0|0,0:0|0:0,0:0:0:0:
402,280,80616,6,0,B|454:288|497:230|497:230|455:162|369:179,1,240,4|0,0:0|0:0,0:0:0:0:
330,175,82178,1,0,0:0:0:0:
269,177,82491,2,0,P|219:175|190:162,1,59.9999999999999,8|8,0:0|0:0,0:0:0:0:
256,192,83116,12,0,85616,0:0:0:0:
108,264,87178,5,0,0:0:0:0:
88,207,87490,1,0,0:0:0:0:
99,148,87803,1,0,0:0:0:0:
131,97,88116,6,0,P|188:73|241:97,1,120,4|8,0:0|0:0,0:0:0:0:
294,115,89053,2,0,B|284:151|284:151|300:189|283:224|283:224|266:260|287:291,1,180,4|8,0:0|0:0,0:0:0:0:
177,340,90616,6,0,B|140:326|140:326|101:348|49:328,1,120,4|8,0:0|0:0,0:0:0:0:
50,273,91553,2,0,B|40:237|40:237|56:199|39:164|39:164|22:128|43:97,1,180,4|8,0:0|0:0,0:0:0:0:
91,66,92803,1,0,0:0:0:0:
147,44,93116,6,0,P|203:29|267:44,1,120,4|8,0:0|0:0,0:0:0:0:
312,75,94053,2,0,B|295:112|314:141|314:141|300:177|314:211,1,120,4|0,0:0|0:0,0:0:0:0:
329,247,94991,1,8,0:0:0:0:
228,311,95616,6,0,P|170:295|102:318,1,120,4|8,0:0|0:0,0:0:0:0:
54,298,96553,2,0,B|16:308|-25:263|-25:263|-13:215|48:201,1,180,4|8,0:0|0:0,0:0:0:0:
97,205,97803,1,8,0:0:0:0:
157,201,98116,6,0,P|213:220|255:159,1,120,4|8,0:0|0:0,0:0:0:0:
264,123,99053,2,0,B|299:104|299:104|355:132|414:95|444:118,1,180,4|8,0:0|0:0,0:0:0:0:
441,233,100616,6,0,P|479:275|459:329,1,120,4|8,0:0|0:0,0:0:0:0:
400,323,101553,2,0,B|365:304|365:304|309:332|250:295|220:318,1,180,4|8,0:0|0:0,0:0:0:0:
170,333,102803,1,0,0:0:0:0:
126,291,103116,6,0,B|117:257|117:257|139:203|117:160,1,120,4|8,0:0|0:0,0:0:0:0:
115,114,104053,2,0,B|148:110|175:97|175:97|207:107|237:107,1,120,4|0,0:0|0:0,0:0:0:0:
290,116,104991,1,8,0:0:0:0:
403,78,105616,6,0,B|420:116|420:116|398:157|413:202,1,120,4|8,0:0|0:0,0:0:0:0:
438,244,106553,2,0,B|469:318|421:352|421:352|353:341|334:263,1,240,8|8,0:0|0:0,0:0:0:0:
293,231,108116,5,4,0:0:0:0:
182,191,108741,1,0,0:0:0:0:
80,254,109366,1,0,0:0:0:0:
189,304,109991,1,0,0:0:0:0:
293,231,110616,5,0,0:0:0:0:
372,82,113116,6,0,B|388:118|388:118|364:155|384:214,1,120,4|8,0:0|0:0,0:0:0:0:
401,251,114053,1,0,0:0:0:0:
375,305,114366,2,0,B|352:309|316:290|316:290|287:306|248:310,1,120,4|8,0:0|0:0,0:0:0:0:
142,291,115616,6,0,B|129:260|129:260|144:219|133:174,1,120,4|8,0:0|0:0,0:0:0:0:
119,116,116553,1,0,0:0:0:0:
139,59,116866,2,0,B|170:56|197:43|197:43|221:56|259:55,1,120,4|8,0:0|0:0,0:0:0:0:
359,112,118116,6,0,B|406:114|427:156|427:156|392:208|330:190,1,180,4|8,0:0|0:0,0:0:0:0:
288,184,119366,2,0,B|242:182|220:228|220:228|255:280|317:262,1,180,4|8,0:0|0:0,0:0:0:0:
355,285,120616,5,4,0:0:0:0:
254,350,121241,2,0,L|172:335,1,59.9999999999999,8|0,0:0|0:0,0:0:0:0:
138,317,121866,2,0,B|157:279|133:227|113:180|142:133,1,180,8|8,0:3|0:3,0:0:0:0:
180,98,123116,6,0,B|218:86|218:86|267:108|314:83,1,120,4|8,0:0|0:0,0:0:0:0:
349,62,124053,1,0,0:0:0:0:
406,80,124366,2,0,B|405:115|424:143|424:143|412:173|412:208,1,120,4|8,0:0|0:0,0:0:0:0:
357,301,125616,6,0,B|301:305|273:270|273:270|240:289,1,120,4|8,0:0|0:0,0:0:0:0:
196,311,126553,1,0,0:0:0:0:
138,293,126866,2,0,B|128:264|128:264|152:210|129:165,1,120,4|8,0:0|0:0,0:0:0:0:
204,79,128116,6,0,B|216:36|274:22|274:22|305:64|289:115,1,180,4|0,0:0|0:0,3:0:0:0:
283,163,129366,2,0,B|268:204|296:244|296:244|354:230|366:187,1,180,4|0,0:0|0:0,3:0:0:0:
361,128,130616,5,4,0:0:0:0:
465,186,131241,1,12,0:0:0:0:
436,302,131866,2,0,P|401:296|367:301,1,59.9999999999999,4|8,0:0|0:0,0:0:0:0:
320,319,132491,2,0,P|285:325|251:320,1,59.9999999999999,8|8,0:0|0:0,0:0:0:0:
205,300,133116,6,0,B|161:317|161:317|82:292,2,120,4|8|0,0:0|0:0|0:0,0:0:0:0:
287,212,134991,1,8,0:0:0:0:
198,130,135616,2,0,B|154:113|154:113|75:138,2,120,4|8|0,0:0|0:0|0:0,0:0:0:0:
287,212,137491,1,8,0:0:0:0:
373,128,138116,6,0,B|417:111|417:111|496:136,1,120,4|8,0:0|0:0,0:0:0:0:
400,216,139366,2,0,B|356:233|356:233|277:208,1,120,4|8,0:0|0:0,0:0:0:0:
275,91,140616,5,4,0:0:0:0:
164,137,141241,1,8,0:0:0:0:
154,256,141866,2,0,P|201:271|229:264,1,59.9999999999999,0|8,0:0|0:0,0:0:0:0:
264,243,142491,2,0,P|311:228|339:235,1,59.9999999999999,8|8,0:0|0:0,0:0:0:0:
372,258,143116,6,0,B|416:275|416:275|495:250,2,120,12|8|0,0:0|0:0|0:0,0:0:0:0:
344,141,144991,1,8,0:0:0:0:
279,39,145616,2,0,B|235:22|235:22|156:47,2,120,4|8|0,0:0|0:0|0:0,0:0:0:0:
344,141,147491,1,8,0:0:0:0:
268,234,148116,6,0,B|224:251|224:251|145:226,2,120,4|8|0,0:0|0:0|0:0,0:0:0:0:
344,141,149991,1,8,0:0:0:0:
435,218,150616,6,0,L|446:300,1,59.9999999999999,8|0,0:0|0:0,0:0:0:0:
451,337,151241,1,8,0:0:0:0:
331,346,151866,2,0,L|320:264,1,59.9999999999999,8|0,0:0|0:0,0:0:0:0:
315,227,152491,1,8,0:0:0:0:
278,112,153116,6,0,B|311:102|311:102|355:115,2,59.9999999999999,4|0|8,0:0|0:0|0:0,0:0:0:0:
222,135,154053,1,0,0:0:0:0:
169,164,154366,2,0,B|136:174|136:174|92:161,2,59.9999999999999,0|0|8,0:0|0:0|0:0,0:0:0:0:
273,223,155616,6,0,B|306:213|306:213|350:226,2,59.9999999999999,4|0|8,0:0|0:0|0:0,0:0:0:0:
223,256,156553,1,0,0:0:0:0:
174,292,156866,1,0,0:0:0:0:
70,232,157491,2,0,L|60:167,1,59.9999999999999,8|0,0:0|0:0,0:0:0:0:
49,113,158116,6,0,B|21:98|16:65|16:65|38:29|72:31,1,120,4|8,0:0|0:0,0:0:0:0:
185,46,159366,1,0,0:0:0:0:
236,76,159678,2,0,P|302:89|373:65,1,120,0|0,0:0|3:0,0:0:0:0:
412,76,160616,6,0,B|438:94|456:116|456:116|441:146|405:162,1,120,4|8,0:0|0:0,0:0:0:0:
305,211,161866,2,0,P|271:217|230:207,1,59.9999999999999
196,179,162491,2,0,P|162:173|121:183,1,59.9999999999999,8|8,0:0|0:0,0:0:0:0:
99,224,163116,6,0,B|112:256|112:256|101:289,2,59.9999999999999,4|0|8,0:0|0:0|0:0,0:0:0:0:
57,180,164053,1,0,0:0:0:0:
27,127,164366,2,0,B|14:95|14:95|25:62,2,59.9999999999999,0|0|8,0:0|0:0|0:0,0:0:0:0:
147,126,165616,6,0,B|134:94|134:94|145:61,2,59.9999999999999,4|0|8,0:0|0:0|0:0,0:0:0:0:
183,173,166553,1,0,0:0:0:0:
226,214,166866,1,0,0:0:0:0:
319,288,167491,2,0,L|400:280,1,59.9999999999999,8|0,0:0|0:0,0:0:0:0:
438,275,168116,6,0,B|461:271|480:231|480:231|466:202|422:182,1,120,4|8,0:0|0:0,0:0:0:0:
332,134,169366,1,0,0:0:0:0:
273,145,169678,2,0,P|192:162|136:138,1,120
108,117,170616,6,0,B|47:91|-4:131|-4:131|9:198|82:203,1,240,4|0,0:0|0:0,0:0:0:0:
136,227,172178,1,8,0:0:0:0:
183,264,172491,2,0,P|206:297|216:330,1,59.9999999999999,8|8,0:0|0:0,0:0:0:0:
256,192,173116,12,0,175616,0:0:0:0:
155,162,177178,5,0,0:0:0:0:
213,146,177491,1,0,0:0:0:0:
272,154,177803,1,0,0:0:0:0:
328,174,178116,6,0,P|361:143|342:64,1,120,4|8,0:0|0:0,0:0:0:0:
300,44,179053,2,0,B|253:56|214:33|181:51|181:51|147:37|123:52,1,180,4|8,0:0|0:0,0:0:0:0:
89,166,180616,6,0,B|84:216|84:216|100:258|82:296,1,120,4|8,0:0|0:0,0:0:0:0:
89,344,181553,2,0,B|123:356|166:330|209:348|209:348|246:334|290:351,1,180,4|8,0:0|0:0,0:0:0:0:
300,294,182803,1,0,0:0:0:0:
267,243,183116,6,0,B|226:239|226:239|173:256|139:230,1,120,4|8,0:0|0:0,0:0:0:0:
118,185,184053,2,0,B|131:160|131:160|120:125|126:98|126:98|122:76|128:53,1,120,4|0,0:0|0:0,0:0:0:0:
92,18,184991,1,8,0:0:0:0:
210,37,185616,6,0,B|239:44|239:44|283:29|332:48,1,120,4|8,0:0|0:0,0:0:0:0:
379,75,186553,2,0,B|421:73|458:103|458:103|432:151|384:154,1,180,4|8,0:0|0:0,0:0:0:0:
323,153,187803,1,8,0:0:0:0:
280,194,188116,6,0,B|262:235|262:235|282:277|263:322,1,120,4|8,0:0|0:0,0:0:0:0:
215,337,189053,2,0,B|184:330|184:330|145:355|75:312|33:340,1,180,4|8,0:0|0:0,0:0:0:0:
31,216,190616,6,0,B|71:227|71:227|111:213|164:223,1,120,4|8,0:0|0:0,0:0:0:0:
208,225,191553,2,0,B|248:235|248:235|285:219|332:235|378:251|410:220,1,180,4|8,0:0|0:0,0:0:0:0:
434,199,192803,1,0,0:0:0:0:
407,147,193116,6,0,B|382:133|352:146|352:146|320:131|281:140,1,120,4|8,0:0|0:0,0:0:0:0:
230,138,194053,2,0,B|191:148|191:148|144:126|95:148,1,120,4|0,0:0|0:0,0:0:0:0:
61,171,194991,1,8,0:0:0:0:
32,54,195616,6,0,B|72:48|99:58|99:58|133:40|169:51,1,120,4|8,0:0|0:0,0:0:0:0:
195,85,196553,2,0,B|165:117|200:167|200:167|265:175|278:118,1,180,4|8,0:0|0:0,0:0:0:0:
385,81,198116,5,4,0:0:0:0:
405,199,198741,2,0,P|367:193|322:202,1,59.9999999999999,8|0,0:0|0:0,0:0:0:0:
293,165,199366,2,0,B|265:142|208:167|208:167|205:229|248:251,1,180,4|0,0:0|0:0,0:0:0:0:
279,296,200616,5,4,0:0:0:0:
165,330,201241,2,0,P|123:341|83:333,1,59.9999999999999,8|0,0:0|0:0,0:0:0:0:
54,309,201866,1,8,0:3:0:0:
36,251,202178,2,0,B|28:215|40:192|40:192|71:184|108:199,1,120,4|0,0:0|0:0,0:0:0:0:
152,221,203116,5,4,0:0:0:0:
269,243,203741,2,0,P|305:249|341:245,1,59.9999999999999,8|0,0:0|0:0,0:0:0:0:
387,239,204366,2,0,B|431:243|463:204|463:204|449:157|389:137,1,180,4|0,0:0|0:0,0:0:0:0:
350,107,205616,5,4,0:0:0:0:
245,163,206241,1,8,0:3:0:0:
186,149,206553,1,8,0:3:0:0:
127,161,206866,2,0,B|105:192|50:201|50:201|23:143|42:115,1,180,4|0,0:0|3:0,0:0:0:0:
81,72,208116,5,4,0:0:0:0:
199,45,208741,2,0,P|249:56|281:50,1,59.9999999999999,8|0,0:0|0:0,0:0:0:0:
314,72,209366,2,0,B|360:72|399:102|399:102|376:151|333:168,1,180,4|0,0:0|3:0,0:0:0:0:
287,189,210616,5,4,0:0:0:0:
209,280,211241,2,0,P|160:276|139:266,1,59.9999999999999,8|0,0:0|0:0,0:0:0:0:
93,249,211866,1,8,0:3:0:0:
55,202,212178,2,0,B|40:180|37:153|37:153|57:123|114:130,1,120,4|0,0:0|0:0,0:0:0:0:
158,127,213116,5,4,0:0:0:0:
270,169,213741,2,0,L|350:173,1,59.9999999999999,8|0,0:0|0:0,0:0:0:0:
389,180,214366,1,4,0:0:0:0:
331,285,214991,2,0,L|251:289,1,59.9999999999999,8|0,0:0|0:0,0:0:0:0:
216,312,215616,6,0,B|201:357|152:355|152:355|101:306|127:207,1,240,8|8,0:3|0:0,0:0:0:0:
149,153,217178,5,8,0:0:0:0:
189,108,217491,1,8,0:0:0:0:
248,103,217803,1,8,0:0:0:0:
302,126,218116,6,0,P|354:139|416:114,1,120,4|8,0:0|0:0,0:0:0:0:
474,111,219053,2,0,B|488:151|488:151|469:192|487:231|487:231|482:271|491:299,1,180,4|8,0:0|0:0,0:0:0:0:
370,312,220616,6,0,B|339:311|309:287|309:287|278:304|248:305,1,120,4|8,0:0|0:0,0:0:0:0:
199,305,221553,2,0,B|234:269|206:227|176:176|223:125,1,180,4|8,0:0|0:0,0:0:0:0:
334,115,223116,6,0,B|322:149|322:149|342:189|323:236,1,120,4|8,0:0|0:0,0:0:0:0:
317,289,224053,2,0,B|350:308|350:308|386:284|442:293,1,120,4|0,0:0|0:0,0:0:0:0:
473,331,224991,1,8,0:0:0:0:
479,211,225616,6,0,B|474:163|474:163|491:116|467:69,1,120,4|8,0:0|0:0,0:0:0:0:
416,78,226553,2,0,B|392:59|330:74|330:74|319:127|365:163,1,180,4|8,0:0|0:0,0:0:0:0:
365,216,227803,1,8,0:0:0:0:
316,251,228116,6,0,B|290:265|290:265|230:249|188:264,1,120,4|8,0:0|0:0,0:0:0:0:
157,301,229053,2,0,P|108:307|40:210,1,180,4|8,0:0|0:0,0:0:0:0:
138,142,230616,6,0,B|176:130|176:130|217:151|263:138,1,120,4|8,0:0|0:0,0:0:0:0:
313,136,231553,2,0,B|336:167|336:167|311:211|353:280|322:322,1,180,4|8,0:0|0:0,0:0:0:0:
441,351,233116,6,0,B|452:313|452:313|439:282|439:282|451:254|438:211,1,120,4|8,0:0|0:0,0:0:0:0:
439,176,234053,2,0,B|411:148|411:148|372:175|320:152,1,120,4|0,0:0|0:0,0:0:0:0:
283,124,234991,1,8,0:0:0:0:
214,222,235616,6,0,P|155:234|105:195,1,120,4|8,0:0|0:0,0:0:0:0:
91,144,236553,2,0,L|84:80,1,59.9999999999999,8|0,0:3|0:0,0:0:0:0:
115,32,237178,5,8,0:0:0:0:
174,22,237491,1,8,0:0:0:0:
232,34,237803,1,8,0:0:0:0:
287,55,238116,6,0,B|322:72|322:72|366:47|422:76,1,120,4|8,0:0|0:0,0:0:0:0:
427,120,239053,2,0,B|411:165|411:165|438:212|392:255|420:299,1,180,4|8,0:0|0:0,0:0:0:0:
305,335,240616,6,0,P|257:309|190:335,1,120,4|8,0:0|0:0,0:0:0:0:
139,342,241553,2,0,B|111:298|132:250|150:205|126:155,1,180,4|8,0:0|0:0,0:0:0:0:
246,132,243116,6,0,B|276:155|332:123|332:123|326:77|269:42,1,180,4|0,0:0|0:0,0:0:0:0:
224,45,244366,1,4,0:0:0:0:
133,123,244991,1,8,0:0:0:0:
173,236,245616,6,0,B|211:274|177:324|177:324|110:322|93:270,1,180,4|0,0:0|0:0,0:0:0:0:
66,244,246866,1,8,0:3:0:0:
27,130,247491,2,0,P|69:117|108:123,1,59.9999999999999,8|8,0:0|0:0,0:0:0:0:
145,120,248116,6,0,B|178:130|178:130|229:109|282:130,1,120,4|8,0:0|0:0,0:0:0:0:
314,151,249053,2,0,B|331:194|331:194|295:248|345:297|322:333,1,180,4|8,0:0|0:0,0:0:0:0:
203,330,250616,6,0,B|190:293|190:293|211:246|182:190,1,120,4|8,0:0|0:0,0:0:0:0:
135,194,251553,2,0,P|71:220|31:126,1,180,4|8,0:0|0:0,0:0:0:0:
123,68,253116,6,0,B|135:28|189:12|189:12|218:45|215:103,1,180,4|0,0:0|0:0,3:0:0:0:
239,150,254366,1,4,0:0:0:0:
194,258,254991,1,8,0:0:0:0:
313,248,255616,6,0,B|337:246|369:224|369:224|402:246|433:248,1,120,4|8,0:0|0:0,0:0:0:0:
477,270,256553,1,8,0:0:0:0:
476,330,256866,2,0,B|452:332|420:354|420:354|387:332|356:330,1,120,4|8,0:0|0:0,0:0:0:0:
306,331,257803,1,8,0:0:0:0:
256,192,258116,12,0,260616,0:0:0:0:
232,106,261866,6,0,L|242:168,1,59.9999999999999,0|0,0:0|0:0,0:0:0:0:
291,199,262491,2,0,L|281:261,1,59.9999999999999,0|0,0:0|0:0,0:0:0:0:
244,305,263116,5,0,0:0:0:0:
