osu file format v14

[General]
AudioFilename: audio.mp3
AudioLeadIn: 0
PreviewTime: 177182
Countdown: 0
SampleSet: None
StackLeniency: 0.3
Mode: 0
LetterboxInBreaks: 0
WidescreenStoryboard: 0

[Editor]
Bookmarks: 32573,123198
DistanceSpacing: 0.7
BeatDivisor: 4
GridSize: 32
TimelineZoom: 2.4

[Metadata]
Title:Endure The Silence
TitleUnicode:Endure The Silence
Artist:Myrath
ArtistUnicode:Myrath
Creator:LMT
Version:BOUYAAA's Extra
Source:
Tags:Mir BOUYAAA tunisian middle eastern folk progressive metal Xtazy legacy ميراث
BeatmapID:1303812
BeatmapSetID:555454

[Difficulty]
HPDrainRate:6
CircleSize:4
OverallDifficulty:8
ApproachRate:9
SliderMultiplier:1.6
SliderTickRate:1

[Events]
//Background and Video events
0,0,"arab_drawing.jpg",0,0
//Break Periods
2,43116,49366
//Storyboard Layer 0 (Background)
//Storyboard Layer 1 (Fail)
//Storyboard Layer 2 (Pass)
//Storyboard Layer 3 (Foreground)
//Storyboard Sound Samples

[TimingPoints]
616,625,4,2,0,30,1,0
616,-125,4,2,0,30,0,0
18116,-100,4,3,2,35,0,0
20303,-83.3333333333333,4,3,2,35,0,0
20616,312.5,4,3,2,90,1,0
20616,-90.9090909090909,4,3,2,90,0,0
25616,-83.3333333333333,4,3,2,90,0,0
30616,-90.9090909090909,4,3,2,90,0,0
35616,-83.3333333333333,4,3,2,90,0,0
40616,-100,4,3,2,90,0,0
53116,-125,4,3,2,90,0,0
59366,-142.857142857143,4,3,2,90,0,0
59678,-125,4,3,2,90,0,0
72178,-100,4,3,2,90,0,0
72491,-100,4,3,2,90,0,0
72803,-100,4,3,2,90,0,0
73116,-100,4,3,2,90,0,0
83116,-142.857142857143,4,2,0,30,0,0
87412,-100,4,2,0,5,0,0
87491,-100,4,2,0,90,0,0
87725,-100,4,2,0,5,0,0
87803,-100,4,2,0,90,0,0
88037,-100,4,2,0,5,0,0
88116,-83.3333333333333,4,3,2,90,0,1
96709,-100,4,3,2,90,0,1
97100,-83.3333333333333,4,3,2,90,0,1
108116,-166.666666666667,4,3,2,90,0,0
110616,-100,4,3,2,90,0,0
113116,-90.9090909090909,4,3,2,90,0,0
133116,-142.857142857143,4,3,2,90,0,0
143116,-125,4,3,2,90,0,0
162178,-100,4,3,2,90,0,0
162491,-100,4,3,2,90,0,0
162803,-100,4,3,2,90,0,0
163116,-100,4,3,2,90,0,0
173116,-142.857142857143,4,2,0,30,0,0
175616,-142.857142857143,4,3,2,90,0,0
176084,-100,4,3,2,90,0,0
178116,-83.3333333333333,4,3,2,90,0,1
194834,-100,4,3,2,90,0,0
195303,-100,4,3,2,90,0,0
198116,-100,4,3,2,90,0,0
214678,-100,4,3,2,90,0,0
218116,-83.3333333333333,4,3,2,90,0,1
226709,-100,4,3,2,90,0,1
227022,-83.3333333333333,4,3,2,90,0,1
234834,-83.3333333333333,4,3,2,90,0,1
235303,-83.3333333333333,4,3,2,90,0,1
258116,-142.857142857143,4,2,0,30,0,0

[Colours]
Combo1 : 151,244,184
Combo2 : 241,187,73
Combo3 : 132,147,251
Combo4 : 254,119,80

[HitObjects]
271,75,616,6,0,L|284:212,1,128,0|2,0:2|0:2,0:0:0:0:
293,281,1553,1,2,0:0:0:0:
60,170,1866,2,0,B|114:134|114:134|194:159,1,128,0|2,0:0|0:2,0:0:0:0:
133,319,2803,1,2,0:0:0:0:
135,320,3428,6,0,L|141:240,1,64,0|2,0:0|0:2,0:0:0:0:
292,380,4053,1,2,0:0:0:0:
403,266,4366,2,0,L|391:139,1,128,0|2,0:0|0:2,0:0:0:0:
379,60,5303,1,2,0:0:0:0:
169,232,5616,6,0,B|223:268|223:268|303:243,1,128,0|2,0:0|0:2,0:0:0:0:
331,185,6553,1,2,0:0:0:0:
248,73,6866,2,0,L|104:88,1,128,0|2,0:0|0:2,0:0:0:0:
42,97,7803,1,0,0:0:0:0:
171,233,8116,6,0,L|159:308,1,64,0|0,0:0|0:0,0:0:0:0:
70,351,8584,1,0,0:0:0:0:
70,351,8741,2,0,L|63:277,1,64,0|0,0:0|0:0,0:0:0:0:
244,303,9209,1,0,0:0:0:0:
244,303,9366,2,0,L|333:290,1,64,0|0,0:0|0:0,0:0:0:0:
402,309,9834,1,0,0:0:0:0:
402,309,9991,2,0,B|416:340|416:340|411:391,1,64,0|0,0:0|0:0,0:0:0:0:
286,189,10616,6,0,L|288:123,1,64
306,103,10980,2,0,L|322:97,4,10.6666666666667
323,81,11241,1,0,0:0:0:0:
380,168,11553,1,0,0:0:0:0:
218,60,11866,2,0,L|71:67,1,128,0|2,0:0|0:2,0:0:0:0:
13,70,12803,1,2,0:0:0:0:
140,170,13116,6,0,B|158:232|158:232|113:304,1,128,0|2,0:0|0:2,0:0:0:0:
56,216,14053,1,2,0:0:0:0:
212,340,14678,2,0,L|306:337,1,64,0|2,0:0|0:2,0:0:0:0:
131,341,15303,1,2,0:0:0:0:
263,248,15616,6,0,L|398:257,1,128,0|2,0:0|0:2,0:0:0:0:
460,319,16553,1,2,0:0:0:0:
370,134,16866,2,0,B|420:98|420:98|494:113,1,128,0|2,0:0|0:2,0:0:0:0:
442,188,17803,1,0,0:0:0:0:
247,137,18116,6,0,L|256:117,6,13.3333333333333
171,163,18584,1,0,0:0:0:0:
181,83,18741,2,0,L|178:62,6,13.3333333333333,0|0|0|0|0|0|0,0:0|0:0|0:0|0:0|0:0|0:0|0:0,0:0:0:0:
109,112,19209,1,0,0:0:0:0:
258,40,19366,6,0,L|262:-3,1,40,0|0,0:0|0:0,0:0:0:0:
171,163,19678,1,0,0:0:0:0:
174,177,19730,1,0,0:0:0:0:
177,191,19782,1,0,0:0:0:0:
180,205,19834,2,0,L|176:226,3,13.3333333333333,0|0|0|0,0:0|0:0|0:0|0:0,0:0:0:0:
90,198,20147,1,0,0:0:0:0:
247,137,20303,2,0,L|302:146,1,47.9999985351563,0|0,0:0|0:0,0:0:0:0:
257,320,20616,6,0,P|288:269|331:258,1,88.000002685547,4|0,0:0|0:0,0:0:0:0:
421,306,20928,1,0,0:0:0:0:
260,328,21084,1,0,0:0:0:0:
330,164,21241,2,0,L|438:183,1,88.000002685547,8|0,0:0|0:0,0:0:0:0:
265,335,21553,2,0,B|224:347|224:347|166:326,1,88.000002685547,0|0,0:0|0:0,0:0:0:0:
0,150,21866,6,0,P|64:184|123:164,1,132.00000402832,4|0,0:0|0:0,0:0:0:0:
133,151,22178,2,0,L|123:247,1,88.000002685547,0|0,0:0|0:0,0:0:0:0:
72,94,22491,1,8,0:0:0:0:
72,94,22647,1,0,0:0:0:0:
260,107,22803,1,0,0:0:0:0:
230,17,22959,1,0,0:0:0:0:
234,187,23116,6,0,P|301:185|340:133,1,132.00000402832,4|0,0:0|0:0,0:0:0:0:
352,113,23428,2,0,B|360:140|360:140|371:150|371:150|365:168|365:168|369:206,1,88.000002685547,0|0,0:0|0:0,0:0:0:0:
332,285,23662,1,0,0:0:0:0:
326,285,23741,2,0,P|313:330|334:370,1,88.000002685547,8|0,0:0|0:0,0:0:0:0:
420,272,23975,1,0,0:0:0:0:
420,272,24053,1,0,0:0:0:0:
228,289,24209,1,0,0:0:0:0:
424,365,24366,6,0,L|515:369,1,88.000002685547,4|0,0:0|0:0,0:0:0:0:
417,204,24678,1,0,0:0:0:0:
406,217,24756,1,0,0:0:0:0:
401,233,24834,1,0,0:0:0:0:
403,250,24912,1,0,0:0:0:0:
411,265,24991,2,0,L|305:274,1,88.000002685547,12|0,0:0|0:0,0:0:0:0:
106,200,25303,1,0,0:0:0:0:
74,332,25459,1,0,0:0:0:0:
272,338,25616,6,0,B|257:374|186:372|172:329|172:329|200:314|212:288|212:288|205:270|199:248|199:248|212:218|212:218|210:176,1,287.999991210938,4|0,0:0|0:0,0:0:0:0:
226,103,26162,1,0,0:0:0:0:
226,103,26241,2,0,P|221:79|210:58,1,47.9999985351563,8|0,0:0|0:0,0:0:0:0:
143,137,26397,2,0,P|130:164|129:208,1,47.9999985351563,0|0,0:0|0:0,0:0:0:0:
293,161,26553,2,0,L|394:152,1,95.9999970703126,8|0,0:0|0:0,0:0:0:0:
464,325,26866,6,0,B|500:310|498:239|455:225|455:225|440:253|414:265|414:265|396:258|374:252|374:252|344:265|344:265|302:263,1,287.999991210938,4|0,0:0|0:0,0:0:0:0:
237,308,27412,1,0,0:0:0:0:
237,308,27491,2,0,P|242:361|251:375,1,47.9999985351563,8|0,0:0|0:0,0:0:0:0:
162,257,27647,2,0,P|167:204|176:190,1,47.9999985351563,0|0,0:0|0:0,0:0:0:0:
100,348,27803,2,0,L|-2:337,1,95.9999970703126,8|0,0:0|0:0,0:0:0:0:
1,139,28116,5,0,0:0:0:0:
24,132,28194,1,0,0:0:0:0:
47,132,28272,1,0,0:0:0:0:
68,141,28350,1,0,0:0:0:0:
84,158,28428,2,0,L|74:209,3,47.9999985351563,0|0|0|0,0:0|0:0|0:0|0:0,0:0:0:0:
177,84,28741,2,0,L|167:36,3,47.9999985351563,0|0|0|0,0:0|0:0|0:0|0:0,0:0:0:0:
268,171,29053,1,0,0:0:0:0:
291,178,29131,1,0,0:0:0:0:
314,178,29209,1,0,0:0:0:0:
335,169,29287,1,0,0:0:0:0:
348,148,29366,6,0,L|355:97,1,47.9999985351563,8|8,2:3|2:3,0:0:0:0:
452,63,29522,2,0,L|447:111,1,47.9999985351563,8|8,2:3|2:3,0:0:0:0:
261,73,29678,2,0,B|253:24,3,47.9999985351563,0|0|0|0,0:0|0:0|0:0|0:0,0:0:0:0:
171,187,29991,5,0,0:0:0:0:
150,213,30069,1,0,0:0:0:0:
142,245,30147,1,0,0:0:0:0:
146,278,30225,1,0,0:0:0:0:
164,305,30303,1,8,0:3:0:0:
190,326,30381,1,0,0:0:0:0:
222,332,30459,1,8,0:3:0:0:
254,325,30537,1,0,0:0:0:0:
280,303,30616,6,0,L|406:293,1,88.000002685547,4|0,0:0|0:0,0:0:0:0:
512,250,30928,1,0,0:0:0:0:
477,366,31084,1,0,0:0:0:0:
373,187,31241,2,0,P|418:160|462:168,1,88.000002685547,8|0,0:0|0:0,0:0:0:0:
260,207,31553,2,0,P|261:150|286:118,1,88.000002685547,0|0,0:0|0:0,0:0:0:0:
496,46,31865,5,4,0:0:0:0:
476,45,31944,1,0,0:0:0:0:
456,43,32022,2,0,L|349:37,1,88.000002685547,0|0,0:0|0:0,0:0:0:0:
269,30,32334,1,0,0:0:0:0:
100,81,32491,2,0,P|100:136|129:171,1,88.000002685547,8|0,0:0|0:0,0:0:0:0:
287,135,32803,1,0,0:0:0:0:
187,101,32959,1,0,0:0:0:0:
209,366,33116,6,0,B|214:317|214:317|222:295|222:295|216:278|216:278|221:216,1,132.00000402832,4|0,0:0|0:0,0:0:0:0:
222,219,33428,2,0,P|267:247|307:243,1,88.000002685547,0|0,0:0|0:0,0:0:0:0:
373,190,33662,1,0,0:0:0:0:
373,190,33741,2,0,L|472:202,1,88.000002685547,8|0,0:0|0:0,0:0:0:0:
287,158,33975,1,0,0:0:0:0:
287,158,34053,1,0,0:0:0:0:
382,278,34209,1,0,0:0:0:0:
421,100,34366,6,0,L|409:5,1,88.000002685547,4|0,0:0|0:0,0:0:0:0:
286,157,34678,1,0,0:0:0:0:
276,142,34756,1,0,0:0:0:0:
273,124,34834,1,0,0:0:0:0:
278,107,34912,1,0,0:0:0:0:
290,94,34991,2,0,L|187:79,1,88.000002685547,8|0,0:0|0:0,0:0:0:0:
32,158,35303,1,8,0:0:0:0:
104,0,35459,1,0,0:0:0:0:
168,173,35616,6,0,B|162:218|162:218|176:256|176:256|164:280|164:280|175:318|175:318|152:370|60:361|68:274,1,287.999991210938,12|0,0:0|0:0,0:0:0:0:
84,228,36162,1,0,0:0:0:0:
84,228,36241,2,0,L|71:122,1,95.9999970703126,8|0,0:0|0:0,0:0:0:0:
282,211,36553,2,0,P|277:217|259:331,1,95.9999970703126,0|0,0:0|0:0,0:0:0:0:
506,353,36866,6,0,B|461:342|461:342|422:352|422:352|400:337|400:337|361:344|361:344|311:316|332:225|416:242,1,287.999991210938,12|0,0:0|0:0,0:0:0:0:
465,231,37412,1,0,0:0:0:0:
465,231,37491,2,0,P|447:193|433:183,1,47.9999985351563,8|0,0:0|0:0,0:0:0:0:
485,122,37647,2,0,P|446:104|429:105,1,47.9999985351563,0|0,0:0|0:0,0:0:0:0:
331,146,37803,2,0,L|345:19,1,95.9999970703126,8|0,0:0|0:0,0:0:0:0:
224,222,38116,6,0,P|217:177|181:134,1,95.9999970703126,4|0,0:0|0:0,0:0:0:0:
168,132,38350,1,0,0:0:0:0:
148,130,38428,2,0,L|76:139,1,47.9999985351563,0|0,0:0|0:0,0:0:0:0:
177,40,38584,2,0,L|232:46,1,47.9999985351563,0|0,0:0|0:0,0:0:0:0:
118,219,38741,2,0,P|60:218|23:164,1,95.9999970703126,12|0,0:0|0:0,0:0:0:0:
26,176,38975,1,0,0:0:0:0:
21,157,39053,2,0,L|27:101,1,47.9999985351563,0|0,0:0|0:0,0:0:0:0:
131,208,39209,2,0,L|137:262,1,47.9999985351563,0|0,0:0|0:0,0:0:0:0:
27,370,39366,6,0,L|34:322,1,47.9999985351563,12|0,0:0|0:0,0:0:0:0:
160,263,39522,2,0,L|168:310,1,47.9999985351563,0|0,0:0|0:0,0:0:0:0:
320,363,39678,1,8,0:0:0:0:
276,217,39834,1,8,0:0:0:0:
415,246,39991,1,8,0:0:0:0:
179,331,40147,1,8,0:0:0:0:
404,242,40303,1,8,0:0:0:0:
161,113,40459,5,8,0:3:0:0:
256,192,50928,12,0,52803,0:0:0:0:
344,37,53116,6,0,B|356:85|356:85|347:114|347:114|363:173,1,128,4|0,0:0|0:0,0:0:0:0:
268,79,53584,1,0,0:0:0:0:
448,142,53741,2,0,P|446:182|424:219,1,64,8|0,0:0|0:0,0:0:0:0:
322,245,54053,1,0,0:0:0:0:
410,312,54209,1,0,0:0:0:0:
229,302,54366,6,0,L|84:293,1,128,0|0,0:0|0:0,0:0:0:0:
101,294,54834,1,0,0:0:0:0:
20,150,54991,2,0,P|66:159|98:177,1,64,8|0,0:0|0:0,0:0:0:0:
160,211,55303,1,0,0:0:0:0:
160,211,55459,1,0,0:0:0:0:
310,87,55616,6,0,L|302:7,1,64,0|0,0:0|0:0,0:0:0:0:
271,176,55928,1,0,0:0:0:0:
220,93,56084,1,0,0:0:0:0:
397,120,56241,1,8,0:0:0:0:
271,176,56397,6,0,P|259:211|259:229,1,32,0|0,0:0|0:0,0:0:0:0:
188,206,56553,2,0,P|195:242|204:257,1,32,0|0,0:0|0:0,0:0:0:0:
134,276,56709,2,0,P|158:303|173:312,1,32,0|0,0:0|0:0,0:0:0:0:
196,374,56866,6,0,L|328:358,1,128,0|0,0:0|0:0,0:0:0:0:
410,380,57334,1,0,0:0:0:0:
428,178,57491,1,8,0:0:0:0:
351,222,57647,2,0,P|406:263|481:245,1,128,0|0,0:0|0:0,0:0:0:0:
272,267,58116,6,0,L|199:263,1,64,4|0,0:0|0:0,0:0:0:0:
120,222,58428,1,0,0:0:0:0:
90,368,58584,2,0,P|160:379|205:349,1,128
52,285,59053,1,0,0:0:0:0:
44,294,59209,1,0,0:0:0:0:
206,174,59366,6,0,P|207:138|173:82,1,83.9999974365235,0|0,0:0|0:0,0:0:0:0:
178,85,59678,2,0,L|297:98,1,96,0|0,0:0|0:0,0:0:0:0:
286,97,59991,1,8,0:0:0:0:
362,149,60147,1,0,0:0:0:0:
451,63,60303,2,0,P|443:26|423:-4,1,64,0|0,0:0|0:0,0:0:0:0:
362,149,60616,6,0,L|368:284,1,128,0|0,0:0|0:0,0:0:0:0:
310,342,61084,1,0,0:0:0:0:
450,307,61241,2,0,L|459:226,1,64,8|0,0:0|0:0,0:0:0:0:
287,270,61553,2,0,L|294:333,1,64,0|0,0:0|0:0,0:0:0:0:
49,300,61866,6,0,P|73:249|159:246,1,128,0|0,0:0|0:0,0:0:0:0:
194,301,62334,1,0,0:0:0:0:
259,190,62491,2,0,L|266:126,1,64,8|0,0:0|0:0,0:0:0:0:
140,142,62803,2,0,L|132:78,1,64,0|0,0:0|0:0,0:0:0:0:
322,38,63116,5,4,0:0:0:0:
322,38,63272,1,0,0:0:0:0:
322,38,63428,1,0,0:0:0:0:
322,38,63584,1,0,0:0:0:0:
466,81,63741,1,8,0:0:0:0:
384,101,63897,1,0,0:0:0:0:
487,160,64053,1,0,0:0:0:0:
405,180,64209,1,0,0:0:0:0:
441,326,64366,5,0,0:0:0:0:
441,326,64522,1,0,0:0:0:0:
441,326,64678,1,0,0:0:0:0:
441,326,64834,1,0,0:0:0:0:
309,268,64991,1,8,0:0:0:0:
302,350,65147,1,0,0:0:0:0:
210,212,65303,1,0,0:0:0:0:
217,294,65459,1,0,0:0:0:0:
104,364,65616,5,4,0:0:0:0:
81,364,65772,1,0,0:0:0:0:
58,360,65928,1,0,0:0:0:0:
38,348,66084,1,0,0:0:0:0:
30,227,66241,1,8,0:0:0:0:
109,254,66397,1,0,0:0:0:0:
136,176,66553,1,0,0:0:0:0:
58,149,66709,1,0,0:0:0:0:
195,246,66866,5,0,0:0:0:0:
279,151,67022,1,0,0:0:0:0:
319,272,67178,1,0,0:0:0:0:
495,154,67334,5,0,0:0:0:0:
374,194,67490,1,8,0:0:0:0:
469,278,67646,1,0,0:0:0:0:
393,95,67803,5,0,0:0:0:0:
318,269,67959,1,0,0:0:0:0:
264,66,68116,6,0,P|298:36|336:29,1,64,4|0,0:0|0:0,0:0:0:0:
182,78,68428,2,0,P|188:33|213:3,1,64,0|0,0:0|0:0,0:0:0:0:
236,143,68741,2,0,L|107:127,1,128,8|0,0:0|0:0,0:0:0:0:
44,74,69209,1,0,0:0:0:0:
0,242,69366,5,0,0:0:0:0:
4,253,69522,1,0,0:0:0:0:
8,264,69678,1,0,0:0:0:0:
13,275,69834,1,0,0:0:0:0:
174,251,69991,1,8,0:0:0:0:
152,344,70147,1,0,0:0:0:0:
311,369,70303,1,0,0:0:0:0:
289,276,70459,1,0,0:0:0:0:
440,204,70616,6,0,P|488:222|505:250,1,64,4|0,0:0|0:0,0:0:0:0:
373,160,70928,2,0,P|412:127|445:126,1,64,0|0,0:0|0:0,0:0:0:0:
302,198,71241,2,0,L|286:69,1,128,8|0,0:0|0:0,0:0:0:0:
348,0,71709,1,0,0:0:0:0:
70,48,71866,5,0,0:0:0:0:
178,64,72022,1,0,0:0:0:0:
33,169,72178,1,0,0:0:0:0:
219,149,72334,1,0,0:0:0:0:
103,343,72491,5,8,0:0:0:0:
120,196,72647,1,0,0:0:0:0:
236,290,72803,1,8,0:0:0:0:
54,261,72959,1,0,0:0:0:0:
295,207,73116,5,4,0:0:0:0:
310,209,73272,1,0,0:0:0:0:
325,211,73428,1,0,0:0:0:0:
340,213,73584,1,0,0:0:0:0:
455,102,73741,1,8,0:0:0:0:
365,130,73897,1,0,0:0:0:0:
431,24,74053,1,0,0:0:0:0:
341,52,74209,1,0,0:0:0:0:
507,177,74366,5,0,0:0:0:0:
504,192,74522,1,0,0:0:0:0:
501,207,74678,1,0,0:0:0:0:
499,222,74834,1,0,0:0:0:0:
400,358,74991,1,8,0:0:0:0:
405,262,75147,1,0,0:0:0:0:
286,278,75303,1,0,0:0:0:0:
281,374,75459,1,0,0:0:0:0:
169,299,75616,5,4,0:0:0:0:
153,296,75772,1,0,0:0:0:0:
137,293,75928,1,0,0:0:0:0:
121,290,76084,1,0,0:0:0:0:
250,175,76241,1,8,0:0:0:0:
61,237,76397,2,0,P|48:262|43:295,1,40,0|0,0:0|0:0,0:0:0:0:
144,198,76553,2,0,P|128:174|102:153,1,40,0|0,0:0|0:0,0:0:0:0:
137,293,76709,2,0,P|165:291|196:279,1,40,0|0,0:0|0:0,0:0:0:0:
319,259,76865,5,0,0:0:0:0:
387,340,77022,1,8,0:0:0:0:
282,359,77178,1,0,0:0:0:0:
475,170,77334,5,0,0:0:0:0:
407,251,77491,1,8,0:0:0:0:
512,270,77647,1,0,0:0:0:0:
319,259,77803,5,0,0:0:0:0:
297,162,77959,1,0,0:0:0:0:
257,338,78116,5,4,0:0:0:0:
151,217,78272,1,0,0:0:0:0:
285,167,78428,1,0,0:0:0:0:
141,316,78584,1,0,0:0:0:0:
2,185,78741,2,0,L|226:217,1,160,8|0,0:0|0:0,0:0:0:0:
279,156,79209,1,0,0:0:0:0:
152,40,79366,5,0,0:0:0:0:
136,44,79522,1,0,0:0:0:0:
120,48,79678,1,0,0:0:0:0:
104,52,79834,1,0,0:0:0:0:
221,108,79991,1,8,0:0:0:0:
248,25,80147,1,0,0:0:0:0:
313,110,80303,1,0,0:0:0:0:
340,27,80459,1,0,0:0:0:0:
385,172,80616,5,4,0:0:0:0:
399,178,80772,1,0,0:0:0:0:
414,181,80928,1,0,0:0:0:0:
429,179,81084,1,0,0:0:0:0:
351,260,81241,1,8,0:0:0:0:
375,346,81397,1,0,0:0:0:0:
290,367,81553,1,0,0:0:0:0:
266,281,81709,1,0,0:0:0:0:
152,357,81866,5,0,0:0:0:0:
71,376,82022,1,0,0:0:0:0:
0,248,82178,1,8,0:0:0:0:
171,272,82334,1,8,0:0:0:0:
122,55,82491,5,8,0:0:0:0:
95,204,82647,1,8,0:0:0:0:
230,19,82803,1,8,0:0:0:0:
2,79,82959,1,8,0:0:0:0:
205,152,83116,6,0,L|443:133,1,223.999993164063,4|0,0:0|0:0,0:0:0:0:
506,249,84366,2,0,B|357:223|357:223|316:147,2,223.999993164063,0|0|0,0:0|0:0|0:0,0:0:0:0:
256,192,85694,12,0,86866,0:0:0:0:
94,108,87178,6,0,P|119:139|121:198,1,83.9999974365235,0|0,0:0|0:0,0:0:0:0:
116,204,87491,6,0,P|90:260|108:315,1,120,0|0,0:0|0:0,0:0:0:0:
199,359,87803,2,0,L|341:340,1,120,0|0,0:0|0:0,0:0:0:0:
446,264,88116,6,0,B|482:239|509:261|509:261|493:317|419:328|342:292|343:217,1,287.999991210938,4|0,0:0|0:0,0:0:0:0:
280,43,88741,2,0,P|300:106|292:144,1,95.9999970703126,8|0,0:0|0:0,0:0:0:0:
238,222,89053,1,0,0:0:0:0:
426,163,89209,6,0,B|466:128|506:131|506:131|446:102|405:123,1,191.999994140625,4|0,0:0|0:0,0:0:0:0:
238,222,89678,2,0,P|281:255|322:254,1,80,0|0,0:0|0:0,0:0:0:0:
151,204,89991,2,0,P|156:257|184:287,1,80,8|0,0:0|0:0,0:0:0:0:
288,352,90303,1,0,0:0:0:0:
240,344,90381,1,0,0:0:0:0:
197,363,90459,1,0,0:0:0:0:
150,363,90537,1,0,0:0:0:0:
98,348,90616,6,0,B|52:360|24:328|24:328|10:288|45:208|115:211|115:211|106:238|80:275,1,287.999991210938,4|0,0:0|0:0,0:0:0:0:
39,132,91241,2,0,P|100:114|154:123,1,95.9999970703126,8|0,0:0|0:0,0:0:0:0:
181,281,91553,1,0,0:0:0:0:
291,120,91709,6,0,B|279:9|279:9|214:16|216:83,1,191.999994140625,4|0,0:0|0:0,0:0:0:0:
236,199,92178,2,0,P|295:218|341:200,1,95.9999970703126,0|0,0:0|0:0,0:0:0:0:
426,67,92491,1,8,0:0:0:0:
426,67,92647,1,0,0:0:0:0:
359,123,92803,1,0,0:0:0:0:
401,269,92959,1,0,0:0:0:0:
503,87,93116,6,0,B|470:17|369:12|323:55|323:55|323:98|374:136,1,287.999991210938,4|0,0:0|0:0,0:0:0:0:
478,240,93741,2,0,B|496:342|496:342|454:390,1,143.999995605469,8|0,0:0|0:0,0:0:0:0:
442,373,94053,1,0,0:0:0:0:
255,218,94209,6,0,P|321:206|388:302,1,191.999994140625,4|0,0:0|0:0,0:0:0:0:
214,295,94678,2,0,P|172:250|177:194,1,95.9999970703126,0|0,0:0|0:0,0:0:0:0:
305,291,94991,2,0,P|262:371|171:369,1,191.999994140625,8|0,0:0|0:0,0:0:0:0:
101,306,95459,1,0,0:0:0:0:
255,218,95616,6,0,B|262:159|262:159|253:124|253:124|270:93|270:93|264:31|264:31|207:9|168:72,1,287.999991210938,4|0,0:0|0:0,0:0:0:0:
351,136,96241,2,0,L|470:129,1,95.9999970703126,8|0,0:0|0:0,0:0:0:0:
352,295,96553,2,0,L|270:287,1,47.9999985351563,8|0,0:0|0:0,0:0:0:0:
342,151,96709,6,0,L|502:141,1,160,4|0,0:0|0:0,0:0:0:0:
497,152,97100,1,0,0:0:0:0:
493,161,97178,1,0,0:0:0:0:
365,58,97334,1,0,0:0:0:0:
361,49,97412,1,0,0:0:0:0:
358,40,97490,1,0,0:0:0:0:
448,0,97647,1,0,0:0:0:0:
404,178,97803,2,0,P|417:228|460:262,1,95.9999970703126,8|8,0:0|0:0,0:0:0:0:
311,129,98116,6,0,B|257:136|223:217|242:256|242:256|259:294|316:325|371:276,1,287.999991210938,4|0,0:0|0:0,0:0:0:0:
176,313,98741,2,0,L|61:326,1,95.9999970703126,8|0,0:0|0:0,0:0:0:0:
251,378,99053,1,0,0:0:0:0:
143,196,99209,2,0,B|92:173|26:191|26:191|69:213|95:248,1,191.999994140625,4|0,0:0|0:0,0:0:0:0:
172,92,99678,6,0,P|122:49|81:51,1,95.9999970703126,0|0,0:0|0:0,0:0:0:0:
257,135,99991,2,0,P|272:89|253:34,1,95.9999970703126,8|0,0:0|0:0,0:0:0:0:
214,232,100303,1,0,0:0:0:0:
247,226,100381,1,0,0:0:0:0:
280,220,100459,1,0,0:0:0:0:
313,215,100537,1,0,0:0:0:0:
335,189,100616,6,0,B|387:157|435:182|435:182|452:250|395:325|395:325|382:271,1,287.999991210938,4|0,0:0|0:0,0:0:0:0:
373,85,101241,2,0,P|423:86|473:107,1,95.9999970703126,8|0,0:0|0:0,0:0:0:0:
511,304,101553,1,0,0:0:0:0:
293,298,101709,6,0,B|230:262|157:256|157:256|136:280|151:320,1,191.999994140625,4|0,0:0|0:0,0:0:0:0:
332,381,102178,2,0,P|374:345|384:295,1,95.9999970703126,0|0,0:0|0:0,0:0:0:0:
251,129,102491,1,8,0:0:0:0:
251,129,102647,1,0,0:0:0:0:
323,187,102803,1,0,0:0:0:0:
366,36,102959,1,0,0:0:0:0:
135,144,103116,6,0,B|146:204|239:233|297:204|297:204|297:152|242:124,1,287.999991210938,4|0,0:0|0:0,0:0:0:0:
64,79,103741,2,0,P|45:172|68:203,1,95.9999970703126,8|0,0:0|0:0,0:0:0:0:
92,250,104053,1,0,0:0:0:0:
183,41,104209,6,0,B|142:28|103:42|87:70|87:70|83:124|186:169|247:114,1,287.999991210938,4|0,0:0|0:0,0:0:0:0:
380,18,104834,2,0,B|300:18|271:50|271:50|316:76|317:140,1,191.999994140625,8|0,0:0|0:0,0:0:0:0:
260,300,105303,2,0,P|246:264|280:194,1,95.9999970703126,8|0,0:0|0:0,0:0:0:0:
512,268,105616,6,0,B|444:265|444:265|421:272|421:272|396:260|396:260|302:253,1,191.999994140625,4|0,0:0|0:0,0:0:0:0:
182,180,106084,1,0,0:0:0:0:
78,361,106241,2,0,P|141:374|195:339,1,95.9999970703126,8|0,0:0|0:0,0:0:0:0:
287,159,106553,1,0,0:0:0:0:
51,133,106709,6,0,L|36:269,1,95.9999970703126,4|0,0:0|0:0,0:0:0:0:
131,289,107022,1,8,0:0:0:0:
128,271,107100,1,8,0:0:0:0:
125,253,107178,1,8,0:0:0:0:
321,253,107334,1,8,0:0:0:0:
186,146,107491,1,8,0:0:0:0:
222,234,107647,1,8,0:0:0:0:
411,50,107803,1,8,0:0:0:0:
394,143,107959,1,8,0:0:0:0:
232,30,108116,6,0,B|293:35|293:35|331:19|367:39|367:39|436:44,1,191.999994140625,4|0,0:0|0:0,0:0:0:0:
273,112,109366,2,0,B|212:107|212:107|176:119|138:103|138:103|69:98,1,191.999994140625,0|0,0:0|0:0,0:0:0:0:
178,34,110616,1,0,0:0:0:0:
293,187,111241,5,0,0:0:0:0:
298,214,111319,1,0,0:0:0:0:
303,241,111397,1,0,0:0:0:0:
309,268,111475,1,0,0:0:0:0:
196,240,111866,5,0,0:0:0:0:
193,259,111944,1,0,0:0:0:0:
189,278,112022,1,0,0:0:0:0:
186,297,112100,1,0,0:0:0:0:
100,225,112491,5,0,0:0:0:0:
90,234,112569,1,0,0:0:0:0:
81,242,112647,1,0,0:0:0:0:
72,249,112725,1,0,0:0:0:0:
63,257,112803,2,0,P|56:310|74:343,1,80,0|0,0:0|0:0,0:0:0:0:
157,373,113037,1,0,0:0:0:0:
251,363,113116,6,0,L|361:351,1,88.000002685547,4|0,0:0|0:0,0:0:0:0:
437,377,113428,1,0,0:0:0:0:
330,265,113584,1,0,0:0:0:0:
488,217,113741,2,0,P|488:280|453:314,1,88.000002685547,8|0,0:0|0:0,0:0:0:0:
268,316,114053,2,0,P|248:277|254:234,1,88.000002685547,0|0,0:0|0:0,0:0:0:0:
452,114,114366,5,4,0:0:0:0:
452,114,114444,1,0,0:0:0:0:
452,114,114522,1,0,0:0:0:0:
371,156,114678,2,0,P|340:162|280:131,1,88.000002685547,0|0,0:0|0:0,0:0:0:0:
217,0,114991,1,8,0:0:0:0:
217,0,115147,1,0,0:0:0:0:
130,65,115303,1,0,0:0:0:0:
322,37,115459,1,0,0:0:0:0:
184,162,115616,6,0,B|179:206|179:206|182:235|182:235|172:254|172:254|166:295,1,132.00000402832,4|0,0:0|0:0,0:0:0:0:
164,313,115928,2,0,P|113:293|63:310,1,88.000002685547,0|0,0:0|0:0,0:0:0:0:
201,382,116162,1,0,0:0:0:0:
201,382,116241,2,0,P|252:381|289:358,1,88.000002685547,8|0,0:0|0:0,0:0:0:0:
377,275,116475,1,0,0:0:0:0:
390,284,116553,2,0,L|384:382,1,88.000002685547,0|0,0:0|0:0,0:0:0:0:
326,178,116866,6,0,B|365:156|365:156|437:170,1,88.000002685547,4|0,0:0|0:0,0:0:0:0:
254,248,117178,1,0,0:0:0:0:
237,233,117256,1,0,0:0:0:0:
227,213,117334,1,0,0:0:0:0:
226,191,117412,1,0,0:0:0:0:
233,170,117491,2,0,L|245:62,1,88.000002685547,8|0,0:0|0:0,0:0:0:0:
45,28,117803,2,0,L|57:129,1,88.000002685547,0|0,0:0|0:0,0:0:0:0:
60,363,118116,6,0,B|54:317|54:317|73:276|73:276|52:218|52:218|70:184|117:173|158:194,1,264.000008056641,4|0,0:0|0:0,0:0:0:0:
235,253,118662,1,0,0:0:0:0:
235,253,118741,2,0,P|226:293|216:316,1,44.0000013427735,8|0,0:0|0:0,0:0:0:0:
155,368,118897,2,0,P|149:339|149:303,1,44.0000013427735,0|0,0:0|0:0,0:0:0:0:
300,344,119053,2,0,L|407:352,1,88.000002685547,8|0,0:0|0:0,0:0:0:0:
509,204,119366,6,0,B|467:230|467:230|414:219|414:219|371:245|371:245|336:238|298:182|351:120,1,264.000008056641,4|0,0:0|0:0,0:0:0:0:
401,104,119912,1,0,0:0:0:0:
401,104,119991,2,0,P|360:75|350:72,1,44.0000013427735,8|0,0:0|0:0,0:0:0:0:
322,10,120147,2,0,P|291:12|257:23,1,44.0000013427735,0|0,0:0|0:0,0:0:0:0:
233,128,120303,2,0,L|111:137,1,88.000002685547,8|0,0:0|0:0,0:0:0:0:
20,23,120616,5,0,0:0:0:0:
20,23,120772,1,0,0:0:0:0:
112,42,120928,1,0,0:0:0:0:
46,176,121084,1,0,0:0:0:0:
36,195,121162,1,0,0:0:0:0:
34,217,121241,1,0,0:0:0:0:
41,237,121319,1,0,0:0:0:0:
54,253,121397,2,0,L|109:260,1,44.0000013427735,0|0,0:0|0:0,0:0:0:0:
215,272,121553,5,0,0:0:0:0:
225,291,121631,1,0,0:0:0:0:
227,313,121709,1,0,0:0:0:0:
220,333,121788,1,0,0:0:0:0:
207,349,121866,5,8,0:3:0:0:
255,345,121944,1,8,0:3:0:0:
303,341,122022,1,8,0:3:0:0:
351,337,122100,1,8,0:3:0:0:
398,327,122178,2,0,L|387:384,3,44.0000013427735,0|0|0|0,0:0|0:0|0:0|0:0,0:0:0:0:
363,241,122491,2,0,L|319:202,3,44.0000013427735,0|0|0|0,0:0|0:0|0:0|0:0,0:0:0:0:
456,254,122803,2,0,L|510:235,1,44.0000013427735,8|0,0:3|0:0,0:0:0:0:
450,166,122959,2,0,L|491:151,1,44.0000013427735,8|0,0:3|0:0,0:0:0:0:
258,156,123116,6,0,P|236:221|250:255,1,88.000002685547,4|0,0:0|0:0,0:0:0:0:
352,128,123428,1,0,0:0:0:0:
352,128,123584,1,0,0:0:0:0:
150,268,123741,2,0,P|165:322|208:351,1,88.000002685547,8|0,0:0|0:0,0:0:0:0:
418,283,124053,2,0,L|309:271,1,88.000002685547,0|0,0:0|0:0,0:0:0:0:
94,188,124366,5,4,0:0:0:0:
94,188,124444,1,0,0:0:0:0:
94,188,124522,1,0,0:0:0:0:
166,133,124678,2,0,P|131:100|79:94,1,88.000002685547,0|0,0:0|0:0,0:0:0:0:
0,188,124912,1,0,0:0:0:0:
0,188,124991,2,0,B|11:248|11:248|46:283|46:283|60:360,1,176.000005371094,8|0,0:0|0:0,0:0:0:0:
158,371,125459,1,0,0:0:0:0:
303,244,125616,6,0,P|242:232|189:290,1,132.00000402832,4|0,0:0|0:0,0:0:0:0:
197,285,125928,2,0,B|198:262|198:262|200:249|194:244|194:244|200:235|203:223|203:223|206:183,1,88.000002685547,0|0,0:0|0:0,0:0:0:0:
158,123,126162,1,0,0:0:0:0:
158,123,126241,2,0,P|141:69|174:26,1,88.000002685547,8|0,0:0|0:0,0:0:0:0:
254,130,126475,1,0,0:0:0:0:
254,130,126553,1,0,0:0:0:0:
116,208,126709,1,0,0:0:0:0:
247,36,126866,6,0,L|358:50,1,88.000002685547,4|0,0:0|0:0,0:0:0:0:
482,139,127178,1,0,0:0:0:0:
460,141,127256,1,0,0:0:0:0:
438,143,127334,1,0,0:0:0:0:
416,145,127412,1,0,0:0:0:0:
394,148,127491,5,8,0:0:0:0:
368,243,127647,1,4,0:0:0:0:
246,55,127803,1,8,0:0:0:0:
258,151,127959,1,4,0:0:0:0:
51,139,128116,6,0,B|61:100|97:71|146:84|168:115|168:115|147:162|147:162|161:195|161:195|149:225|149:225|167:294,1,308.000009399414,4|0,0:0|0:0,0:0:0:0:
130,340,128741,2,0,P|91:353|39:324,1,88.000002685547,8|0,0:0|0:0,0:0:0:0:
241,237,129053,2,0,L|338:243,1,88.000002685547,0|0,0:0|0:0,0:0:0:0:
286,27,129366,6,0,B|255:55|265:110|312:130|312:130|348:119|348:119|381:128|381:128|414:119|414:119|455:126,1,264.000008056641,4|0,0:0|0:0,0:0:0:0:
508,192,129912,1,0,0:0:0:0:
508,192,129991,2,0,P|471:209|443:232,1,44.0000013427735,8|0,0:0|0:0,0:0:0:0:
355,250,130147,2,0,P|375:257|394:268,1,44.0000013427735,0|0,0:0|0:0,0:0:0:0:
512,334,130303,2,0,P|460:337|383:375,1,132.00000402832,0|0,0:0|0:0,0:0:0:0:
286,332,130616,6,0,L|166:325,1,88.000002685547,4|0,0:0|0:0,0:0:0:0:
123,261,130850,1,0,0:0:0:0:
123,261,130928,2,0,L|135:205,1,44.0000013427735,0|0,0:0|0:0,0:0:0:0:
47,322,131084,2,0,L|57:389,1,44.0000013427735,0|0,0:0|0:0,0:0:0:0:
0,151,131241,6,0,L|115:140,1,88.000002685547,12|0,0:0|0:0,0:0:0:0:
171,75,131475,1,0,0:0:0:0:
171,75,131553,2,0,P|185:35|186:21,1,44.0000013427735,0|0,0:0|0:0,0:0:0:0:
216,163,131709,2,0,P|224:192|227:222,1,44.0000013427735,0|0,0:0|0:0,0:0:0:0:
307,80,131866,5,4,0:0:0:0:
456,127,132022,1,8,0:0:0:0:
453,148,132100,1,8,0:0:0:0:
451,169,132178,1,8,0:0:0:0:
473,39,132334,1,8,0:0:0:0:
353,162,132491,2,0,L|372:260,1,88.000002685547,8|8,0:0|0:0,0:0:0:0:
470,381,132803,2,0,P|486:330|461:265,1,88.000002685547,8|8,0:0|0:0,0:0:0:0:
228,234,133116,5,4,0:0:0:0:
228,234,133428,1,0,0:0:0:0:
75,349,133584,1,0,0:0:0:0:
174,321,133741,2,0,L|307:328,1,111.999996582031,8|0,0:0|0:0,0:0:0:0:
146,176,134366,2,0,L|13:183,1,111.999996582031,0|0,0:0|0:0,0:0:0:0:
20,182,134834,1,0,0:0:0:0:
226,93,134991,1,8,0:0:0:0:
226,93,135303,1,0,0:0:0:0:
146,57,135459,1,0,0:0:0:0:
358,27,135616,5,4,0:0:0:0:
358,27,135928,1,0,0:0:0:0:
329,166,136084,1,0,0:0:0:0:
467,122,136241,2,0,L|398:113,1,55.9999982910157,8|0,0:0|0:0,0:0:0:0:
503,209,136553,2,0,L|443:216,1,55.9999982910157,0|0,0:0|0:0,0:0:0:0:
196,245,136866,6,0,L|168:302,1,55.9999982910157,0|0,0:0|0:0,0:0:0:0:
265,309,137178,2,0,L|251:367,1,55.9999982910157,0|0,0:0|0:0,0:0:0:0:
361,229,137491,2,0,L|369:299,1,55.9999982910157,8|0,0:0|0:0,0:0:0:0:
369,298,137725,1,0,0:0:0:0:
371,311,137803,1,0,0:0:0:0:
441,357,137959,1,0,0:0:0:0:
277,198,138116,5,4,0:0:0:0:
277,198,138428,1,0,0:0:0:0:
403,154,138584,1,0,0:0:0:0:
233,71,138741,1,8,0:0:0:0:
308,34,138897,2,0,L|426:45,1,111.999996582031,0|0,0:0|0:0,0:0:0:0:
489,94,139366,5,4,0:0:0:0:
489,94,139678,1,0,0:0:0:0:
325,127,139834,1,0,0:0:0:0:
407,172,139991,2,0,L|400:230,1,55.9999982910157,8|0,0:0|0:0,0:0:0:0:
277,245,140303,2,0,L|288:312,1,55.9999982910157,0|0,0:0|0:0,0:0:0:0:
161,155,140616,6,0,P|91:153|57:183,1,111.999996582031,4|0,0:0|0:0,0:0:0:0:
136,315,141084,1,0,0:0:0:0:
136,315,141241,2,0,L|139:250,1,55.9999982910157,8|0,0:0|0:0,0:0:0:0:
47,368,141553,2,0,L|40:305,1,55.9999982910157,0|0,0:0|0:0,0:0:0:0:
230,236,141866,5,0,0:0:0:0:
229,248,141944,1,0,0:0:0:0:
228,261,142022,1,8,0:0:0:0:
227,274,142100,1,8,0:0:0:0:
226,287,142178,1,8,0:0:0:0:
240,154,142334,1,8,0:0:0:0:
370,212,142491,5,8,0:0:0:0:
107,182,142647,1,8,0:0:0:0:
335,129,142803,1,8,0:0:0:0:
156,105,142959,1,8,0:0:0:0:
430,139,143116,6,0,P|448:96|421:20,1,128,12|0,0:0|0:0,0:0:0:0:
342,3,143584,1,0,0:0:0:0:
239,126,143741,2,0,P|243:160|274:194,1,64,8|0,0:0|0:0,0:0:0:0:
420,222,144053,6,0,P|401:241|368:254,1,32,0|0,0:0|0:0,0:0:0:0:
410,319,144209,2,0,P|388:324|364:321,1,32,0|0,0:0|0:0,0:0:0:0:
317,375,144366,2,0,L|168:366,1,128,0|0,0:0|0:0,0:0:0:0:
33,255,144834,1,0,0:0:0:0:
33,255,144991,2,0,L|182:246,1,128,8|0,0:0|0:0,0:0:0:0:
237,283,145459,1,0,0:0:0:0:
200,70,145616,6,0,P|141:59|84:103,1,128,4|0,0:0|0:0,0:0:0:0:
159,140,146084,1,0,0:0:0:0:
285,51,146241,1,8,0:0:0:0:
285,51,146397,1,0,0:0:0:0:
216,209,146553,2,0,L|201:289,1,64,0|0,0:0|0:0,0:0:0:0:
395,354,146866,6,0,P|386:288|326:255,1,128,0|0,0:0|0:0,0:0:0:0:
306,111,147334,1,0,0:0:0:0:
306,111,147491,2,0,L|443:100,1,128,8|0,0:0|0:0,0:0:0:0:
507,157,147959,1,0,0:0:0:0:
455,16,148116,5,4,0:0:0:0:
455,16,148428,1,0,0:0:0:0:
420,189,148584,1,0,0:0:0:0:
309,115,148741,2,0,L|316:189,1,64,8|0,0:0|0:0,0:0:0:0:
327,270,149053,1,0,0:0:0:0:
327,270,149209,1,0,0:0:0:0:
194,167,149366,6,0,L|61:155,1,128,0|0,0:0|0:0,0:0:0:0:
11,306,149991,2,0,L|144:294,1,128,8|0,0:0|0:0,0:0:0:0:
392,354,150616,6,0,P|350:342|316:348,1,64,8|4,0:3|0:0,0:0:0:0:
212,331,150928,2,0,P|234:308|273:290,1,64,0|0,0:0|0:0,0:0:0:0:
435,270,151241,2,0,P|404:245|366:234,1,64,8|0,0:0|0:0,0:0:0:0:
267,179,151553,2,0,P|302:168|357:176,1,64,0|0,0:0|0:0,0:0:0:0:
481,46,151866,6,0,P|455:67|397:79,1,64,4|8,0:0|0:0,0:0:0:0:
211,57,152178,1,8,0:0:0:0:
261,164,152334,1,8,0:0:0:0:
309,8,152491,2,0,L|320:72,1,64,8|8,0:0|0:0,0:0:0:0:
152,210,152803,2,0,L|162:147,1,64,8|8,0:0|0:0,0:0:0:0:
379,179,153116,5,4,0:0:0:0:
379,179,153272,1,0,0:0:0:0:
379,179,153428,1,0,0:0:0:0:
379,179,153584,1,0,0:0:0:0:
453,264,153741,1,8,0:0:0:0:
366,284,153897,1,0,0:0:0:0:
383,370,154053,1,0,0:0:0:0:
470,350,154209,1,0,0:0:0:0:
287,340,154366,5,0,0:0:0:0:
277,337,154522,1,0,0:0:0:0:
267,335,154678,1,0,0:0:0:0:
257,332,154834,1,0,0:0:0:0:
63,279,154991,1,8,0:0:0:0:
80,356,155147,1,0,0:0:0:0:
161,334,155303,1,0,0:0:0:0:
143,262,155459,1,0,0:0:0:0:
44,186,155616,5,4,0:0:0:0:
46,176,155772,1,0,0:0:0:0:
48,166,155928,1,0,0:0:0:0:
50,156,156084,1,0,0:0:0:0:
155,98,156241,1,8,0:0:0:0:
77,69,156397,1,0,0:0:0:0:
236,46,156553,1,0,0:0:0:0:
158,17,156709,1,0,0:0:0:0:
427,94,156866,5,0,0:0:0:0:
321,171,157022,1,0,0:0:0:0:
442,219,157178,1,0,0:0:0:0:
230,276,157334,5,0,0:0:0:0:
355,261,157490,1,8,0:0:0:0:
307,382,157646,1,0,0:0:0:0:
178,187,157803,5,0,0:0:0:0:
137,338,157959,1,0,0:0:0:0:
17,215,158116,6,0,P|55:239|96:246,1,64,4|0,0:0|0:0,0:0:0:0:
75,95,158428,2,0,P|71:138|85:175,1,64,0|0,0:0|0:0,0:0:0:0:
1,58,158741,2,0,L|143:41,1,128,8|0,0:0|0:0,0:0:0:0:
209,27,159209,1,0,0:0:0:0:
323,110,159366,5,0,0:0:0:0:
331,111,159522,1,0,0:0:0:0:
340,112,159678,1,0,0:0:0:0:
349,114,159834,1,0,0:0:0:0:
445,73,159991,1,8,0:0:0:0:
454,155,160147,1,0,0:0:0:0:
414,231,160303,1,0,0:0:0:0:
423,313,160459,1,0,0:0:0:0:
279,273,160616,6,0,P|252:314|255:339,1,64,4|0,0:0|0:0,0:0:0:0:
160,290,160928,2,0,P|167:347|183:369,1,64,0|0,0:0|0:0,0:0:0:0:
217,206,161241,2,0,L|61:221,1,128,8|0,0:0|0:0,0:0:0:0:
21,271,161709,1,0,0:0:0:0:
140,4,161866,5,0,0:0:0:0:
166,129,162022,1,0,0:0:0:0:
257,40,162178,1,0,0:0:0:0:
43,92,162334,1,0,0:0:0:0:
374,4,162491,5,8,0:0:0:0:
348,129,162647,1,0,0:0:0:0:
257,40,162803,1,8,0:0:0:0:
471,92,162959,1,0,0:0:0:0:
283,209,163116,5,4,0:0:0:0:
286,220,163272,1,0,0:0:0:0:
288,231,163428,1,0,0:0:0:0:
291,242,163584,1,0,0:0:0:0:
444,352,163741,1,8,0:0:0:0:
474,266,163897,1,0,0:0:0:0:
389,235,164053,1,0,0:0:0:0:
359,321,164209,1,0,0:0:0:0:
229,331,164366,5,8,0:0:0:0:
217,333,164522,1,8,0:0:0:0:
205,334,164678,1,0,0:0:0:0:
193,336,164834,1,0,0:0:0:0:
102,260,164991,1,8,0:0:0:0:
11,277,165147,1,0,0:0:0:0:
116,176,165303,1,0,0:0:0:0:
25,193,165459,1,0,0:0:0:0:
64,62,165616,5,4,0:0:0:0:
74,62,165772,1,0,0:0:0:0:
85,63,165928,1,0,0:0:0:0:
96,64,166084,1,0,0:0:0:0:
236,95,166241,1,8,0:0:0:0:
200,17,166397,1,0,0:0:0:0:
326,107,166553,1,0,0:0:0:0:
290,29,166709,1,0,0:0:0:0:
400,182,166866,5,0,0:0:0:0:
286,202,167022,1,8,0:0:0:0:
361,284,167178,1,0,0:0:0:0:
145,282,167334,5,0,0:0:0:0:
259,302,167490,1,8,0:0:0:0:
184,384,167646,1,0,0:0:0:0:
286,202,167803,5,0,0:0:0:0:
321,378,167959,1,0,0:0:0:0:
146,278,168116,6,0,P|155:234|183:199,1,80,4|0,0:0|0:0,0:0:0:0:
85,358,168428,2,0,P|62:315|63:268,1,80,0|0,0:0|0:0,0:0:0:0:
311,305,168741,2,0,L|139:290,1,160,8|0,0:0|0:0,0:0:0:0:
76,197,169209,1,0,0:0:0:0:
198,129,169366,5,0,0:0:0:0:
195,119,169522,1,0,0:0:0:0:
192,108,169678,1,0,0:0:0:0:
189,97,169834,1,0,0:0:0:0:
44,73,169991,1,8,0:0:0:0:
121,46,170147,1,0,0:0:0:0:
268,56,170303,1,0,0:0:0:0:
345,29,170459,1,0,0:0:0:0:
401,143,170616,5,4,0:0:0:0:
397,154,170772,1,0,0:0:0:0:
393,165,170928,1,0,0:0:0:0:
389,176,171084,1,0,0:0:0:0:
286,306,171241,1,8,0:0:0:0:
325,383,171397,1,0,0:0:0:0:
405,344,171553,1,0,0:0:0:0:
366,267,171709,1,0,0:0:0:0:
142,278,171866,5,0,0:0:0:0:
168,184,172022,1,0,0:0:0:0:
82,360,172178,1,8,0:0:0:0:
39,237,172334,1,8,0:0:0:0:
256,292,172491,5,8,0:0:0:0:
142,278,172647,1,8,0:0:0:0:
301,179,172803,1,8,0:0:0:0:
335,367,172959,1,8,0:0:0:0:
274,71,173116,6,0,P|350:39|458:119,1,223.999993164063,4|0,0:0|0:0,0:0:0:0:
258,261,174366,2,0,B|218:218|218:218|31:249,2,223.999993164063,0|0|8,0:0|0:0|0:0,0:0:0:0:
449,334,175772,1,8,0:3:0:0:
430,345,175850,1,0,0:3:0:0:
408,349,175928,1,0,0:0:0:0:
385,345,176006,1,8,0:3:0:0:
362,335,176084,2,0,L|349:276,1,40,0|0,0:0|0:0,0:0:0:0:
426,190,176241,5,4,0:2:0:0:
437,171,176319,1,8,0:3:0:0:
441,149,176397,1,0,0:0:0:0:
437,126,176475,1,0,0:0:0:0:
427,103,176553,2,0,L|368:90,1,40,8|0,0:3|0:0,0:0:0:0:
253,215,176709,5,0,0:0:0:0:
272,226,176787,1,0,0:0:0:0:
294,230,176865,1,0,0:0:0:0:
317,226,176943,1,0,0:0:0:0:
340,216,177021,2,0,L|353:157,1,40,8|0,0:3|0:0,0:0:0:0:
235,35,177178,5,0,0:0:0:0:
224,54,177256,1,0,0:0:0:0:
220,76,177334,1,0,0:0:0:0:
224,99,177412,1,0,0:0:0:0:
234,122,177490,6,0,L|293:135,1,40,0|0,0:0|0:0,0:0:0:0:
390,55,177647,2,0,L|323:58,1,40,0|0,0:0|0:0,0:0:0:0:
234,135,177803,6,0,L|293:148,1,40,0|0,0:0|0:0,0:0:0:0:
392,43,177960,2,0,L|325:46,1,40,0|0,0:0|0:0,0:0:0:0:
133,120,178116,6,0,B|98:151|76:208|108:254|108:254|161:267|201:235|201:235|191:215|162:202,1,287.999991210938,4|0,0:0|0:0,0:0:0:0:
14,191,178741,2,0,P|16:238|50:305,1,95.9999970703126,8|0,0:0|0:0,0:0:0:0:
105,340,179053,1,0,0:0:0:0:
293,246,179209,6,0,B|346:238|368:205|368:205|313:220|256:182,1,191.999994140625,4|0,0:0|0:0,0:0:0:0:
448,56,179678,2,0,P|448:125|420:175,1,95.9999970703126,0|0,0:0|0:0,0:0:0:0:
293,20,179991,2,0,P|340:50|359:98,1,95.9999970703126,8|0,0:0|0:0,0:0:0:0:
186,231,180303,5,0,0:0:0:0:
176,203,180381,1,0,0:0:0:0:
173,174,180459,1,0,0:0:0:0:
183,147,180537,1,0,0:0:0:0:
204,127,180616,6,0,B|223:105|248:99|270:112|270:112|263:187|144:215|94:141,1,287.999991210938,4|0,0:0|0:0,0:0:0:0:
293,20,181241,2,0,P|340:50|359:98,1,95.9999970703126,8|0,0:0|0:0,0:0:0:0:
194,27,181553,1,0,0:0:0:0:
348,178,181709,6,0,B|405:178|436:134|436:134|488:172|470:239,1,191.999994140625,4|0,0:0|0:0,0:0:0:0:
360,361,182178,2,0,P|346:310|369:263,1,95.9999970703126,0|0,0:0|0:0,0:0:0:0:
468,321,182491,1,8,0:0:0:0:
468,321,182647,1,0,0:0:0:0:
276,236,182803,2,0,L|171:248,1,95.9999970703126,0|0,0:0|0:0,0:0:0:0:
1,326,183116,6,0,B|15:341|21:372|21:372|74:386|130:357|131:319|131:319|101:296|80:263|102:201,1,287.999991210938,4|0,0:0|0:0,0:0:0:0:
271,150,183741,2,0,B|159:164|159:164|109:122,1,143.999995605469,8|0,0:0|0:0,0:0:0:0:
122,124,184053,1,0,0:0:0:0:
411,216,184209,6,0,P|297:210|270:145,1,191.999994140625,4|0,0:0|0:0,0:0:0:0:
448,136,184678,2,0,P|493:184|493:240,1,95.9999970703126,0|0,0:0|0:0,0:0:0:0:
357,146,184991,2,0,P|419:50|488:59,1,191.999994140625,8|0,0:0|0:0,0:0:0:0:
448,136,185459,1,0,0:0:0:0:
236,44,185616,6,0,B|198:39|198:39|169:22|169:22|132:53|85:59|44:45|44:45|11:87|49:147,1,287.999991210938,4|0,0:0|0:0,0:0:0:0:
125,304,186241,2,0,P|58:339|10:323,1,95.9999970703126,8|0,0:0|0:0,0:0:0:0:
212,345,186553,1,0,0:0:0:0:
55,237,186709,2,0,B|86:200|140:194|184:228|184:228|178:171|201:159,1,191.999994140625,4|0,0:0|0:0,0:0:0:0:
205,158,187100,1,0,0:0:0:0:
232,149,187178,1,0,0:0:0:0:
343,266,187334,1,0,0:0:0:0:
370,272,187412,1,0,0:0:0:0:
398,268,187491,1,8,0:0:0:0:
402,53,187647,5,8,0:0:0:0:
356,172,187803,1,8,0:0:0:0:
481,156,187959,1,8,0:0:0:0:
277,92,188116,6,0,B|263:59|236:44|236:44|193:84|172:142|202:205|202:205|234:185|262:192,1,287.999991210938,4|0,0:0|0:0,0:0:0:0:
402,347,188741,2,0,P|330:354|298:322,1,95.9999970703126,8|0,0:0|0:0,0:0:0:0:
462,260,189053,1,0,0:0:0:0:
224,343,189209,6,0,B|228:295|265:270|265:270|195:280|169:344,1,191.999994140625,4|0,0:0|0:0,0:0:0:0:
52,257,189678,2,0,P|42:213|56:162,1,95.9999970703126,0|0,0:0|0:0,0:0:0:0:
79,379,189991,2,0,P|31:364|-3:316,1,95.9999970703126,8|0,0:0|0:0,0:0:0:0:
140,212,190303,1,0,0:0:0:0:
168,207,190381,1,0,0:0:0:0:
191,190,190459,1,0,0:0:0:0:
202,163,190537,1,0,0:0:0:0:
198,134,190616,6,0,B|174:98|130:98|130:98|213:102|270:60|270:60|261:96|280:130,1,287.999991210938,4|0,0:0|0:0,0:0:0:0:
447,97,191241,2,0,L|351:83,1,95.9999970703126,8|0,0:0|0:0,0:0:0:0:
285,208,191553,1,0,0:0:0:0:
449,196,191709,6,0,B|494:204|506:226|506:226|513:284|472:325|444:327,1,191.999994140625,4|0,0:0|0:0,0:0:0:0:
298,350,192178,2,0,P|248:324|186:322,1,95.9999970703126,0|0,0:0|0:0,0:0:0:0:
24,374,192491,1,8,0:0:0:0:
24,374,192647,1,0,0:0:0:0:
106,278,192803,2,0,L|115:168,1,95.9999970703126,0|0,0:0|0:0,0:0:0:0:
176,20,193116,6,0,B|226:27|247:66|247:66|203:132|94:107|85:21,1,287.999991210938,4|0,0:0|0:0,0:0:0:0:
0,147,193741,2,0,L|12:275,1,95.9999970703126,8|0,0:0|0:0,0:0:0:0:
67,340,194053,1,0,0:0:0:0:
221,215,194209,6,0,B|227:164|177:132|177:132|111:180|121:269|200:315,1,287.999991210938,4|0,0:0|0:0,0:0:0:0:
362,315,194834,2,0,B|319:292|269:303|269:303|262:356|220:374,1,160,8|0,0:0|0:0,0:0:0:0:
71,313,195303,2,0,P|100:363|129:378,1,80,8|0,0:0|0:0,0:0:0:0:
243,209,195616,6,0,P|334:202|412:234,1,160,4|0,0:0|0:0,0:0:0:0:
436,328,196084,1,0,0:0:0:0:
490,176,196241,2,0,L|496:62,1,80,8|0,0:0|0:0,0:0:0:0:
356,19,196553,1,0,0:0:0:0:
379,128,196709,1,0,0:0:0:0:
249,35,196866,5,4,0:0:0:0:
225,35,196944,1,0,0:0:0:0:
201,37,197022,1,0,0:0:0:0:
177,39,197100,1,0,0:0:0:0:
153,40,197178,1,8,0:0:0:0:
61,100,197334,1,8,0:0:0:0:
169,136,197491,1,8,0:0:0:0:
0,172,197647,1,8,0:0:0:0:
189,224,197803,2,0,P|228:208|250:168,1,80,8|8,0:0|0:0,0:0:0:0:
74,284,198116,6,0,P|121:319|166:319,1,80,4|0,0:0|0:0,0:0:0:0:
339,286,198428,2,0,P|366:257|421:241,1,80,0|0,0:0|0:0,0:0:0:0:
263,353,198741,2,0,P|244:307|246:246,1,80,8|0,0:0|0:0,0:0:0:0:
491,290,199053,2,0,P|486:340|459:388,1,80,0|0,0:0|0:0,0:0:0:0:
327,180,199366,6,0,L|334:57,1,120,4|0,0:0|0:0,0:0:0:0:
351,43,199678,2,0,P|397:36|438:48,1,80,0|0,0:0|0:0,0:0:0:0:
238,125,199991,2,0,L|128:112,1,80,8|0,0:0|0:0,0:0:0:0:
13,75,200303,2,0,P|71:59|104:24,1,80,0|0,0:0|0:0,0:0:0:0:
112,191,200616,6,0,B|130:290|130:290|114:328,1,120,4|0,0:0|0:0,0:0:0:0:
97,326,200928,2,0,P|47:324|25:280,1,80
192,193,201241,2,0,P|220:166|259:170,1,80,8|0,0:0|0:0,0:0:0:0:
407,347,201553,2,0,P|357:345|335:301,1,80,0|0,0:0|0:0,0:0:0:0:
512,154,201866,5,8,0:3:0:0:
487,268,202022,1,8,0:3:0:0:
398,118,202178,2,0,L|410:19,1,80,0|0,0:0|0:0,0:0:0:0:
286,159,202491,2,0,L|299:270,1,80,8|0,0:0|0:0,0:0:0:0:
186,82,202803,2,0,P|116:70|76:100,1,120,0|0,0:0|0:0,0:0:0:0:
45,181,203116,6,0,B|71:263|71:263|56:318,1,120,4|0,0:0|0:0,0:0:0:0:
54,317,203428,2,0,P|87:351|137:349,1,80,0|0,0:0|0:0,0:0:0:0:
109,144,203741,2,0,P|63:155|39:199,1,80,8|0,0:0|0:0,0:0:0:0:
226,288,204053,2,0,P|238:242|212:200,1,80,0|0,0:0|0:0,0:0:0:0:
120,354,204366,6,0,B|239:373|239:373|285:354,1,160,4|0,0:0|0:0,0:0:0:0:
286,362,204756,1,0,0:0:0:0:
296,368,204834,1,0,0:0:0:0:
348,234,204991,2,0,L|334:132,1,80,8|0,0:0|0:0,0:0:0:0:
463,258,205303,2,0,L|449:353,1,80,0|0,0:0|0:0,0:0:0:0:
274,102,205616,6,0,P|333:76|374:85,1,80,0|0,0:0|0:0,0:0:0:0:
425,138,205928,1,0,0:0:0:0:
342,261,206084,1,0,0:0:0:0:
330,259,206162,1,0,0:0:0:0:
317,257,206241,2,0,L|226:250,1,80,8|8,0:3|0:3,0:0:0:0:
114,191,206553,1,8,0:3:0:0:
114,191,206709,1,8,0:3:0:0:
146,315,206866,5,8,0:3:0:0:
127,322,206944,1,8,0:3:0:0:
107,326,207022,1,8,0:3:0:0:
87,323,207100,1,8,0:3:0:0:
69,313,207178,2,0,L|52:250,1,40,0|0,0:0|0:0,0:0:0:0:
136,180,207334,1,0,0:0:0:0:
136,180,207412,1,0,0:0:0:0:
136,180,207491,2,0,L|142:118,1,40,0|0,0:0|0:0,0:0:0:0:
45,38,207647,2,0,L|53:94,1,40,0|0,0:0|0:0,0:0:0:0:
219,164,207803,2,0,L|225:102,1,40,0|0,0:0|0:0,0:0:0:0:
128,22,207959,2,0,L|136:78,1,40,0|0,0:0|0:0,0:0:0:0:
304,158,208116,6,0,P|330:108|415:109,1,120,4|0,0:0|0:0,0:0:0:0:
406,105,208428,2,0,P|399:148|420:188,1,80,0|0,0:0|0:0,0:0:0:0:
330,347,208741,2,0,P|344:310|337:271,1,80,8|0,0:0|0:0,0:0:0:0:
147,224,209053,2,0,L|240:214,1,80,0|0,0:0|0:0,0:0:0:0:
215,371,209366,6,0,L|46:359,1,160,4|0,0:0|0:0,0:0:0:0:
44,354,209756,1,0,0:0:0:0:
33,348,209834,1,0,0:0:0:0:
69,210,209991,2,0,B|73:188|83:174|83:174|68:154|62:121,1,80,8|0,0:0|0:0,0:0:0:0:
151,11,210303,2,0,B|148:27|133:47|133:47|143:61|147:83,1,80,0|0,0:0|0:0,0:0:0:0:
202,241,210616,6,0,P|266:248|307:202,1,120,4|0,0:0|0:0,0:0:0:0:
297,192,210928,2,0,P|280:160|285:108,1,80,0|0,0:0|0:0,0:0:0:0:
467,176,211241,2,0,P|447:206|400:228,1,80,8|0,0:0|0:0,0:0:0:0:
366,44,211553,2,0,P|402:45|444:75,1,80,0|0,0:0|0:0,0:0:0:0:
380,142,211866,5,8,0:3:0:0:
380,142,212022,1,8,0:3:0:0:
341,294,212178,2,0,P|360:324|407:346,1,80,0|0,0:0|0:0,0:0:0:0:
247,337,212491,2,0,L|138:348,1,80,8|0,0:0|0:0,0:0:0:0:
20,248,212803,2,0,L|135:254,1,80,0|0,0:0|0:0,0:0:0:0:
271,224,213116,6,0,P|293:153|257:104,1,120,4|0,0:0|0:0,0:0:0:0:
252,115,213428,2,0,P|188:102|171:68,1,80,0|0,0:0|0:0,0:0:0:0:
48,59,213741,2,0,P|68:120|47:152,1,80,8|0,0:0|0:0,0:0:0:0:
104,254,214053,2,0,P|147:205|185:207,1,80,0|0,0:0|0:0,0:0:0:0:
319,313,214366,6,0,B|360:334|360:334|455:314,1,120,4|0,0:0|0:0,0:0:0:0:
443,302,214678,2,0,B|453:272|453:272|429:213,1,80,0|0,0:0|0:0,0:0:0:0:
280,154,214991,2,0,B|300:177|300:177|364:186,1,80,8|0,0:0|0:0,0:0:0:0:
486,88,215303,2,0,B|455:94|455:94|415:144,1,80,0|0,0:0|0:0,0:0:0:0:
203,113,215616,5,8,0:3:0:0:
219,85,215694,1,8,0:3:0:0:
247,70,215772,1,8,0:3:0:0:
278,68,215850,1,8,0:3:0:0:
310,91,215928,5,0,0:0:0:0:
310,91,216006,1,0,0:0:0:0:
310,91,216084,1,0,0:0:0:0:
310,91,216162,1,0,0:0:0:0:
310,91,216241,2,0,L|312:32,1,40,8|8,0:3|0:3,0:0:0:0:
185,12,216397,2,0,L|191:73,1,40,8|8,0:3|0:3,0:0:0:0:
127,137,216553,1,0,0:0:0:0:
99,120,216631,1,0,0:0:0:0:
67,118,216709,1,0,0:0:0:0:
38,132,216787,1,0,0:0:0:0:
16,155,216866,6,0,L|21:227,1,40,0|0,0:0|0:0,0:0:0:0:
30,301,217022,2,0,L|35:373,1,40,8|0,0:3|0:0,0:0:0:0:
303,359,217178,2,0,L|305:319,1,40,0|0,0:0|0:0,0:0:0:0:
317,213,217334,2,0,L|319:173,1,40,0|0,0:0|0:0,0:0:0:0:
102,206,217491,6,0,L|108:271,1,40,0|0,0:0|0:0,0:0:0:0:
223,308,217647,2,0,L|231:250,1,40,0|0,0:0|0:0,0:0:0:0:
113,204,217803,2,0,L|119:269,1,40,0|0,0:0|0:0,0:0:0:0:
207,305,217959,2,0,L|215:247,1,40,0|0,0:0|0:0,0:0:0:0:
159,73,218116,6,0,B|154:41|166:7|200:-1|200:-1|264:19|278:136|203:181,1,287.999991210938,4|0,0:0|0:0,0:0:0:0:
21,104,218741,2,0,P|23:63|66:9,1,95.9999970703126,8|0,0:0|0:0,0:0:0:0:
159,73,219053,1,0,0:0:0:0:
63,209,219209,6,0,B|22:266|42:327|42:327|64:281|105:263,1,191.999994140625,4|0,0:0|0:0,0:0:0:0:
241,257,219678,2,0,P|211:224|137:223,1,95.9999970703126,0|0,0:0|0:0,0:0:0:0:
328,308,219991,2,0,P|337:257|306:201,1,95.9999970703126,8|0,0:0|0:0,0:0:0:0:
166,320,220303,1,0,0:0:0:0:
190,349,220381,1,0,0:0:0:0:
225,364,220459,1,0,0:0:0:0:
263,359,220537,1,0,0:0:0:0:
299,344,220616,6,0,B|352:329|394:368|394:368|431:337|441:264|426:214|426:214|384:224|373:211,1,287.999991210938,4|0,0:0|0:0,0:0:0:0:
325,33,221241,2,0,P|385:33|440:75,1,95.9999970703126,8|0,0:0|0:0,0:0:0:0:
442,133,221553,1,0,0:0:0:0:
253,110,221709,6,0,B|214:70|219:24|219:24|180:67|112:51,1,191.999994140625,4|0,0:0|0:0,0:0:0:0:
0,165,222178,2,0,P|45:161|109:199,1,95.9999970703126,0|0,0:0|0:0,0:0:0:0:
186,358,222491,1,8,0:0:0:0:
224,207,222647,1,0,0:0:0:0:
42,364,222803,2,0,L|30:255,1,95.9999970703126,0|0,0:0|0:0,0:0:0:0:
276,283,223116,6,0,B|300:272|316:247|318:218|318:218|350:192|423:205|452:246|452:246|451:295|403:319,1,287.999991210938,4|0,0:0|0:0,0:0:0:0:
199,348,223741,2,0,P|172:310|179:245,1,95.9999970703126,8|0,0:0|0:0,0:0:0:0:
333,367,224053,1,0,0:0:0:0:
205,175,224209,6,0,B|149:154|106:192|106:192|49:168|71:92,1,191.999994140625,4|0,0:0|0:0,0:0:0:0:
292,157,224678,2,0,P|292:200|246:249,1,95.9999970703126,0|0,0:0|0:0,0:0:0:0:
227,60,224991,2,0,B|283:81|326:43|326:43|383:67|361:143,1,191.999994140625,8|0,0:0|0:0,0:0:0:0:
205,175,225459,1,0,0:0:0:0:
468,349,225616,6,0,B|497:316|506:225|470:193|470:193|420:166|383:197|383:197|401:204|420:227,1,287.999991210938,4|0,0:0|0:0,0:0:0:0:
459,102,226241,2,0,P|410:98|346:125,1,95.9999970703126,8|0,0:0|0:0,0:0:0:0:
343,277,226553,2,0,L|349:337,1,47.9999985351563,0|0,0:0|0:0,0:0:0:0:
203,370,226709,6,0,L|209:180,1,160,4|0,0:0|0:0,0:0:0:0:
204,196,227100,1,0,0:0:0:0:
200,181,227178,1,0,0:0:0:0:
26,154,227334,1,0,0:0:0:0:
19,168,227412,1,0,0:0:0:0:
13,181,227491,2,0,L|23:285,1,95.9999970703126,8|8,0:0|0:0,0:0:0:0:
119,102,227803,2,0,P|124:53|72:10,1,95.9999970703126,8|8,0:0|0:0,0:0:0:0:
200,181,228116,6,0,B|263:173|263:173|300:181|300:181|324:163|324:163|401:151|401:151|436:180|424:248,1,287.999991210938,4|0,0:0|0:0,0:0:0:0:
475,101,228741,2,0,P|488:50|456:1,1,95.9999970703126,8|0,0:0|0:0,0:0:0:0:
382,4,229053,1,0,0:0:0:0:
354,271,229209,6,0,B|384:309|435:312|435:312|353:331|298:300,1,191.999994140625,4|0,0:0|0:0,0:0:0:0:
170,246,229678,2,0,P|114:277|99:326,1,95.9999970703126,0|0,0:0|0:0,0:0:0:0:
21,251,229991,2,0,P|10:331|35:379,1,95.9999970703126,8|0,0:0|0:0,0:0:0:0:
225,377,230303,1,0,0:0:0:0:
248,346,230381,1,0,0:0:0:0:
254,308,230459,1,0,0:0:0:0:
247,270,230537,1,0,0:0:0:0:
229,235,230616,6,0,B|204:191|216:123|272:99|272:99|356:117|356:117|341:104|320:58,1,287.999991210938,4|0,0:0|0:0,0:0:0:0:
222,26,231241,2,0,L|104:37,1,95.9999970703126,8|0,0:0|0:0,0:0:0:0:
83,103,231553,1,0,0:0:0:0:
306,189,231709,6,0,B|442:218|442:218|501:154,1,191.999994140625,4|0,0:0|0:0,0:0:0:0:
422,17,232178,2,0,L|438:113,1,95.9999970703126,0|0,0:0|0:0,0:0:0:0:
433,374,232491,2,0,P|420:316|367:282,1,95.9999970703126,8|0,0:0|0:0,0:0:0:0:
173,280,232803,1,0,0:0:0:0:
252,212,232959,1,0,0:0:0:0:
125,377,233116,6,0,B|73:384|39:333|39:333|72:286|57:232|57:232|109:218|118:166,1,287.999991210938,4|0,0:0|0:0,0:0:0:0:
42,15,233741,2,0,B|7:43|5:110|33:145|33:145|53:106|95:99,1,191.999994140625,8|0,0:0|0:0,0:0:0:0:
257,79,234209,2,0,B|125:37|125:37|165:77|164:124,1,191.999994140625,4|0,0:0|0:0,0:0:0:0:
208,162,234678,1,0,0:0:0:0:
342,36,234834,6,0,B|370:6|417:3|452:35|452:35|434:95|434:95|448:148|448:148|430:198,1,287.999991210938,8|8,0:0|0:0,0:0:0:0:
473,273,235459,1,0,0:0:0:0:
349,147,235616,6,0,B|331:198|331:198|339:247|339:247|305:295|305:295|325:344|369:361|424:333,1,287.999991210938,4|0,0:0|0:0,0:0:0:0:
241,226,236241,2,0,P|179:226|138:263,1,95.9999970703126,8|0,0:0|0:0,0:0:0:0:
64,355,236553,1,8,0:3:0:0:
64,355,236631,1,0,0:0:0:0:
64,355,236709,2,0,L|50:300,1,47.9999985351563,8|8,0:3|0:3,0:0:0:0:
100,186,236866,1,0,0:0:0:0:
100,186,236944,1,0,0:0:0:0:
100,186,237022,2,0,L|114:131,1,47.9999985351563,0|0,0:0|0:0,0:0:0:0:
71,16,237178,1,0,0:0:0:0:
62,19,237256,1,0,0:0:0:0:
52,22,237334,1,8,0:3:0:0:
44,27,237412,1,0,0:0:0:0:
34,44,237491,5,0,0:0:0:0:
64,29,237569,1,0,0:0:0:0:
96,22,237647,1,0,0:0:0:0:
129,24,237725,1,0,0:0:0:0:
148,55,237803,5,0,0:0:0:0:
184,85,237881,1,0,0:0:0:0:
230,96,237959,1,0,0:0:0:0:
278,83,238037,1,0,0:0:0:0:
306,39,238116,6,0,B|354:2|446:20|475:76|475:76|448:126|377:109,1,287.999991210938,4|0,0:0|0:0,0:0:0:0:
372,225,238741,2,0,P|431:218|469:195,1,95.9999970703126,8|0,0:0|0:0,0:0:0:0:
393,110,239053,1,0,0:0:0:0:
286,287,239209,6,0,B|315:324|370:330|370:330|302:348|258:329,1,191.999994140625,4|0,0:0|0:0,0:0:0:0:
29,246,239678,2,0,P|83:277|130:269,1,95.9999970703126,0|0,0:0|0:0,0:0:0:0:
92,370,239991,2,0,P|154:360|189:321,1,95.9999970703126,8|0,0:0|0:0,0:0:0:0:
171,118,240303,1,0,0:0:0:0:
156,153,240381,1,0,0:0:0:0:
167,189,240459,1,0,0:0:0:0:
196,213,240537,1,0,0:0:0:0:
234,213,240616,6,0,P|299:215|333:234,1,95.9999970703126,4|0,0:0|0:0,0:0:0:0:
478,125,240928,2,0,L|372:140,1,95.9999970703126
218,80,241241,2,0,P|283:72|310:41,1,95.9999970703126,8|0,0:0|0:0,0:0:0:0:
237,0,241553,1,0,0:0:0:0:
383,138,241709,6,0,B|378:194|378:194|380:213|380:213|370:239|370:239|394:290|359:353,1,191.999994140625,4|0,0:0|0:0,0:0:0:0:
122,230,242178,2,0,P|119:191|150:140,1,95.9999970703126,0|0,0:0|0:0,0:0:0:0:
288,283,242491,2,0,L|168:291,1,95.9999970703126,8|0,0:0|0:0,0:0:0:0:
29,254,242803,1,0,0:0:0:0:
73,384,242959,1,0,0:0:0:0:
240,169,243116,6,0,B|253:90|181:51|181:51|259:81|332:21,1,287.999991210938,4|0,0:0|0:0,0:0:0:0:
146,142,243741,2,0,P|74:140|38:98,1,95.9999970703126,8|0,0:0|0:0,0:0:0:0:
181,51,244053,1,0,0:0:0:0:
344,134,244209,1,4,0:0:0:0:
181,235,244366,6,0,L|197:369,1,95.9999970703126,0|0,0:0|0:0,0:0:0:0:
416,267,244678,2,0,L|429:142,1,95.9999970703126,0|0,0:0|0:0,0:0:0:0:
353,339,244991,2,0,P|412:362|465:354,1,95.9999970703126,8|0,0:0|0:0,0:0:0:0:
332,132,245303,2,0,P|284:132|243:156,1,95.9999970703126,0|0,0:0|0:0,0:0:0:0:
53,234,245616,6,0,B|76:295|174:306|218:254|218:254|149:233|144:164,1,287.999991210938,4|0,0:0|0:0,0:0:0:0:
310,223,246241,2,0,L|318:321,1,95.9999970703126,8|0,0:0|0:0,0:0:0:0:
236,149,246553,1,0,0:0:0:0:
417,347,246709,1,0,0:0:0:0:
391,180,246866,5,8,0:3:0:0:
403,172,246944,1,8,0:3:0:0:
416,167,247022,1,8,0:3:0:0:
430,166,247100,1,8,0:3:0:0:
465,151,247178,5,8,0:0:0:0:
446,136,247256,1,0,0:0:0:0:
423,127,247334,1,0,0:0:0:0:
399,126,247412,1,0,0:0:0:0:
378,103,247491,6,0,L|391:34,1,47.9999985351563
255,0,247647,2,0,L|261:73,1,47.9999985351563,0|0,0:0|0:0,0:0:0:0:
203,150,247803,2,0,P|175:127|152:115,1,47.9999985351563,0|0,0:0|0:0,0:0:0:0:
6,79,247959,2,0,P|28:71|52:69,1,47.9999985351563,0|0,0:0|0:0,0:0:0:0:
137,269,248116,6,0,B|94:293|0:267|-11:210|-11:210|43:158|110:202,1,287.999991210938,4|0,0:0|0:0,0:0:0:0:
240,269,248741,2,0,P|216:332|166:365,1,95.9999970703126,8|0,0:0|0:0,0:0:0:0:
192,179,249053,1,0,0:0:0:0:
342,286,249209,6,0,B|397:325|456:298|456:298|398:277|373:230,1,191.999994140625,4|0,0:0|0:0,0:0:0:0:
385,90,249678,2,0,P|441:147|440:193,1,95.9999970703126,0|0,0:0|0:0,0:0:0:0:
258,35,249991,2,0,P|311:8|381:17,1,95.9999970703126,8|0,0:0|0:0,0:0:0:0:
325,188,250303,5,0,0:0:0:0:
288,176,250381,1,0,0:0:0:0:
250,184,250459,1,0,0:0:0:0:
213,173,250537,1,0,0:0:0:0:
174,171,250616,6,0,P|131:211|136:278,1,95.9999970703126,4|0,0:0|0:0,0:0:0:0:
34,177,250928,2,0,L|23:60,1,95.9999970703126,0|0,0:0|0:0,0:0:0:0:
220,257,251241,2,0,L|212:376,1,95.9999970703126,8|0,0:0|0:0,0:0:0:0:
35,299,251553,1,0,0:0:0:0:
174,171,251709,6,0,B|185:32|185:32|145:4|100:40,1,191.999994140625,4|0,0:0|0:0,0:0:0:0:
125,245,252178,2,0,P|175:264|229:241,1,95.9999970703126,0|0,0:0|0:0,0:0:0:0:
302,88,252491,2,0,L|311:195,1,95.9999970703126,8|0,0:0|0:0,0:0:0:0:
464,99,252803,2,0,L|474:5,1,47.9999985351563,0|0,0:0|0:0,0:0:0:0:
376,3,252959,2,0,L|384:77,1,47.9999985351563,0|0,0:0|0:0,0:0:0:0:
406,199,253116,6,0,B|440:242|485:243|485:243|499:322|438:367|438:367|414:330|360:326,1,287.999991210938,4|0,0:0|0:0,0:0:0:0:
223,335,253741,2,0,P|281:304|327:312,1,95.9999970703126,8|0,0:0|0:0,0:0:0:0:
396,333,254053,1,0,0:0:0:0:
205,240,254209,6,0,B|55:253|55:253|29:285|56:322,1,191.999994140625,4|0,0:0|0:0,0:0:0:0:
124,354,254678,1,0,0:0:0:0:
158,151,254834,2,0,L|40:143,1,95.9999970703126,0|8,0:0|0:0,0:0:0:0:
47,146,255069,1,0,0:0:0:0:
32,148,255147,1,0,0:0:0:0:
207,69,255303,2,0,P|255:127|245:187,1,95.9999970703126,0|0,0:0|0:0,0:0:0:0:
321,346,255616,6,0,B|283:301|305:236|305:236|366:197|354:119|354:119|380:117|401:105,1,287.999991210938,4|0,0:0|0:0,0:0:0:0:
490,280,256241,2,0,P|426:299|371:268,1,95.9999970703126,8|0,0:0|0:0,0:0:0:0:
256,144,256553,1,8,0:0:0:0:
185,345,256709,1,0,0:0:0:0:
46,197,256866,6,0,L|57:88,1,95.9999970703126,4|0,0:0|0:0,0:0:0:0:
185,346,257178,1,8,0:0:0:0:
185,346,257334,1,8,0:0:0:0:
285,292,257491,1,8,0:0:0:0:
203,225,257647,1,8,0:0:0:0:
100,249,257803,1,8,0:0:0:0:
57,345,257959,1,8,0:0:0:0:
285,292,258116,6,0,L|294:57,1,223.999993164063,4|0,0:0|0:0,0:0:0:0:
293,68,259366,5,0,0:0:0:0:
376,103,259522,1,0,0:0:0:0:
210,129,259678,2,0,B|198:150|190:150|190:150|199:161|202:182,1,55.9999982910157,0|0,0:0|0:0,0:0:0:0:
374,227,259991,2,0,B|386:248|394:248|394:248|385:259|382:280,1,55.9999982910157,0|0,0:0|0:0,0:0:0:0:
175,318,260303,2,0,B|163:339|155:339|155:339|164:350|167:371,1,55.9999982910157,0|0,0:0|0:0,0:0:0:0:
287,371,260616,6,0,L|271:248,1,111.999996582031,0|0,0:0|0:0,0:0:0:0:
67,204,261241,2,0,L|71:176,3,27.9999991455078
155,124,261866,2,0,L|159:96,3,27.9999991455078
243,44,262491,2,0,L|251:-10,3,27.9999991455078,0|0|0|0,0:0|0:0|0:0|0:0,0:0:0:0:
243,44,262803,2,0,P|288:72|331:55,1,83.9999974365235,0|0,0:0|0:0,0:0:0:0:
333,49,263116,5,0,0:0:0:0:
