osu file format v14

[General]
AudioFilename: audio.mp3
AudioLeadIn: 0
PreviewTime: 177182
Countdown: 0
SampleSet: None
StackLeniency: 0.4
Mode: 0
LetterboxInBreaks: 0
WidescreenStoryboard: 0

[Editor]
Bookmarks: 16635,24604,34448,53198,63198,211010,220698
DistanceSpacing: 1.5
BeatDivisor: 8
GridSize: 32
TimelineZoom: 2.4

[Metadata]
Title:Endure The Silence
TitleUnicode:Endure The Silence
Artist:Myrath
ArtistUnicode:Myrath
Creator:LMT
Version:Another
Source:
Tags:Mir BOUYAAA tunisian middle eastern folk progressive metal Xtazy legacy ميراث
BeatmapID:1213261
BeatmapSetID:555454

[Difficulty]
HPDrainRate:6
CircleSize:4
OverallDifficulty:8
ApproachRate:8.5
SliderMultiplier:1.2
SliderTickRate:1

[Events]
//Background and Video events
0,0,"arab_drawing.jpg",0,0
//Break Periods
2,43116,49941
//Storyboard Layer 0 (Background)
//Storyboard Layer 1 (Fail)
//Storyboard Layer 2 (Pass)
//Storyboard Layer 3 (Foreground)
//Storyboard Sound Samples

[TimingPoints]
616,625,4,2,0,30,1,0
616,-200,4,2,0,30,0,0
20616,312.5,4,3,2,90,1,0
20616,-100,4,3,2,90,0,0
29991,-66.6666666666667,4,3,2,90,0,0
30303,-100,4,3,2,90,0,0
87334,-100,4,3,2,5,0,0
87491,-80,4,3,2,90,0,0
87647,-80,4,3,2,5,0,0
87803,-66.6666666666667,4,3,2,90,0,0
87959,-66.6666666666667,4,3,2,5,0,0
88116,-100,4,3,2,90,0,1
108116,-100,4,2,0,30,0,0
112959,-100,4,3,2,90,0,0
122491,-66.6666666666667,4,3,2,90,0,0
122803,-100,4,3,2,90,0,0
178116,-100,4,3,2,90,0,1
198116,-100,4,3,2,90,0,0
200655,-100,4,3,2,5,0,0
200694,-100,4,3,2,90,0,0
203155,-100,4,3,2,5,0,0
203194,-100,4,3,2,90,0,0
207491,-66.6666666666667,4,3,2,90,0,0
208116,-100,4,3,2,90,0,0
208155,-100,4,3,2,5,0,0
208194,-100,4,3,2,90,0,0
210655,-100,4,3,2,5,0,0
210694,-100,4,3,2,90,0,0
213155,-100,4,3,2,5,0,0
213194,-100,4,3,2,90,0,0
214405,-100,4,3,2,5,0,0
214444,-100,4,3,2,90,0,0
216866,-66.6666666666667,4,3,2,90,0,0
217491,-100,4,3,2,90,0,0
218116,-100,4,3,2,90,0,1
258116,-100,4,2,0,30,0,0

[Colours]
Combo1 : 141,245,254
Combo2 : 232,249,23
Combo3 : 109,208,245
Combo4 : 255,255,198

[HitObjects]
403,213,616,6,0,L|397:277,1,60,0|0,0:0|0:0,0:0:0:0:
448,339,1553,1,0,0:0:0:0:
369,231,1866,2,0,L|364:291,1,60,0|0,0:0|0:0,0:0:0:0:
353,148,2803,1,0,0:0:0:0:
353,148,3428,1,0,0:0:0:0:
236,214,3741,2,0,L|240:259,1,30,0|0,0:0|0:0,0:0:0:0:
305,303,4366,1,0,0:0:0:0:
305,303,4991,2,0,L|296:357,1,30,0|0,0:0|0:0,0:0:0:0:
48,346,5616,6,0,L|31:273,1,60,4|0,0:0|0:0,0:0:0:0:
231,286,6553,1,0,0:0:0:0:
26,367,6866,6,0,L|9:294,1,60,4|0,0:0|0:0,0:0:0:0:
231,286,7803,1,0,0:0:0:0:
13,217,8116,5,0,0:0:0:0:
13,217,8428,2,0,L|5:194,2,15,0|0|0,0:0|0:0|0:0,0:0:0:0:
152,165,9053,2,0,L|160:142,2,15,0|0|0,0:0|0:0|0:0,0:0:0:0:
277,217,9678,2,0,L|300:212,2,15,0|0|0,0:0|0:0|0:0,0:0:0:0:
480,360,10616,6,0,L|472:324,1,30,0|0,0:0|0:0,0:0:0:0:
374,224,11241,1,0,0:0:0:0:
268,258,11553,1,0,0:0:0:0:
162,209,11866,2,0,L|149:274,1,60,0|0,0:0|0:0,0:0:0:0:
77,315,12803,1,0,0:0:0:0:
186,212,13116,2,0,L|173:277,1,60,0|0,0:0|0:0,0:0:0:0:
263,133,14053,1,0,0:0:0:0:
263,133,14678,1,0,0:0:0:0:
431,77,14991,2,0,L|426:117,1,30,0|0,0:0|0:0,0:0:0:0:
416,237,15616,6,0,L|428:295,1,60,4|0,0:0|0:0,0:0:0:0:
237,240,16553,1,0,0:0:0:0:
454,249,16866,6,0,L|466:307,1,60,4|0,0:0|0:0,0:0:0:0:
237,240,17803,1,0,0:0:0:0:
73,324,18116,6,0,L|70:318,4,5
108,248,18428,1,0,0:0:0:0:
156,313,18584,1,0,0:0:0:0:
55,184,18741,6,0,L|52:178,4,5,0|0|0|0|0,0:0|0:0|0:0|0:0|0:0,0:0:0:0:
90,108,19053,1,0,0:0:0:0:
138,173,19209,1,0,0:0:0:0:
177,98,19366,1,0,0:0:0:0:
217,167,19522,1,0,0:0:0:0:
130,34,19678,6,0,L|124:37,4,5
177,98,19990,1,0,0:0:0:0:
217,167,20147,1,0,0:0:0:0:
258,230,20303,1,0,0:0:0:0:
183,236,20459,1,0,0:0:0:0:
258,97,20616,6,0,P|317:88|389:99,1,120,4|0,0:0|0:0,0:0:0:0:
485,75,21084,2,0,L|495:15,1,60,0|8,0:0|0:0,0:0:0:0:
459,216,21397,1,0,0:0:0:0:
500,98,21553,2,0,L|510:38,1,60,0|0,0:0|0:0,0:0:0:0:
459,216,21866,6,0,P|400:225|328:214,1,120,4|0,0:0|0:0,0:0:0:0:
211,267,22334,1,0,0:0:0:0:
64,232,22491,2,0,L|74:293,1,60,8|0,0:0|0:0,0:0:0:0:
211,267,22803,1,0,0:0:0:0:
64,232,22959,1,0,0:0:0:0:
262,137,23116,6,0,P|321:128|393:139,1,120,4|0,0:0|0:0,0:0:0:0:
460,249,23584,2,0,L|464:305,1,30,0|0,0:0|0:0,0:0:0:0:
471,350,23741,1,8,0:0:0:0:
365,379,23897,1,0,0:0:0:0:
492,269,24053,2,0,L|498:335,1,60,0|0,0:0|0:0,0:0:0:0:
281,338,24366,6,0,P|203:345|160:336,1,120,4|0,0:0|0:0,0:0:0:0:
99,294,24756,1,0,0:0:0:0:
99,294,24834,2,0,L|88:339,1,30,0|0,0:0|0:0,0:0:0:0:
79,217,24991,2,0,L|67:144,1,60,12|0,0:0|0:0,0:0:0:0:
219,200,25303,1,0,0:0:0:0:
79,217,25459,1,0,0:0:0:0:
265,132,25616,6,0,B|301:113|301:113|325:138|387:131,1,120,4|0,0:0|0:0,0:0:0:0:
460,200,26084,2,0,L|463:229,1,30,0|0,0:0|0:0,0:0:0:0:
365,221,26241,2,0,L|356:268,1,30,8|0,0:0|0:0,0:0:0:0:
485,200,26397,2,0,L|488:229,1,30,0|0,0:0|0:0,0:0:0:0:
342,220,26553,2,0,B|343:216|344:224|324:295,1,60,8|0,0:0|0:0,0:0:0:0:
225,331,26866,6,0,B|189:350|189:350|165:325|103:332,1,120,4|0,0:0|0:0,0:0:0:0:
4,275,27334,2,0,L|0:245,1,30,0|0,0:0|0:0,0:0:0:0:
125,242,27491,2,0,L|130:197,1,30,8|0,0:0|0:0,0:0:0:0:
30,263,27647,2,0,L|26:233,1,30,0|0,0:0|0:0,0:0:0:0:
154,249,27803,2,0,B|153:253|151:244|162:173,1,60,8|0,0:0|0:0,0:0:0:0:
264,92,28116,6,0,L|303:87,7,30,4|0|0|0|0|0|0|0,0:0|0:0|0:0|0:0|0:0|0:0|0:0|0:0,0:0:0:0:
394,141,28741,2,0,L|433:146,3,30,8|0|0|0,0:0|0:0|0:0|0:0,0:0:0:0:
316,212,29053,2,0,L|277:217,3,30,0|0|0|0,0:0|0:0|0:0|0:0,0:0:0:0:
401,261,29366,5,8,2:3:0:0:
419,263,29444,1,8,2:3:0:0:
434,273,29522,1,8,2:3:0:0:
443,289,29600,1,8,2:3:0:0:
444,307,29678,2,0,L|447:347,3,30,0|0|0|0,0:0|0:0|0:0|0:0,0:0:0:0:
372,332,29991,6,0,B|329:315|329:315|287:341|255:306|235:325,1,135.000005149841,0|0,0:0|0:0,0:0:0:0:
161,343,30303,6,0,L|152:383,1,30,8|0,0:3|0:0,0:0:0:0:
86,309,30459,2,0,L|56:330,1,30,8|0,0:3|0:0,0:0:0:0:
60,194,30616,6,0,P|116:183|201:204,1,120,4|0,0:0|0:0,0:0:0:0:
266,146,31084,2,0,L|260:74,1,60,0|8,0:0|0:0,0:0:0:0:
349,14,31397,1,0,0:0:0:0:
293,176,31553,2,0,L|287:104,1,60,0|0,0:0|0:0,0:0:0:0:
407,106,31866,6,0,L|406:145,1,30,4|0,0:0|0:0,0:0:0:0:
476,157,32022,2,0,L|462:288,1,120,0|0,0:0|0:0,0:0:0:0:
331,337,32491,2,0,L|323:272,1,60,8|0,0:0|0:0,0:0:0:0:
463,276,32803,1,0,0:0:0:0:
330,336,32959,1,0,0:0:0:0:
290,178,33116,6,0,P|255:171|213:176,1,60,4|0,0:0|0:0,0:0:0:0:
140,267,33428,2,0,P|175:274|217:269,1,60
129,185,33662,1,0,0:0:0:0:
132,174,33741,2,0,L|142:105,1,60,8|0,0:0|0:0,0:0:0:0:
51,221,34053,2,0,L|42:154,1,60,0|0,0:0|0:0,0:0:0:0:
226,73,34366,6,0,P|284:63|343:74,1,120,4|0,0:0|0:0,0:0:0:0:
398,136,34756,1,0,0:0:0:0:
398,136,34834,2,0,L|377:171,1,30,0|0,0:0|0:0,0:0:0:0:
447,210,34991,2,0,L|463:283,1,60,8|0,0:0|0:0,0:0:0:0:
315,259,35303,1,8,0:0:0:0:
447,210,35459,1,0,0:0:0:0:
342,376,35616,6,0,L|315:258,1,120,12|0,0:0|0:0,0:0:0:0:
277,167,36084,1,0,0:0:0:0:
447,210,36241,2,0,L|452:130,1,60,8|0,0:0|0:0,0:0:0:0:
277,167,36553,2,0,L|269:216,1,30,0|0,0:0|0:0,0:0:0:0:
361,137,36709,2,0,L|369:186,1,30,0|0,0:0|0:0,0:0:0:0:
447,210,36866,6,0,L|420:328,1,120,12|0,0:0|0:0,0:0:0:0:
321,319,37334,1,0,0:0:0:0:
256,204,37491,2,0,L|261:175,1,30,8|0,0:0|0:0,0:0:0:0:
353,199,37647,2,0,L|357:170,1,30,0|0,0:0|0:0,0:0:0:0:
447,210,37803,2,0,L|456:146,1,60,8|0,0:0|0:0,0:0:0:0:
272,196,38116,6,0,L|257:122,1,60,4|0,0:0|0:0,0:0:0:0:
143,112,38428,2,0,L|151:144,1,30,0|0,0:0|0:0,0:0:0:0:
61,156,38584,2,0,L|55:192,1,30,0|0,0:0|0:0,0:0:0:0:
171,127,38741,2,0,L|184:191,1,60,12|0,0:0|0:0,0:0:0:0:
177,269,39053,2,0,L|169:301,1,30,0|0,0:0|0:0,0:0:0:0:
259,313,39209,2,0,L|265:349,1,30,0|0,0:0|0:0,0:0:0:0:
146,282,39366,6,0,L|130:346,1,60,12|0,0:0|0:0,0:0:0:0:
43,343,39678,1,8,0:0:0:0:
11,273,39834,1,8,0:0:0:0:
18,200,39991,1,8,0:0:0:0:
67,146,40147,1,8,0:0:0:0:
140,138,40303,1,8,0:0:0:0:
256,190,40459,5,8,0:3:0:0:
256,192,50616,12,0,52491,0:0:0:0:
176,185,53116,5,4,0:0:0:0:
176,185,53428,2,0,L|176:256,1,60,0|0,0:0|0:0,0:0:0:0:
251,313,53741,1,8,0:0:0:0:
288,214,53897,1,0,0:0:0:0:
151,186,54053,2,0,L|151:257,1,60,0|0,0:0|0:0,0:0:0:0:
473,361,54991,5,8,0:0:0:0:
276,218,55616,5,0,0:0:0:0:
276,218,55928,2,0,L|276:147,1,60,0|0,0:0|0:0,0:0:0:0:
258,48,56241,1,8,0:0:0:0:
375,66,56397,6,0,L|336:81,1,30,0|0,0:0|0:0,0:0:0:0:
407,150,56553,2,0,L|365:143,1,30,0|0,0:0|0:0,0:0:0:0:
376,236,56709,2,0,L|343:209,1,30,0|0,0:0|0:0,0:0:0:0:
310,299,56866,1,0,0:0:0:0:
473,361,57491,5,8,0:0:0:0:
236,287,58116,5,0,0:0:0:0:
236,287,58428,2,0,L|236:358,1,60,0|0,0:0|0:0,0:0:0:0:
357,348,58741,1,8,0:0:0:0:
341,220,58897,6,0,P|343:235|336:272,1,30
394,157,59053,2,0,P|411:174|431:187,1,30
338,103,59209,2,0,P|321:120|301:133,1,30
378,40,59366,2,0,P|442:29|517:49,1,120
473,361,59991,5,8,0:0:0:0:
156,143,60616,6,0,L|156:210,1,60
217,270,60928,1,0,0:0:0:0:
94,270,61084,1,0,0:0:0:0:
156,83,61241,2,0,L|156:150,1,60,8|0,0:0|0:0,0:0:0:0:
397,269,61866,6,0,L|397:202,1,60
336,142,62178,1,0,0:0:0:0:
459,142,62334,1,0,0:0:0:0:
397,329,62491,2,0,L|397:262,1,60,8|0,0:0|0:0,0:0:0:0:
396,70,62803,1,0,0:0:0:0:
459,142,62959,1,0,0:0:0:0:
336,142,63116,6,0,P|291:140|256:131,1,60,4|0,0:0|0:0,0:0:0:0:
193,79,63428,2,0,P|148:81|113:90,1,60,0|0,0:0|0:0,0:0:0:0:
71,163,63741,2,0,L|63:230,1,60,8|0,0:0|0:0,0:0:0:0:
135,280,64053,1,0,0:0:0:0:
195,211,64209,1,0,0:0:0:0:
44,162,64366,6,0,L|36:229,1,60,0|0,0:0|0:0,0:0:0:0:
142,339,64678,2,0,L|134:272,1,60,0|0,0:0|0:0,0:0:0:0:
150,371,64991,2,0,P|209:333|269:342,1,120,8|0,0:0|0:0,0:0:0:0:
357,312,65459,1,0,0:0:0:0:
410,198,65616,6,0,L|420:125,1,60,4|0,0:0|0:0,0:0:0:0:
336,116,65928,2,0,L|329:54,1,60,0|0,0:0|0:0,0:0:0:0:
239,45,66241,2,0,P|191:41|157:42,1,60,8|0,0:0|0:0,0:0:0:0:
77,96,66553,1,0,0:0:0:0:
147,172,66709,1,0,0:0:0:0:
242,19,66866,6,0,P|194:15|160:16,1,60,0|0,0:0|0:0,0:0:0:0:
77,96,67178,2,0,L|61:166,1,60,0|0,0:0|0:0,0:0:0:0:
147,172,67491,2,0,L|137:252,1,60,8|0,0:0|0:0,0:0:0:0:
244,124,67803,2,0,L|228:194,1,60,0|0,0:0|0:0,0:0:0:0:
167,306,68116,6,0,P|217:312|248:306,1,60,4|0,0:0|0:0,0:0:0:0:
288,258,68428,2,0,P|330:250|373:255,1,60,0|0,0:0|0:0,0:0:0:0:
418,198,68741,2,0,L|430:131,1,60,8|0,0:0|0:0,0:0:0:0:
380,39,69053,1,0,0:0:0:0:
296,118,69209,1,0,0:0:0:0:
439,230,69366,6,0,L|451:163,1,60,0|0,0:0|0:0,0:0:0:0:
391,99,69678,2,0,L|379:32,1,60,0|0,0:0|0:0,0:0:0:0:
296,118,69991,2,0,L|284:185,1,60,8|0,0:0|0:0,0:0:0:0:
371,64,70303,2,0,L|359:-3,1,60,0|0,0:0|0:0,0:0:0:0:
189,45,70616,6,0,P|155:38|115:45,1,60,4|0,0:0|0:0,0:0:0:0:
80,117,70928,2,0,L|67:182,1,60,0|0,0:0|0:0,0:0:0:0:
120,248,71241,2,0,L|133:313,1,60,8|0,0:0|0:0,0:0:0:0:
215,344,71553,1,0,0:0:0:0:
248,258,71709,1,0,0:0:0:0:
105,280,71866,6,0,L|118:345,1,60,0|0,0:0|0:0,0:0:0:0:
190,194,72178,2,0,L|193:115,1,60,0|0,0:0|0:0,0:0:0:0:
59,356,72491,2,0,L|129:335,1,60,8|0,0:0|0:0,0:0:0:0:
249,116,72803,2,0,L|179:137,1,60,8|0,0:0|0:0,0:0:0:0:
418,350,73116,6,0,P|431:310|427:275,1,60,4|0,0:0|0:0,0:0:0:0:
413,196,73428,2,0,P|407:146|411:111,1,60,0|0,0:0|0:0,0:0:0:0:
329,78,73741,2,0,L|245:72,1,60,8|0,0:0|0:0,0:0:0:0:
188,117,74053,1,0,0:0:0:0:
252,185,74209,1,0,0:0:0:0:
363,56,74366,6,0,L|279:50,1,60,0|0,0:0|0:0,0:0:0:0:
188,117,74678,2,0,P|167:63|165:36,1,60,0|0,0:0|0:0,0:0:0:0:
218,157,74991,2,0,P|140:161|96:204,1,120,8|0,0:0|0:0,0:0:0:0:
127,297,75459,1,0,0:0:0:0:
318,244,75616,6,0,P|371:234|399:237,1,60,4|0,0:0|0:0,0:0:0:0:
454,187,75928,2,0,P|464:145|457:114,1,60,0|0,0:0|0:0,0:0:0:0:
390,67,76241,2,0,L|309:60,1,60,8|0,0:0|0:0,0:0:0:0:
300,168,76553,2,0,L|277:125,1,30,0|0,0:0|0:0,0:0:0:0:
378,170,76709,2,0,L|385:128,1,30,0|0,0:0|0:0,0:0:0:0:
454,187,76866,5,0,0:0:0:0:
487,272,77022,2,0,P|490:318|482:353,1,60
394,258,77334,1,0,0:0:0:0:
512,252,77491,2,0,P|515:298|507:333,1,60,8|0,0:0|0:0,0:0:0:0:
394,258,77803,1,0,0:0:0:0:
454,187,77959,1,0,0:0:0:0:
433,377,78116,6,0,P|382:386|351:378,1,60,4|0,0:0|0:0,0:0:0:0:
315,318,78428,2,0,P|264:309|233:317,1,60,0|0,0:0|0:0,0:0:0:0:
178,270,78741,2,0,L|163:197,1,60,8|0,0:0|0:0,0:0:0:0:
193,124,79053,1,0,0:0:0:0:
263,188,79209,1,0,0:0:0:0:
160,300,79366,6,0,L|145:227,1,60
168,124,79678,2,0,L|172:54,1,60,0|0,0:0|0:0,0:0:0:0:
263,188,79991,2,0,L|259:258,1,60,8|0,0:0|0:0,0:0:0:0:
193,124,80303,2,0,L|197:54,1,60,0|0,0:0|0:0,0:0:0:0:
432,67,80616,6,0,L|454:194,1,120,4|0,0:0|0:0,0:0:0:0:
404,73,81241,2,0,L|426:200,1,120,8|0,0:0|0:0,0:0:0:0:
469,250,81709,2,0,L|484:331,1,60,0|0,0:0|0:0,0:0:0:0:
490,368,82022,2,0,L|479:308,1,60,0|0,0:0|0:0,0:0:0:0:
424,191,82334,1,0,0:0:0:0:
340,173,82491,1,8,0:0:0:0:
256,177,82647,1,8,0:0:0:0:
181,215,82803,1,8,0:0:0:0:
141,288,82959,1,8,0:0:0:0:
256,380,83116,5,4,0:0:0:0:
256,192,83272,12,0,86866,0:0:0:0:
197,132,87178,6,0,L|136:127,1,60,0|0,0:0|0:0,0:0:0:0:
349,248,87491,2,0,L|262:240,1,75
487,101,87803,2,0,L|372:90,1,90.0000034332277
137,127,88116,6,0,L|76:122,2,60,4|0|0,0:0|0:0|0:0,0:0:0:0:
274,241,88584,1,0,0:0:0:0:
421,129,88741,2,0,L|349:122,1,60,8|0,0:0|0:0,0:0:0:0:
274,241,89053,1,0,0:0:0:0:
137,127,89209,6,0,B|75:122|75:122|20:79,1,120,4|0,0:0|0:0,0:0:0:0:
149,206,89678,2,0,P|194:184|209:158,1,60,0|0,0:0|0:0,0:0:0:0:
324,269,89991,2,0,P|279:247|264:221,1,60,8|0,0:0|0:0,0:0:0:0:
206,336,90303,2,0,P|209:286|194:260,1,60,0|0,0:0|0:0,0:0:0:0:
12,353,90616,6,0,B|74:348|74:348|129:305,1,120,4|0,0:0|0:0,0:0:0:0:
187,201,91084,1,0,0:0:0:0:
358,335,91241,2,0,L|274:339,1,60,8|0,0:0|0:0,0:0:0:0:
187,201,91553,1,0,0:0:0:0:
348,132,91709,6,0,B|410:127|410:127|465:84,1,120,4|0,0:0|0:0,0:0:0:0:
440,17,92178,1,0,0:0:0:0:
486,161,92334,1,0,0:0:0:0:
373,55,92491,2,0,L|296:58,1,60,8|0,0:0|0:0,0:0:0:0:
273,195,92803,1,0,0:0:0:0:
231,118,92959,1,0,0:0:0:0:
314,274,93116,6,0,B|376:279|376:279|431:322,1,120,4|0,0:0|0:0,0:0:0:0:
480,384,93584,1,0,0:0:0:0:
485,237,93741,2,0,L|491:155,1,60,8|0,0:0|0:0,0:0:0:0:
480,384,94053,1,0,0:0:0:0:
389,197,94209,6,0,B|327:192|327:192|272:149,1,120,4|0,0:0|0:0,0:0:0:0:
233,16,94678,2,0,P|255:61|281:76,1,60,0|0,0:0|0:0,0:0:0:0:
173,197,94991,2,0,P|195:152|221:137,1,60,8|0,0:0|0:0,0:0:0:0:
106,79,95303,2,0,P|155:82|181:67,1,60,0|0,0:0|0:0,0:0:0:0:
0,198,95616,6,0,B|62:193|62:193|117:150,1,120,4|0,0:0|0:0,0:0:0:0:
174,196,96084,1,0,0:0:0:0:
251,283,96241,2,0,L|266:360,1,60,8|0,0:0|0:0,0:0:0:0:
174,196,96553,1,8,0:0:0:0:
152,314,96709,6,0,L|174:191,1,120,4|0,0:0|0:0,0:0:0:0:
263,118,97178,1,8,0:0:0:0:
173,195,97334,1,8,0:0:0:0:
316,91,97491,2,0,L|254:122,1,60,8|8,0:0|0:0,0:0:0:0:
173,195,97803,1,8,0:0:0:0:
400,117,97959,1,8,0:0:0:0:
355,289,98116,6,0,B|385:306|410:287|410:287|435:265|467:286,1,120,4|0,0:0|0:0,0:0:0:0:
273,367,98584,1,0,0:0:0:0:
173,195,98741,2,0,L|248:189,1,60,8|0,0:0|0:0,0:0:0:0:
273,367,99053,1,0,0:0:0:0:
450,194,99209,6,0,B|419:211|394:192|394:192|369:170|337:191,1,120,4|0,0:0|0:0,0:0:0:0:
240,133,99678,2,0,P|229:178|245:210,1,60,0|0,0:0|0:0,0:0:0:0:
144,183,99991,2,0,P|156:227|186:247,1,60,8|0,0:0|0:0,0:0:0:0:
93,281,100303,2,0,P|126:313|162:315,1,60,0|0,0:0|0:0,0:0:0:0:
333,292,100616,6,0,B|302:309|277:290|277:290|252:268|220:289,1,120,4|0,0:0|0:0,0:0:0:0:
379,371,101084,1,0,0:0:0:0:
489,201,101241,2,0,L|407:191,1,60,8|0,0:0|0:0,0:0:0:0:
379,371,101553,1,0,0:0:0:0:
208,195,101709,6,0,B|238:212|263:193|263:193|288:171|320:192,1,120,4|0,0:0|0:0,0:0:0:0:
379,371,102178,2,0,L|384:291,1,60,0|0,0:0|0:0,0:0:0:0:
168,345,102491,2,0,P|214:351|246:342,1,60,8|0,0:0|0:0,0:0:0:0:
101,190,102803,1,0,0:0:0:0:
129,270,102959,1,0,0:0:0:0:
167,104,103116,6,0,B|136:121|111:102|111:102|86:80|54:101,1,120,4|0,0:0|0:0,0:0:0:0:
240,185,103584,1,0,0:0:0:0:
409,127,103741,2,0,L|416:46,1,60,8|0,0:0|0:0,0:0:0:0:
240,185,104053,1,0,0:0:0:0:
415,255,104209,6,0,B|384:272|359:253|359:253|334:231|302:252,1,120,4|0,0:0|0:0,0:0:0:0:
240,185,104678,1,0,0:0:0:0:
410,335,104834,2,0,P|356:344|329:333,1,60,8|0,0:0|0:0,0:0:0:0:
298,258,105147,1,0,0:0:0:0:
445,367,105303,2,0,P|391:376|364:365,1,60,8|0,0:0|0:0,0:0:0:0:
186,261,105616,6,0,B|216:278|241:259|241:259|266:237|298:258,1,120,4|0,0:0|0:0,0:0:0:0:
330,180,106084,1,0,0:0:0:0:
387,375,106241,1,8,0:0:0:0:
351,41,106553,5,0,0:0:0:0:
239,44,106709,6,0,B|269:61|294:42|294:42|319:20|351:41,1,120,4|8,0:0|0:0,0:0:0:0:
351,41,107100,1,8,0:0:0:0:
351,41,107178,1,8,0:0:0:0:
420,212,107334,1,8,0:0:0:0:
473,116,107491,1,8,0:0:0:0:
377,118,107647,1,8,0:0:0:0:
309,181,107803,1,8,0:0:0:0:
420,212,107959,1,8,0:0:0:0:
341,24,108116,5,4,0:0:0:0:
341,24,108741,1,0,0:0:0:0:
341,24,109366,1,0,0:0:0:0:
341,24,109991,1,0,0:0:0:0:
341,24,110616,5,0,0:0:0:0:
402,169,111241,2,0,P|408:127|476:82,1,120,0|0,0:0|0:0,0:0:0:0:
343,232,111866,2,0,P|382:216|455:252,1,120,0|0,0:0|0:0,0:0:0:0:
253,210,112491,2,0,P|286:236|291:317,1,120,0|0,0:0|0:0,0:0:0:0:
83,334,112959,2,0,L|74:302,1,30,0|0,0:0|0:0,0:0:0:0:
24,254,113116,6,0,P|61:260|152:242,1,120,4|0,0:0|0:0,0:0:0:0:
227,176,113584,2,0,L|231:107,1,60,0|8,0:0|0:0,0:0:0:0:
285,257,113897,1,0,0:0:0:0:
202,147,114053,2,0,L|206:78,1,60,0|0,0:0|0:0,0:0:0:0:
285,257,114366,6,0,P|344:275|405:260,1,120,4|0,0:0|0:0,0:0:0:0:
460,203,114834,1,0,0:0:0:0:
398,103,114991,2,0,L|392:34,1,60,8|0,0:0|0:0,0:0:0:0:
460,203,115303,1,0,0:0:0:0:
495,90,115459,1,0,0:0:0:0:
329,165,115616,6,0,P|271:173|196:149,1,120,4|0,0:0|0:0,0:0:0:0:
103,121,116084,2,0,L|107:166,1,30,0|0,0:0|0:0,0:0:0:0:
116,223,116241,1,8,0:0:0:0:
212,157,116397,1,0,0:0:0:0:
71,142,116553,2,0,L|77:218,1,60,0|0,0:0|0:0,0:0:0:0:
210,314,116866,6,0,P|171:310|134:317,1,60,4|0,0:0|0:0,0:0:0:0:
41,328,117178,1,0,0:0:0:0:
41,328,117256,1,0,0:0:0:0:
41,328,117334,2,0,L|35:365,1,30,0|0,0:0|0:0,0:0:0:0:
91,249,117491,2,0,L|85:172,1,60,8|0,0:0|0:0,0:0:0:0:
150,312,117803,1,0,0:0:0:0:
146,124,117959,1,0,0:0:0:0:
282,226,118116,6,0,P|232:234|156:215,1,120,4|0,0:0|0:0,0:0:0:0:
146,124,118584,2,0,L|139:72,1,30,0|0,0:0|0:0,0:0:0:0:
247,125,118741,2,0,L|255:84,1,30,8|0,0:0|0:0,0:0:0:0:
114,132,118897,2,0,L|107:86,1,30,0|0,0:0|0:0,0:0:0:0:
281,130,119053,2,0,L|296:49,1,60,8|0,0:0|0:0,0:0:0:0:
486,133,119366,6,0,P|421:115|371:132,1,120,4|0,0:0|0:0,0:0:0:0:
355,224,119834,2,0,L|348:276,1,30,0|0,0:0|0:0,0:0:0:0:
465,259,119991,2,0,L|473:300,1,30,8|0,0:0|0:0,0:0:0:0:
327,203,120147,2,0,L|320:249,1,30,0|0,0:0|0:0,0:0:0:0:
491,277,120303,2,0,L|506:358,1,60,8|0,0:0|0:0,0:0:0:0:
303,359,120616,6,0,L|308:327,7,30,0|0|0|0|0|0|0|0,0:0|0:0|0:0|0:0|0:0|0:0|0:0|0:0,0:0:0:0:
194,284,121241,2,0,L|187:245,3,30,0|0|0|0,0:0|0:0|0:0|0:0,0:0:0:0:
132,178,121553,2,0,L|139:139,3,30,0|0|0|0,0:0|0:0|0:0|0:0,0:0:0:0:
276,46,121866,5,8,0:3:0:0:
277,60,121944,1,8,0:3:0:0:
275,75,122022,1,8,0:3:0:0:
270,89,122100,1,8,0:3:0:0:
261,102,122178,2,0,L|250:144,3,30,0|0|0|0,0:0|0:0|0:0|0:0,0:0:0:0:
189,51,122491,22,0,B|151:45|151:45|111:78|52:41,1,135.000005149841,0|0,0:0|0:0,0:0:0:0:
27,120,122803,6,0,L|12:163,1,30,8|0,0:3|0:0,0:0:0:0:
102,174,122959,2,0,L|111:219,1,30,8|0,0:3|0:0,0:0:0:0:
242,227,123116,6,0,P|302:241|366:219,1,120,4|0,0:0|0:0,0:0:0:0:
438,174,123584,2,0,L|447:98,1,60,0|8,0:0|0:0,0:0:0:0:
426,273,123897,1,0,0:0:0:0:
406,140,124053,2,0,L|414:62,1,60,0|0,0:0|0:0,0:0:0:0:
242,26,124366,6,0,L|221:72,1,30,4|0,0:0|0:0,0:0:0:0:
178,111,124522,2,0,P|226:102|260:109,1,60,0|0,0:0|0:0,0:0:0:0:
287,185,124834,1,0,0:0:0:0:
170,254,124991,2,0,L|104:242,1,60,8|0,0:0|0:0,0:0:0:0:
287,185,125303,1,0,0:0:0:0:
286,317,125459,1,0,0:0:0:0:
419,254,125616,6,0,P|428:209|418:170,1,60,4|0,0:0|0:0,0:0:0:0:
371,112,125928,2,0,L|364:48,1,60,0|0,0:0|0:0,0:0:0:0:
274,54,126162,1,0,0:0:0:0:
274,54,126241,2,0,L|268:142,1,60,8|0,0:0|0:0,0:0:0:0:
405,126,126553,2,0,L|398:62,1,60,0|0,0:0|0:0,0:0:0:0:
320,257,126866,6,0,P|271:273|188:248,1,120,4|0,0:0|0:0,0:0:0:0:
172,269,127256,1,0,0:0:0:0:
172,269,127334,1,0,0:0:0:0:
98,215,127491,1,8,0:0:0:0:
85,125,127647,2,0,L|77:65,1,60,4|8,0:0|0:0,0:0:0:0:
98,215,127959,1,4,0:0:0:0:
208,113,128116,6,0,P|250:96|344:113,1,120,4|0,0:0|0:0,0:0:0:0:
389,152,128584,1,0,0:0:0:0:
426,227,128741,2,0,L|421:303,1,60,8|0,0:0|0:0,0:0:0:0:
294,217,129053,2,0,L|292:259,1,30,0|0,0:0|0:0,0:0:0:0:
405,227,129209,2,0,L|403:269,1,30,0|0,0:0|0:0,0:0:0:0:
342,343,129366,6,0,P|288:352|220:336,1,120,4|0,0:0|0:0,0:0:0:0:
161,275,129834,1,0,0:0:0:0:
122,196,129991,2,0,L|123:148,1,30,8|0,0:0|0:0,0:0:0:0:
216,201,130147,2,0,L|217:161,1,30,0|0,0:0|0:0,0:0:0:0:
90,194,130303,2,0,L|96:115,1,60,0|0,0:0|0:0,0:0:0:0:
208,70,130616,6,0,L|282:85,1,60,4|0,0:0|0:0,0:0:0:0:
292,199,130928,2,0,L|260:191,1,30,0|0,0:0|0:0,0:0:0:0:
248,281,131084,2,0,L|212:287,1,30,0|0,0:0|0:0,0:0:0:0:
277,171,131241,2,0,L|213:158,1,60,12|0,0:0|0:0,0:0:0:0:
135,165,131553,2,0,L|103:173,1,30,0|0,0:0|0:0,0:0:0:0:
91,83,131709,2,0,L|55:77,1,30,0|0,0:0|0:0,0:0:0:0:
122,196,131866,6,0,L|58:212,1,60,4|8,0:0|0:0,0:0:0:0:
26,282,132100,1,8,0:0:0:0:
26,282,132178,2,0,L|14:355,1,60,8|8,0:0|0:0,0:0:0:0:
95,370,132491,1,8,0:0:0:0:
187,294,132647,1,8,0:0:0:0:
106,290,132803,1,8,0:0:0:0:
177,379,132959,1,8,0:0:0:0:
265,343,133116,5,4,0:0:0:0:
265,343,133428,2,0,L|273:266,1,60,0|0,0:0|0:0,0:0:0:0:
280,207,133741,1,8,0:0:0:0:
280,207,134366,1,0,0:0:0:0:
466,354,134991,5,8,0:0:0:0:
280,207,135616,5,4,0:0:0:0:
280,207,135928,2,0,L|272:130,1,60,0|0,0:0|0:0,0:0:0:0:
265,71,136241,6,0,P|261:32|272:2,1,60,8|0,0:0|0:0,0:0:0:0:
162,101,136553,2,0,P|166:62|155:32,1,60,0|0,0:0|0:0,0:0:0:0:
263,129,136866,2,0,P|259:90|270:60,1,60,0|0,0:0|0:0,0:0:0:0:
163,159,137178,2,0,P|167:120|156:90,1,60,0|0,0:0|0:0,0:0:0:0:
261,187,137491,2,0,P|257:148|268:118,1,60,8|0,0:0|0:0,0:0:0:0:
335,162,137725,1,0,0:0:0:0:
335,162,137803,2,0,P|342:198|339:210,1,30,0|0,0:0|0:0,0:0:0:0:
417,232,137959,2,0,P|389:256|377:259,1,30,0|0,0:0|0:0,0:0:0:0:
449,320,138116,5,4,0:0:0:0:
449,320,138428,2,0,L|367:338,1,60,0|0,0:0|0:0,0:0:0:0:
316,305,138741,1,8,0:0:0:0:
316,305,139366,5,4,0:0:0:0:
316,305,139678,2,0,L|234:323,1,60,0|0,0:0|0:0,0:0:0:0:
241,246,139991,1,8,0:0:0:0:
177,211,140147,1,0,0:0:0:0:
105,211,140303,1,0,0:0:0:0:
37,235,140459,1,0,0:0:0:0:
0,297,140616,5,4,0:0:0:0:
0,297,140928,2,0,L|8:224,1,60,0|0,0:0|0:0,0:0:0:0:
34,159,141241,2,0,P|2:125|87:111,1,180,8|0,0:0|0:0,0:0:0:0:
122,241,141866,5,0,0:0:0:0:
182,150,142022,2,0,L|181:104,2,30,8|8|8,0:0|0:0|0:0,0:0:0:0:
237,245,142334,1,8,0:0:0:0:
339,85,142491,2,0,L|343:17,1,60,8|8,0:0|0:0,0:0:0:0:
334,199,142803,1,8,0:0:0:0:
418,147,142959,1,8,0:0:0:0:
432,259,143116,5,12,0:0:0:0:
432,259,143428,2,0,L|441:339,1,60,0|0,0:0|0:0,0:0:0:0:
495,375,143741,1,8,0:0:0:0:
302,334,144053,2,0,P|297:315|302:285,1,30,0|0,0:0|0:0,0:0:0:0:
220,277,144209,2,0,P|233:263|262:252,1,30,0|0,0:0|0:0,0:0:0:0:
181,192,144366,6,0,P|227:170|305:192,1,120,0|0,0:0|0:0,0:0:0:0:
477,116,144991,2,0,P|431:94|353:116,1,120,8|0,0:0|0:0,0:0:0:0:
292,182,145459,1,0,0:0:0:0:
237,40,145616,5,4,0:0:0:0:
237,40,145928,1,0,0:0:0:0:
163,75,146084,2,0,L|77:63,1,60,0|8,0:0|0:0,0:0:0:0:
225,130,146397,1,0,0:0:0:0:
299,165,146553,2,0,L|385:153,1,60,0|0,0:0|0:0,0:0:0:0:
211,228,146866,5,0,0:0:0:0:
211,228,147178,2,0,P|174:236|140:228,1,60,0|0,0:0|0:0,0:0:0:0:
24,311,147491,2,0,P|71:290|148:316,1,120,8|0,0:0|0:0,0:0:0:0:
196,362,147959,1,0,0:0:0:0:
315,324,148116,5,4,0:0:0:0:
315,324,148428,2,0,L|328:237,1,60,0|0,0:0|0:0,0:0:0:0:
306,188,148741,1,8,0:0:0:0:
215,243,148897,1,0,0:0:0:0:
197,166,149054,2,0,L|205:106,1,60,0|0,0:0|0:0,0:0:0:0:
174,21,149366,5,0,0:0:0:0:
174,21,149678,2,0,P|217:32|259:21,1,60,0|0,0:0|0:0,0:0:0:0:
396,103,149991,2,0,P|353:85|261:108,1,120,8|0,0:0|0:0,0:0:0:0:
245,168,150459,1,0,0:0:0:0:
298,291,150616,5,8,0:3:0:0:
72,339,150928,1,0,0:0:0:0:
60,259,151084,2,0,L|48:186,1,60,0|8,0:0|0:0,0:0:0:0:
221,321,151397,1,0,0:0:0:0:
233,241,151553,2,0,L|245:168,1,60,0|0,0:0|0:0,0:0:0:0:
125,108,151866,5,4,0:0:0:0:
137,188,152022,2,0,L|149:261,1,60,8|8,0:0|0:0,0:0:0:0:
345,112,152334,1,8,0:0:0:0:
333,192,152490,2,0,L|323:251,1,60,8|8,0:0|0:0,0:0:0:0:
229,45,152803,1,8,0:0:0:0:
234,156,152959,1,8,0:0:0:0:
442,61,153116,6,0,L|452:138,1,60,4|0,0:0|0:0,0:0:0:0:
502,185,153428,2,0,L|492:262,1,60,0|0,0:0|0:0,0:0:0:0:
396,294,153741,1,8,0:0:0:0:
378,214,153897,1,0,0:0:0:0:
489,329,154053,2,0,P|497:290|485:251,1,60,0|0,0:0|0:0,0:0:0:0:
382,298,154366,5,0,0:0:0:0:
360,217,154522,1,0,0:0:0:0:
270,331,154678,2,0,P|262:292|274:253,1,60,0|0,0:0|0:0,0:0:0:0:
220,181,154991,2,0,P|259:184|299:177,2,60,8|0|0,0:0|0:0|0:0,0:0:0:0:
151,254,155459,1,0,0:0:0:0:
85,174,155616,6,0,L|73:92,1,60,4|0,0:0|0:0,0:0:0:0:
145,69,155928,2,0,L|159:5,1,60,0|0,0:0|0:0,0:0:0:0:
265,60,156241,1,8,0:0:0:0:
247,140,156397,1,0,0:0:0:0:
358,25,156553,2,0,P|366:64|354:103,1,60,0|0,0:0|0:0,0:0:0:0:
251,56,156866,5,0,0:0:0:0:
226,143,157022,2,0,L|232:221,1,60,0|0,0:0|0:0,0:0:0:0:
172,295,157334,1,0,0:0:0:0:
197,208,157490,2,0,L|191:130,1,60,8|0,0:0|0:0,0:0:0:0:
144,292,157803,1,0,0:0:0:0:
179,210,157959,1,0,0:0:0:0:
278,282,158116,6,0,P|328:283|365:272,1,60,4|0,0:0|0:0,0:0:0:0:
381,212,158428,2,0,P|431:211|468:222,1,60,0|0,0:0|0:0,0:0:0:0:
490,287,158741,1,8,0:0:0:0:
466,367,158897,1,0,0:0:0:0:
370,357,159053,2,0,L|359:281,1,60,0|0,0:0|0:0,0:0:0:0:
484,370,159366,5,0,0:0:0:0:
507,290,159522,1,0,0:0:0:0:
472,151,159678,2,0,P|423:159|353:115,1,120,0|8,0:0|0:0,0:0:0:0:
311,69,160147,1,0,0:0:0:0:
231,155,160303,2,0,P|277:143|312:151,1,60,0|0,0:0|0:0,0:0:0:0:
265,280,160616,6,0,P|235:279|190:289,1,60,4|0,0:0|0:0,0:0:0:0:
134,242,160928,2,0,P|92:243|60:239,1,60
49,159,161241,1,8,0:0:0:0:
22,69,161397,1,0,0:0:0:0:
157,131,161553,2,0,L|164:71,1,60,0|0,0:0|0:0,0:0:0:0:
24,145,161866,6,0,L|8:72,1,60,0|0,0:0|0:0,0:0:0:0:
123,234,162178,2,0,L|112:306,1,60,0|0,0:0|0:0,0:0:0:0:
251,133,162491,2,0,L|235:60,1,60,8|0,0:0|0:0,0:0:0:0:
373,237,162803,2,0,L|362:309,1,60,8|0,0:0|0:0,0:0:0:0:
473,125,163116,6,0,P|429:113|394:117,1,60,4|0,0:0|0:0,0:0:0:0:
310,128,163428,2,0,P|263:134|223:125,1,60,0|0,0:0|0:0,0:0:0:0:
134,89,163741,1,8,0:0:0:0:
29,98,163897,1,0,0:0:0:0:
70,205,164053,2,0,L|130:195,1,60,0|0,0:0|0:0,0:0:0:0:
134,72,164366,5,8,0:0:0:0:
29,78,164522,1,8,0:0:0:0:
210,120,164678,2,0,P|225:75|221:42,1,60,0|0,0:0|0:0,0:0:0:0:
298,169,164991,2,0,P|272:209|297:296,1,120,8|0,0:0|0:0,0:0:0:0:
350,333,165459,1,0,0:0:0:0:
436,241,165616,6,0,P|450:193|444:161,1,60,4|0,0:0|0:0,0:0:0:0:
406,113,165928,2,0,P|396:66|403:27,1,60,0|0,0:0|0:0,0:0:0:0:
299,20,166241,1,8,0:0:0:0:
197,13,166397,1,0,0:0:0:0:
214,113,166553,2,0,L|279:123,1,60,0|0,0:0|0:0,0:0:0:0:
296,36,166866,5,0,0:0:0:0:
195,28,167022,1,8,0:0:0:0:
295,127,167178,1,0,0:0:0:0:
195,110,167334,1,0,0:0:0:0:
343,214,167491,2,0,L|415:211,1,60,8|0,0:0|0:0,0:0:0:0:
243,279,167803,2,0,L|172:274,1,60,0|0,0:0|0:0,0:0:0:0:
406,365,168116,6,0,P|412:329|403:294,1,60,4|0,0:0|0:0,0:0:0:0:
483,259,168428,2,0,P|476:227|480:192,1,60,0|0,0:0|0:0,0:0:0:0:
421,120,168741,1,8,0:0:0:0:
404,30,168897,1,0,0:0:0:0:
295,117,169053,2,0,L|303:49,1,60,0|0,0:0|0:0,0:0:0:0:
437,118,169366,5,8,0:0:0:0:
418,26,169522,1,8,0:0:0:0:
378,199,169678,2,0,L|369:274,1,60,0|0,0:0|0:0,0:0:0:0:
277,349,169991,2,0,L|270:275,1,60,8|0,0:0|0:0,0:0:0:0:
175,191,170303,2,0,L|168:265,1,60,0|0,0:0|0:0,0:0:0:0:
42,106,170616,6,0,P|97:118|171:101,1,120,4|0,0:0|0:0,0:0:0:0:
42,72,171241,2,0,P|97:84|171:67,1,120,8|0,0:0|0:0,0:0:0:0:
292,70,171709,2,0,L|217:69,1,60,0|0,0:0|0:0,0:0:0:0:
172,70,172022,2,0,L|247:69,1,60,0|8,0:0|0:0,0:0:0:0:
248,148,172334,1,8,0:0:0:0:
257,225,172491,1,8,0:0:0:0:
210,286,172647,1,8,0:0:0:0:
139,316,172803,1,8,0:0:0:0:
63,303,172959,1,8,0:0:0:0:
21,192,173116,5,4,0:0:0:0:
256,192,173272,12,0,174991,0:0:0:0:
181,120,175616,6,0,L|174:173,1,30,8|0,0:0|0:0,0:0:0:0:
256,151,175772,1,8,0:3:0:0:
277,164,175850,1,0,0:3:0:0:
297,176,175928,2,0,P|330:179|347:176,3,30,0|8|0|0,0:0|0:3|0:0|0:0,0:0:0:0:
385,244,176241,5,4,0:2:0:0:
385,260,176319,2,0,L|383:311,1,30,8|0,0:3|0:0,0:0:0:0:
308,316,176475,1,0,0:0:0:0:
308,300,176553,2,0,L|310:249,3,30,8|0|0|0,0:3|0:0|0:0|0:0,0:0:0:0:
230,315,176866,6,0,L|220:363,1,30,0|0,0:0|0:0,0:0:0:0:
153,332,177022,2,0,L|120:368,1,30,8|0,0:3|0:0,0:0:0:0:
82,301,177178,1,0,0:0:0:0:
63,296,177256,1,0,0:0:0:0:
47,285,177334,1,0,0:0:0:0:
35,270,177412,1,0,0:0:0:0:
27,251,177491,6,0,L|23:210,1,30,0|0,0:0|0:0,0:0:0:0:
103,205,177647,2,0,L|113:168,1,30,0|0,0:0|0:0,0:0:0:0:
187,199,177803,2,0,L|220:169,1,30,0|0,0:0|0:0,0:0:0:0:
262,234,177959,2,0,L|298:226,1,30,0|0,0:0|0:0,0:0:0:0:
393,304,178116,6,0,P|456:300|464:239,1,120,4|0,0:0|0:0,0:0:0:0:
440,162,178584,1,0,0:0:0:0:
301,93,178741,2,0,L|232:101,1,60,8|0,0:0|0:0,0:0:0:0:
440,162,179053,1,0,0:0:0:0:
288,254,179209,6,0,P|225:250|217:189,1,120,4|0,0:0|0:0,0:0:0:0:
301,93,179678,2,0,P|288:52|291:23,1,60,0|0,0:0|0:0,0:0:0:0:
440,162,179991,2,0,P|442:115|433:86,1,60,8|0,0:0|0:0,0:0:0:0:
319,252,180303,2,0,P|306:211|309:182,1,60,0|0,0:0|0:0,0:0:0:0:
512,276,180616,6,0,P|449:280|441:341,1,120,4|0,0:0|0:0,0:0:0:0:
365,375,181084,1,0,0:0:0:0:
228,294,181241,2,0,L|213:210,1,60,8|0,0:0|0:0,0:0:0:0:
365,375,181553,1,0,0:0:0:0:
395,200,181709,6,0,P|332:204|324:265,1,120,4|0,0:0|0:0,0:0:0:0:
228,294,182178,2,0,L|164:308,1,60,0|0,0:0|0:0,0:0:0:0:
40,239,182491,2,0,L|104:253,1,60,8|0,0:0|0:0,0:0:0:0:
192,120,182803,1,0,0:0:0:0:
144,189,182959,1,0,0:0:0:0:
318,121,183116,6,0,P|381:125|389:186,1,120,4|0,0:0|0:0,0:0:0:0:
355,246,183584,1,0,0:0:0:0:
452,358,183741,2,0,L|519:368,1,60,8|0,0:0|0:0,0:0:0:0:
355,246,184053,1,0,0:0:0:0:
198,335,184209,6,0,P|135:331|127:270,1,120,4|0,0:0|0:0,0:0:0:0:
209,182,184678,2,0,P|168:195|139:192,1,60,0|0,0:0|0:0,0:0:0:0:
278,43,184991,2,0,P|231:41|202:50,1,60,8|0,0:0|0:0,0:0:0:0:
368,164,185303,2,0,P|327:177|298:174,1,60,0|0,0:0|0:0,0:0:0:0:
512,249,185616,6,0,P|449:253|441:314,1,120,4|0,0:0|0:0,0:0:0:0:
375,360,186084,1,0,0:0:0:0:
368,164,186241,2,0,L|443:149,1,60,8|0,0:0|0:0,0:0:0:0:
375,360,186553,1,0,0:0:0:0:
229,258,186709,6,0,P|292:262|300:323,1,120,4|0,0:0|0:0,0:0:0:0:
159,355,187178,1,8,0:0:0:0:
229,257,187334,1,8,0:0:0:0:
105,192,187491,2,0,L|116:273,1,60,8|8,0:0|0:0,0:0:0:0:
159,355,187803,1,8,0:0:0:0:
105,192,187959,1,8,0:0:0:0:
281,137,188116,6,0,B|267:107|244:91|244:91|212:102|195:141,1,120,4|0,0:0|0:0,0:0:0:0:
229,257,188584,1,0,0:0:0:0:
359,166,188741,2,0,L|419:173,1,60,8|0,0:0|0:0,0:0:0:0:
229,257,189053,1,0,0:0:0:0:
419,318,189209,6,0,B|405:348|382:364|382:364|350:353|333:314,1,120,4|0,0:0|0:0,0:0:0:0:
229,257,189678,2,0,P|242:298|239:327,1,60,0|0,0:0|0:0,0:0:0:0:
90,188,189991,2,0,P|88:235|97:264,1,60,8|0,0:0|0:0,0:0:0:0:
211,98,190303,2,0,P|224:139|221:168,1,60,0|0,0:0|0:0,0:0:0:0:
14,69,190616,6,0,B|28:39|51:23|51:23|83:34|100:73,1,120,4|0,0:0|0:0,0:0:0:0:
211,98,191084,1,0,0:0:0:0:
90,188,191241,2,0,L|14:205,1,60,8|0,0:0|0:0,0:0:0:0:
211,98,191553,1,0,0:0:0:0:
381,182,191709,6,0,B|367:212|344:228|344:228|312:217|295:178,1,120,4|0,0:0|0:0,0:0:0:0:
194,267,192178,2,0,L|182:341,1,60,0|0,0:0|0:0,0:0:0:0:
90,188,192491,2,0,L|78:114,1,60,8|0,0:0|0:0,0:0:0:0:
194,267,192803,1,0,0:0:0:0:
186,173,192959,1,0,0:0:0:0:
294,310,193116,6,0,B|308:340|331:356|331:356|363:345|380:306,1,120,4|0,0:0|0:0,0:0:0:0:
423,220,193584,1,0,0:0:0:0:
344,104,193741,2,0,L|275:89,1,60,8|0,0:0|0:0,0:0:0:0:
423,220,194053,1,0,0:0:0:0:
252,221,194209,6,0,B|266:191|289:175|289:175|321:186|338:225,1,120,4|0,0:0|0:0,0:0:0:0:
294,310,194678,1,0,0:0:0:0:
171,258,194834,2,0,P|163:226|168:189,1,60,8|0,0:0|0:0,0:0:0:0:
294,310,195147,1,0,0:0:0:0:
134,280,195303,2,0,P|126:248|131:211,1,60,8|0,0:0|0:0,0:0:0:0:
202,72,195616,6,0,B|188:102|165:118|165:118|133:107|116:68,1,120,4|0,0:0|0:0,0:0:0:0:
64,18,196084,1,0,0:0:0:0:
43,151,196241,1,8,0:0:0:0:
341,280,196553,1,0,0:0:0:0:
328,173,196709,1,0,0:0:0:0:
390,68,196866,6,0,B|404:38|427:22|427:22|459:33|476:72,1,120,4|8,0:0|0:0,0:0:0:0:
452,239,197334,1,8,0:0:0:0:
462,150,197491,1,8,0:0:0:0:
452,239,197647,1,8,0:0:0:0:
388,306,197803,1,8,0:0:0:0:
296,309,197959,1,8,0:0:0:0:
475,322,198116,6,0,L|490:339,1,15,4|0,0:0|0:0,0:0:0:0:
310,166,198428,6,0,P|320:117|312:88,1,60,0|0,0:0|0:0,0:0:0:0:
230,207,198741,2,0,P|220:158|228:129,1,60,8|0,0:0|0:0,0:0:0:0:
184,281,199053,2,0,P|156:297|119:299,1,60,0|0,0:0|0:0,0:0:0:0:
299,363,199366,6,0,P|282:319|347:308,1,120,4|0,0:0|0:0,0:0:0:0:
431,344,199834,1,0,0:0:0:0:
440,239,199991,2,0,P|428:193|434:159,1,60,8|0,0:0|0:0,0:0:0:0:
484,100,200303,2,0,P|437:103|408:98,1,60,0|0,0:0|0:0,0:0:0:0:
350,75,200537,1,0,0:0:0:0:
333,55,200616,6,0,L|333:40,1,15,4|0,0:0|0:0,0:0:0:0:
111,130,200928,6,0,P|145:126|175:131,1,60,0|0,0:0|0:0,0:0:0:0:
116,255,201241,2,0,P|131:224|164:202,1,60,8|0,0:0|0:0,0:0:0:0:
182,318,201553,2,0,P|181:357|191:385,1,60,0|0,0:0|0:0,0:0:0:0:
323,211,201866,5,8,0:3:0:0:
323,211,202022,1,8,0:3:0:0:
389,289,202178,2,0,P|387:328|372:360,1,60,0|0,0:0|0:0,0:0:0:0:
421,211,202491,2,0,P|453:232|473:261,1,60,8|0,0:0|0:0,0:0:0:0:
388,139,202803,2,0,P|367:97|366:58,1,60,0|0,0:0|0:0,0:0:0:0:
292,53,203037,1,0,0:0:0:0:
268,37,203116,6,0,L|252:29,1,15,4|0,0:0|0:0,0:0:0:0:
200,195,203428,6,0,P|159:184|128:193,1,60,0|0,0:0|0:0,0:0:0:0:
318,251,203741,2,0,P|359:262|390:253,1,60,8|0,0:0|0:0,0:0:0:0:
318,120,204053,2,0,P|337:75|335:44,1,60,0|0,0:0|0:0,0:0:0:0:
208,294,204366,6,0,B|177:326|155:293|155:293|121:319|96:297|96:297|67:277|31:303,1,180,4|0,0:0|0:0,0:0:0:0:
4,217,204991,2,0,L|-1:146,1,60,8|0,0:0|0:0,0:0:0:0:
122,41,205303,2,0,L|117:112,1,60,0|0,0:0|0:0,0:0:0:0:
207,229,205616,6,0,L|215:192,7,30,0|0|0|0|0|0|0|0,0:0|0:0|0:0|0:0|0:0|0:0|0:0|0:0,0:0:0:0:
291,259,206241,2,0,L|282:221,1,30,8|0,0:3|0:0,0:0:0:0:
368,209,206397,2,0,L|341:181,1,30,8|0,0:3|0:0,0:0:0:0:
409,130,206553,2,0,L|372:119,1,30,8|0,0:3|0:0,0:0:0:0:
416,43,206709,2,0,L|379:49,1,30,8|0,0:3|0:0,0:0:0:0:
283,56,206866,5,8,0:3:0:0:
268,58,206944,1,8,0:3:0:0:
253,60,207022,1,8,0:3:0:0:
238,59,207100,1,8,0:3:0:0:
224,59,207178,2,0,L|169:46,3,30,0|0|0|0,0:0|0:0|0:0|0:0,0:0:0:0:
140,122,207491,6,0,P|91:143|39:131,1,90.0000034332277,0|0,0:0|0:0,0:0:0:0:
321,216,207803,2,0,P|370:195|422:207,1,90.0000034332277,0|0,0:0|0:0,0:0:0:0:
153,306,208116,6,0,L|141:325,1,15,4|0,0:0|0:0,0:0:0:0:
367,364,208428,6,0,P|379:317|375:293,1,60,0|0,0:0|0:0,0:0:0:0:
263,203,208741,2,0,P|300:215|332:215,1,60,8|0,0:0|0:0,0:0:0:0:
440,210,209053,1,0,0:0:0:0:
377,306,209209,1,0,0:0:0:0:
376,128,209366,6,0,P|363:79|374:-6,1,120,4|0,0:0|0:0,0:0:0:0:
260,117,209834,1,0,0:0:0:0:
164,86,209991,2,0,P|147:34|146:10,1,60,8|0,0:0|0:0,0:0:0:0:
260,117,210303,2,0,P|277:65|278:41,1,60,0|0,0:0|0:0,0:0:0:0:
184,226,210616,6,0,L|180:242,1,15,4|0,0:0|0:0,0:0:0:0:
429,318,210928,6,0,P|395:322|365:317,1,60,0|0,0:0|0:0,0:0:0:0:
424,193,211241,2,0,P|409:224|376:246,1,60,8|0,0:0|0:0,0:0:0:0:
341,77,211553,1,0,0:0:0:0:
309,158,211709,1,0,0:0:0:0:
250,87,211866,5,8,0:3:0:0:
250,87,212022,1,8,0:3:0:0:
155,99,212178,2,0,P|122:77|102:48,1,60,0|0,0:0|0:0,0:0:0:0:
206,165,212491,2,0,P|171:182|136:185,1,60,8|0,0:0|0:0,0:0:0:0:
386,195,212803,1,0,0:0:0:0:
309,158,212959,1,0,0:0:0:0:
421,278,213116,6,0,L|437:286,1,15,4|0,0:0|0:0,0:0:0:0:
205,338,213428,5,0,0:0:0:0:
164,237,213584,1,0,0:0:0:0:
55,320,213741,2,0,P|37:270|41:238,1,60,8|0,0:0|0:0,0:0:0:0:
26,158,214053,1,0,0:0:0:0:
205,338,214366,6,0,L|205:365,1,15,4|0,0:0|0:0,0:0:0:0:
468,335,214678,5,0,0:0:0:0:
427,234,214834,1,0,0:0:0:0:
318,317,214991,2,0,P|300:267|304:235,1,60,8|0,0:0|0:0,0:0:0:0:
468,335,215303,1,0,0:0:0:0:
427,107,215616,5,8,0:3:0:0:
405,114,215694,1,8,0:3:0:0:
383,118,215772,1,8,0:3:0:0:
361,119,215850,1,8,0:3:0:0:
341,117,215928,2,0,L|293:101,3,30,0|0|0|0,0:0|0:0|0:0|0:0,0:0:0:0:
250,186,216241,5,8,0:3:0:0:
227,181,216319,1,8,0:3:0:0:
206,174,216397,1,8,0:3:0:0:
186,163,216475,1,8,0:3:0:0:
170,151,216553,2,0,L|136:113,3,30,0|0|0|0,0:0|0:0|0:0|0:0,0:0:0:0:
52,134,216866,6,0,P|40:76|48:25,1,90.0000034332277,0|8,0:0|0:3,0:0:0:0:
87,266,217178,2,0,P|99:324|91:375,1,90.0000034332277,0|0,0:0|0:0,0:0:0:0:
244,290,217491,2,0,L|252:325,1,30,0|0,0:0|0:0,0:0:0:0:
331,293,217647,2,0,L|355:319,1,30,0|0,0:0|0:0,0:0:0:0:
414,263,217803,2,0,L|448:273,1,30,0|0,0:0|0:0,0:0:0:0:
478,201,217959,2,0,L|513:192,1,30,0|0,0:0|0:0,0:0:0:0:
373,104,218116,6,0,B|316:77|316:77|255:99,1,120,4|0,0:0|0:0,0:0:0:0:
194,155,218584,1,0,0:0:0:0:
39,92,218741,2,0,L|25:32,1,60,8|0,0:0|0:0,0:0:0:0:
194,155,219053,1,0,0:0:0:0:
12,277,219209,6,0,B|69:304|69:304|130:282,1,120,4|0,0:0|0:0,0:0:0:0:
226,322,219678,2,0,P|234:271|224:240,1,60,0|0,0:0|0:0,0:0:0:0:
354,265,219991,2,0,P|335:216|311:194,1,60,8|0,0:0|0:0,0:0:0:0:
422,143,220303,2,0,P|381:110|349:103,1,60,0|0,0:0|0:0,0:0:0:0:
464,257,220616,6,0,B|407:284|407:284|346:262,1,120,4|0,0:0|0:0,0:0:0:0:
280,172,221084,1,0,0:0:0:0:
127,244,221241,2,0,L|114:305,1,60,8|0,0:0|0:0,0:0:0:0:
280,172,221553,1,0,0:0:0:0:
86,66,221709,6,0,B|143:39|143:39|204:61,1,120,4|0,0:0|0:0,0:0:0:0:
280,172,222178,2,0,L|342:183,1,60,0|0,0:0|0:0,0:0:0:0:
127,244,222491,2,0,L|62:261,1,60,8|0,0:0|0:0,0:0:0:0:
249,310,222803,1,0,0:0:0:0:
280,172,222959,1,0,0:0:0:0:
462,255,223116,6,0,B|405:282|405:282|344:260,1,120,4|0,0:0|0:0,0:0:0:0:
280,172,223584,1,0,0:0:0:0:
137,98,223741,2,0,L|58:109,1,60,8|0,0:0|0:0,0:0:0:0:
280,172,224053,1,0,0:0:0:0:
78,251,224209,6,0,B|135:278|135:278|196:256,1,120,4|0,0:0|0:0,0:0:0:0:
273,113,224678,2,0,P|281:164|271:195,1,60,0|0,0:0|0:0,0:0:0:0:
401,170,224991,2,0,P|382:218|358:240,1,60,8|0,0:0|0:0,0:0:0:0:
469,292,225303,2,0,P|428:324|396:331,1,60,0|0,0:0|0:0,0:0:0:0:
189,356,225616,6,0,B|246:329|246:329|307:351,1,120,4|0,0:0|0:0,0:0:0:0:
421,326,226084,1,0,0:0:0:0:
278,170,226241,1,8,0:0:0:0:
278,170,226553,1,0,0:0:0:0:
0,203,226709,6,0,B|57:230|57:230|118:208,1,120,4|0,0:0|0:0,0:0:0:0:
278,170,227178,1,8,0:0:0:0:
110,210,227334,1,8,0:0:0:0:
278,170,227491,2,0,L|204:157,1,60,8|8,0:0|0:0,0:0:0:0:
110,210,227803,1,8,0:0:0:0:
218,267,227959,1,8,0:0:0:0:
316,78,228116,6,0,B|353:73|353:73|364:60|364:60|441:51,1,120,4|0,0:0|0:0,0:0:0:0:
499,96,228584,1,0,0:0:0:0:
338,178,228741,2,0,L|262:169,1,60,8|0,0:0|0:0,0:0:0:0:
499,96,229053,1,0,0:0:0:0:
448,266,229209,6,0,B|443:229|443:229|430:218|430:218|421:141,1,120,4|0,0:0|0:0,0:0:0:0:
306,315,229678,2,0,P|261:312|246:305,1,60,0|0,0:0|0:0,0:0:0:0:
111,211,229991,2,0,P|100:249|88:269,1,60,8|0,0:0|0:0,0:0:0:0:
248,163,230303,2,0,P|293:166|308:173,1,60,0|0,0:0|0:0,0:0:0:0:
478,88,230616,6,0,B|441:83|441:83|430:70|430:70|353:61,1,120,4|0,0:0|0:0,0:0:0:0:
298,16,231084,1,0,0:0:0:0:
150,84,231241,2,0,L|138:154,1,60,8|0,0:0|0:0,0:0:0:0:
298,16,231553,1,0,0:0:0:0:
248,163,231709,6,0,B|285:158|285:158|296:145|296:145|373:136,1,120,4|0,0:0|0:0,0:0:0:0:
459,256,232178,2,0,L|466:193,1,60,0|0,0:0|0:0,0:0:0:0:
347,309,232491,2,0,L|340:372,1,60,8|0,0:0|0:0,0:0:0:0:
164,345,232803,1,0,0:0:0:0:
245,286,232959,1,0,0:0:0:0:
75,239,233116,6,0,B|112:234|112:234|123:221|123:221|200:212,1,120,4|0,0:0|0:0,0:0:0:0:
248,147,233584,1,0,0:0:0:0:
383,209,233741,2,0,L|394:143,1,60,8|0,0:0|0:0,0:0:0:0:
248,147,234053,1,0,0:0:0:0:
374,286,234209,6,0,B|337:281|337:281|326:268|326:268|249:259,1,120,4|0,0:0|0:0,0:0:0:0:
166,238,234678,1,0,0:0:0:0:
58,293,234834,2,0,P|44:250|46:227,1,60,8|0,0:0|0:0,0:0:0:0:
166,238,235147,1,0,0:0:0:0:
38,334,235303,2,0,P|24:291|26:268,1,60,8|0,0:0|0:0,0:0:0:0:
270,375,235616,6,0,B|233:370|233:370|222:357|222:357|145:348,1,120,4|0,0:0|0:0,0:0:0:0:
38,334,236084,1,0,0:0:0:0:
17,183,236241,2,0,L|26:110,1,60,8|0,0:0|0:0,0:0:0:0:
38,334,236553,1,8,0:3:0:0:
113,202,236709,1,8,0:3:0:0:
118,185,236787,1,8,0:3:0:0:
123,167,236866,6,0,L|130:138,3,30,0|0|0|0,0:0|0:0|0:0|0:0,0:0:0:0:
206,179,237178,1,0,0:0:0:0:
219,161,237256,1,0,0:0:0:0:
237,147,237334,1,8,0:3:0:0:
258,139,237412,1,0,0:0:0:0:
281,138,237491,2,0,L|314:142,1,30,0|0,0:0|0:0,0:0:0:0:
291,226,237647,2,0,L|317:245,1,30,0|0,0:0|0:0,0:0:0:0:
233,290,237803,2,0,L|246:320,1,30,0|0,0:0|0:0,0:0:0:0:
147,316,237959,2,0,L|143:349,1,30,0|0,0:0|0:0,0:0:0:0:
10,225,238116,6,0,B|72:220|72:220|127:177,1,120,4|0,0:0|0:0,0:0:0:0:
160,104,238584,1,0,0:0:0:0:
312,75,238741,2,0,L|315:2,1,60,8|0,0:0|0:0,0:0:0:0:
160,104,239053,1,0,0:0:0:0:
291,226,239209,6,0,B|353:231|353:231|408:274,1,120,4|0,0:0|0:0,0:0:0:0:
456,126,239678,2,0,P|453:171|464:210,1,60,0|0,0:0|0:0,0:0:0:0:
302,118,239991,2,0,P|339:143|378:153,1,60,8|0,0:0|0:0,0:0:0:0:
239,255,240303,2,0,P|279:235|307:206,1,60,0|0,0:0|0:0,0:0:0:0:
76,255,240616,6,0,B|71:193|71:193|28:138,1,120,4|0,0:0|0:0,0:0:0:0:
59,69,241084,1,0,0:0:0:0:
187,25,241241,2,0,L|254:38,1,60,8|0,0:0|0:0,0:0:0:0:
59,69,241553,1,0,0:0:0:0:
153,255,241709,6,0,B|158:193|158:193|201:138,1,120,4|0,0:0|0:0,0:0:0:0:
284,140,242178,2,0,L|349:145,1,60,0|0,0:0|0:0,0:0:0:0:
473,208,242491,2,0,L|408:213,1,60,8|0,0:0|0:0,0:0:0:0:
316,329,242803,1,0,0:0:0:0:
326,239,242959,1,0,0:0:0:0:
72,303,243116,6,0,B|39:294|28:269|46:236|77:223|108:244|108:244|140:264|179:247,1,180,4|0,0:0|0:0,0:0:0:0:
227,190,243741,2,0,L|240:112,1,60,8|0,0:0|0:0,0:0:0:0:
326,239,244053,1,0,0:0:0:0:
449,163,244209,6,0,B|387:158|387:158|332:115,1,120,4|0,0:0|0:0,0:0:0:0:
281,40,244678,1,0,0:0:0:0:
168,85,244834,2,0,P|159:131|168:160,1,60,0|8,0:0|0:0,0:0:0:0:
67,159,245147,1,0,0:0:0:0:
49,279,245303,2,0,P|84:309|113:316,1,60,0|0,0:0|0:0,0:0:0:0:
406,287,245616,6,0,B|439:278|450:253|432:220|401:207|370:228|370:228|338:248|299:231,1,180,4|0,0:0|0:0,0:0:0:0:
184,300,246241,2,0,P|175:254|184:225,1,60,8|0,0:0|0:0,0:0:0:0:
67,159,246553,2,0,P|102:129|131:122,1,60,0|0,0:0|0:0,0:0:0:0:
306,104,246866,5,8,0:3:0:0:
291,87,246944,1,8,0:3:0:0:
288,65,247022,1,8,0:3:0:0:
299,46,247100,1,8,0:3:0:0:
321,38,247178,2,0,L|363:29,3,30,8|0|0|0,0:0|0:0|0:0|0:0,0:0:0:0:
416,123,247491,2,0,L|409:166,1,30,0|0,0:0|0:0,0:0:0:0:
327,196,247647,2,0,L|299:229,1,30,0|0,0:0|0:0,0:0:0:0:
214,218,247803,2,0,L|173:233,1,30,0|0,0:0|0:0,0:0:0:0:
98,205,247959,2,0,L|54:198,1,30,0|0,0:0|0:0,0:0:0:0:
8,78,248116,6,0,B|39:57|63:79|63:79|88:99|119:81,1,120,4|0,0:0|0:0,0:0:0:0:
212,84,248584,1,0,0:0:0:0:
214,218,248741,2,0,L|204:277,1,60,8|0,0:0|0:0,0:0:0:0:
212,84,249053,1,0,0:0:0:0:
305,150,249209,1,4,0:0:0:0:
117,165,249366,6,0,B|86:182|61:163|61:163|36:141|4:162,1,120,0|0,0:0|0:0,0:0:0:0:
0,246,249834,1,0,0:0:0:0:
151,340,249991,2,0,P|145:292|126:269,1,60,8|0,0:0|0:0,0:0:0:0:
313,277,250303,2,0,P|268:258|239:263,1,60,0|0,0:0|0:0,0:0:0:0:
436,350,250616,6,0,B|418:319|437:294|437:294|459:269|438:237,1,120,4|0,0:0|0:0,0:0:0:0:
404,148,251084,1,0,0:0:0:0:
268,79,251241,2,0,L|200:70,1,60,8|0,0:0|0:0,0:0:0:0:
404,148,251553,1,0,0:0:0:0:
178,232,251709,6,0,B|195:262|176:287|176:287|154:312|175:344,1,120,4|0,0:0|0:0,0:0:0:0:
283,367,252178,2,0,L|344:374,1,60,0|0,0:0|0:0,0:0:0:0:
483,299,252491,2,0,L|422:306,1,60,8|0,0:0|0:0,0:0:0:0:
323,178,252803,1,0,0:0:0:0:
334,264,252959,1,0,0:0:0:0:
200,111,253116,6,0,B|167:102|156:77|174:44|205:31|236:52|236:52|268:72|307:55,1,180,4|0,0:0|0:0,0:0:0:0:
450,101,253741,2,0,L|461:32,1,60,8|0,0:0|0:0,0:0:0:0:
332,237,254053,2,0,L|321:168,1,60,0|4,0:0|0:0,0:0:0:0:
507,329,254366,6,0,B|476:311|451:330|451:330|426:352|394:331,1,120,0|0,0:0|0:0,0:0:0:0:
265,357,254834,2,0,P|241:306|239:288,1,60,0|8,0:0|0:0,0:0:0:0:
191,182,255147,1,0,0:0:0:0:
332,237,255303,2,0,P|356:186|358:168,1,60,0|0,0:0|0:0,0:0:0:0:
121,66,255616,6,0,B|151:83|176:64|176:64|201:42|233:63,1,120,4|0,0:0|0:0,0:0:0:0:
326,27,256084,1,0,0:0:0:0:
466,200,256241,2,0,L|481:130,1,60,8|0,0:0|0:0,0:0:0:0:
435,360,256553,2,0,L|420:290,1,60,8|0,0:0|0:0,0:0:0:0:
400,86,256866,5,4,0:0:0:0:
193,238,257178,5,8,0:0:0:0:
172,161,257334,1,8,0:0:0:0:
251,142,257491,1,8,0:0:0:0:
273,219,257647,1,8,0:0:0:0:
193,238,257803,5,8,0:0:0:0:
251,142,257959,1,8,0:0:0:0:
139,326,258116,5,4,0:0:0:0:
139,326,258741,1,0,0:0:0:0:
139,326,259366,1,0,0:0:0:0:
139,326,259991,1,0,0:0:0:0:
139,326,260616,5,0,0:0:0:0:
348,258,261241,2,0,P|342:300|274:345,1,120,0|0,0:0|0:0,0:0:0:0:
407,195,261866,2,0,P|368:211|295:175,1,120,0|0,0:0|0:0,0:0:0:0:
497,217,262491,2,0,P|464:191|459:110,1,120,0|0,0:0|0:0,0:0:0:0:
445,329,263116,5,0,0:0:0:0:
