osu file format v14

[General]
AudioFilename: audio.mp3
AudioLeadIn: 0
PreviewTime: 177182
Countdown: 0
SampleSet: Soft
StackLeniency: 0.3
Mode: 0
LetterboxInBreaks: 0
WidescreenStoryboard: 0

[Editor]
Bookmarks: 161010
DistanceSpacing: 1.6
BeatDivisor: 4
GridSize: 32
TimelineZoom: 2.4

[Metadata]
Title:Endure The Silence
TitleUnicode:Endure The Silence
Artist:Myrath
ArtistUnicode:Myrath
Creator:LMT
Version:Silent Lonely Nights
Source:
Tags:Mir BOUYAAA tunisian middle eastern folk progressive metal Xtazy legacy ميراث
BeatmapID:1175602
BeatmapSetID:555454

[Difficulty]
HPDrainRate:7
CircleSize:4
OverallDifficulty:9
ApproachRate:9.3
SliderMultiplier:1.8
SliderTickRate:1

[Events]
//Background and Video events
0,0,"arab_drawing.jpg",0,0
//Break Periods
2,43116,49138
//Storyboard Layer 0 (Background)
//Storyboard Layer 1 (Fail)
//Storyboard Layer 2 (Pass)
//Storyboard Layer 3 (Foreground)
//Storyboard Sound Samples

[TimingPoints]
616,625,4,2,0,30,1,0
616,-200,4,2,0,30,0,0
20616,312.5,4,3,2,80,1,0
28116,-100,4,3,2,90,0,0
30616,-100,4,3,2,80,0,0
72178,-83.3333333333333,4,3,2,80,0,0
72491,-71.4285714285714,4,3,2,80,0,0
72803,-66.6666666666667,4,3,2,80,0,0
73116,-100,4,3,2,80,0,0
87412,-100,4,3,2,5,0,0
87491,-80,4,3,2,80,0,0
87725,-80,4,3,2,5,0,0
87803,-66.6666666666667,4,3,2,80,0,0
88037,-66.6666666666667,4,3,2,5,0,0
88116,-80,4,3,2,80,0,1
108116,-80,4,2,0,40,0,0
110616,-133.333333333333,4,2,0,40,0,0
112725,-133.333333333333,4,3,2,5,0,0
112803,-133.333333333333,4,3,2,80,0,0
113116,-100,4,3,2,80,0,0
120616,-100,4,3,2,90,0,0
120850,-100,4,3,2,5,0,0
120928,-100,4,3,2,90,0,0
123116,-100,4,3,2,80,0,0
162178,-83.3333333333333,4,3,2,80,0,0
162491,-71.4285714285714,4,3,2,80,0,0
162803,-66.6666666666667,4,3,2,80,0,0
163116,-100,4,3,2,80,0,0
175303,-100,4,3,2,5,0,0
175381,-100,4,3,2,80,0,0
175772,-100,4,3,2,90,0,0
177178,-100,4,3,2,80,0,0
177491,-100,4,3,2,90,0,0
177803,-100,4,3,2,100,0,0
178116,-80,4,3,2,80,0,1
194834,-66.6666666666667,4,3,2,80,0,0
195303,-80,4,3,2,80,0,0
197100,-80,4,3,2,5,0,0
197178,-80,4,3,2,80,0,0
198116,-80,4,3,2,80,0,0
205616,-80,4,3,2,80,0,0
208116,-80,4,3,2,80,0,0
214678,-62.5,4,3,2,80,0,0
215616,-62.5,4,3,2,80,0,0
216553,-62.5,4,3,2,40,0,0
217178,-62.5,4,3,2,50,0,0
217491,-62.5,4,3,2,60,0,0
217803,-62.5,4,3,2,70,0,0
218116,-80,4,3,2,80,0,1
234834,-66.6666666666667,4,3,2,80,0,1
235303,-80,4,3,2,80,0,1
236553,-80,4,3,2,60,0,1
237491,-80,4,3,2,50,0,1
237803,-80,4,3,2,70,0,1
238116,-80,4,3,2,80,0,1
246866,-80,4,3,2,60,0,1
247178,-80,4,3,2,50,0,1
247491,-80,4,3,2,60,0,1
247803,-80,4,3,2,70,0,1
248116,-80,4,3,2,80,0,1
258116,-133.333333333333,4,2,0,60,0,0
262725,-133.333333333333,4,2,0,5,0,0
262803,-133.333333333333,4,2,0,60,0,0
263037,-133.333333333333,4,2,0,5,0,0
263116,-133.333333333333,4,2,0,60,0,0

[Colours]
Combo1 : 141,245,254
Combo2 : 232,249,23
Combo3 : 109,208,245
Combo4 : 255,255,198

[HitObjects]
255,187,616,6,0,L|246:290,1,90,0|0,0:2|0:0,0:0:0:0:
264,68,1553,1,0,0:0:0:0:
403,264,1866,2,0,L|394:367,1,90
412,145,2803,1,0,0:0:0:0:
38,348,3428,5,0,0:0:0:0:
176,263,3741,2,0,L|182:318,1,45,0|0,0:2|0:0,0:0:0:0:
156,111,4366,1,0,0:0:0:0:
19,12,4991,1,0,0:0:0:0:
156,111,5303,1,0,0:0:0:0:
386,321,5616,6,0,L|377:222,1,90,4|0,0:0|0:0,0:0:0:0:
120,310,6553,1,0,0:0:0:0:
490,363,6866,6,0,L|481:264,1,90,4|0,0:0|0:0,0:0:0:0:
120,310,7803,1,0,0:0:0:0:
190,78,8116,5,0,0:0:0:0:
190,78,8428,5,0,0:0:0:0:
270,73,8584,1,0,0:0:0:0:
235,143,8741,1,0,0:0:0:0:
200,81,9053,5,0,0:0:0:0:
280,76,9209,1,0,0:0:0:0:
245,146,9366,1,0,0:0:0:0:
211,84,9678,5,0,0:0:0:0:
291,79,9834,1,0,0:0:0:0:
256,149,9991,1,0,0:0:0:0:
29,354,10616,5,0,0:0:0:0:
189,279,10928,2,0,L|186:266,4,7.5
211,352,11241,1,0,0:0:0:0:
309,136,11553,1,0,0:0:0:0:
72,160,11866,6,0,L|95:246,1,90
43,52,12803,1,0,0:0:0:0:
309,136,13116,6,0,L|285:222,1,90
338,28,14053,1,0,0:0:0:0:
42,351,14678,1,0,0:0:0:0:
201,274,14991,2,0,L|190:332,1,45
397,340,15616,6,0,L|381:250,1,90,4|0,0:0|0:0,0:0:0:0:
110,302,16553,1,0,0:0:0:0:
486,376,16866,6,0,L|470:286,1,90,4|0,0:0|0:0,0:0:0:0:
110,302,17803,1,0,0:0:0:0:
161,176,18116,6,0,L|162:169,4,7.5
161,186,18428,1,0,0:0:0:0:
248,215,18584,1,0,0:0:0:0:
289,310,18741,6,0,L|290:303,4,7.5
290,320,19053,1,0,0:0:0:0:
195,327,19209,1,0,0:0:0:0:
106,267,19366,1,0,0:0:0:0:
76,153,19522,1,0,0:0:0:0:
139,56,19678,6,0,L|138:49,4,7.5
142,66,19990,1,0,0:0:0:0:
264,66,20147,1,0,0:0:0:0:
318,174,20303,1,0,0:0:0:0:
131,167,20459,1,0,0:0:0:0:
131,167,20537,1,0,0:0:0:0:
131,167,20616,6,0,P|201:155|326:175,1,180,4|0,0:0|0:0,0:0:0:0:
500,123,21084,2,0,P|434:112|385:123,1,90,0|8,0:0|0:0,0:0:0:0:
361,311,21397,1,0,0:0:0:0:
386,186,21553,1,0,0:0:0:0:
422,357,21709,1,0,0:0:0:0:
290,226,21866,6,0,P|234:216|288:284,1,180,4|0,0:0|0:0,0:0:0:0:
443,231,22334,1,0,0:0:0:0:
267,89,22491,2,0,P|208:75|157:80,1,90,8|0,0:0|0:0,0:0:0:0:
136,217,22803,1,0,0:0:0:0:
129,23,22959,1,0,0:0:0:0:
325,230,23116,6,0,B|296:262|296:262|240:253|193:287,1,135,4|0,0:0|0:0,0:0:0:0:
174,283,23428,1,0,0:0:0:0:
64,242,23584,1,0,0:0:0:0:
55,262,23662,1,0,0:0:0:0:
52,286,23741,1,8,0:0:0:0:
21,166,23897,1,0,0:0:0:0:
110,335,24053,1,0,0:0:0:0:
81,119,24209,1,0,0:0:0:0:
185,357,24366,6,0,P|253:372|300:363,1,90,4|0,0:0|0:0,0:0:0:0:
395,258,24678,1,0,0:0:0:0:
380,253,24756,1,0,0:0:0:0:
366,249,24834,1,0,0:0:0:0:
351,245,24912,1,0,0:0:0:0:
317,212,24991,6,0,P|268:198|222:201,1,90,12|0,0:0|0:0,0:0:0:0:
40,127,25303,1,0,0:0:0:0:
205,102,25459,1,0,0:0:0:0:
7,236,25616,6,0,B|65:206|65:206|92:243|92:243|125:221|193:251,1,180,4|0,0:0|0:0,0:0:0:0:
280,324,26084,1,0,0:0:0:0:
302,328,26162,1,0,0:0:0:0:
325,328,26241,2,0,P|362:322|388:321,1,45,8|0,0:0|0:0,0:0:0:0:
203,232,26397,2,0,P|180:234|158:238,1,45
37,348,26553,2,0,P|95:338|155:342,1,90,8|0,0:0|0:0,0:0:0:0:
402,227,26866,6,0,B|344:197|344:197|317:234|317:234|284:212|216:242,1,180,4|0,0:0|0:0,0:0:0:0:
129,315,27334,1,0,0:0:0:0:
107,319,27412,1,0,0:0:0:0:
84,319,27491,2,0,P|47:313|21:312,1,45,8|0,0:0|0:0,0:0:0:0:
158,237,27647,2,0,P|195:231|221:230,1,45
321,321,27803,2,0,P|263:311|203:315,1,90,8|0,0:0|0:0,0:0:0:0:
477,347,28116,5,0,0:0:0:0:
473,334,28194,1,0,0:0:0:0:
470,322,28272,1,0,0:0:0:0:
467,309,28350,1,0,0:0:0:0:
464,297,28428,1,0,0:0:0:0:
460,284,28506,1,0,0:0:0:0:
457,272,28584,1,0,0:0:0:0:
454,259,28662,1,0,0:0:0:0:
429,227,28741,5,0,0:0:0:0:
432,214,28819,1,0,0:0:0:0:
435,202,28897,1,0,0:0:0:0:
438,189,28975,1,0,0:0:0:0:
452,149,29053,5,0,0:0:0:0:
449,136,29131,1,0,0:0:0:0:
446,124,29209,1,0,0:0:0:0:
443,111,29287,1,0,0:0:0:0:
384,67,29366,5,8,2:3:0:0:
350,39,29444,1,8,2:3:0:0:
307,46,29522,1,8,2:3:0:0:
285,84,29600,1,8,2:3:0:0:
300,125,29678,5,0,0:0:0:0:
273,106,29756,1,0,0:0:0:0:
242,98,29834,1,0,0:0:0:0:
210,104,29912,1,0,0:0:0:0:
182,121,29990,1,0,0:0:0:0:
164,148,30068,1,0,0:0:0:0:
157,180,30146,1,0,0:0:0:0:
163,212,30224,1,0,0:0:0:0:
181,239,30303,6,0,P|218:264|245:272,1,45,8|0,0:3|0:0,0:0:0:0:
402,296,30459,2,0,P|370:293|336:302,1,45,8|0,0:3|0:0,0:0:0:0:
137,351,30616,6,0,P|226:335|327:361,1,180,4|0,0:0|0:0,0:0:0:0:
502,221,31084,2,0,P|433:222|387:207,1,90,0|8,0:0|0:0,0:0:0:0:
267,46,31397,1,0,0:0:0:0:
306,219,31553,1,0,0:0:0:0:
318,105,31709,1,0,0:0:0:0:
256,276,31866,6,0,B|221:305|193:288|193:288|157:305|134:283|134:283|100:301|70:276,1,180,4|0,0:0|0:0,0:0:0:0:
20,190,32334,1,0,0:0:0:0:
215,103,32491,2,0,L|201:219,1,90,8|0,0:0|0:0,0:0:0:0:
313,355,32803,1,0,0:0:0:0:
294,211,32959,1,0,0:0:0:0:
220,376,33116,6,0,P|202:327|196:276,1,90,4|0,0:0|0:0,0:0:0:0:
108,165,33428,2,0,L|87:113,1,45
220,102,33584,1,0,0:0:0:0:
200,90,33662,1,0,0:0:0:0:
178,86,33740,1,8,0:0:0:0:
310,63,33897,1,0,0:0:0:0:
173,10,34053,1,0,0:0:0:0:
317,137,34209,1,0,0:0:0:0:
110,51,34366,6,0,P|57:51|-10:65,1,90,4|0,0:0|0:0,0:0:0:0:
15,207,34678,1,0,0:0:0:0:
17,221,34756,1,0,0:0:0:0:
19,236,34834,1,0,0:0:0:0:
21,251,34912,1,0,0:0:0:0:
54,286,34991,6,0,P|90:290|167:273,1,90,8|0,0:0|0:0,0:0:0:0:
325,244,35303,1,8,0:0:0:0:
187,219,35459,1,0,0:0:0:0:
371,309,35616,6,0,B|401:309|401:309|434:340|485:341,1,90,12|0,0:0|0:0,0:0:0:0:
430,131,35928,1,0,0:0:0:0:
460,255,36084,1,0,0:0:0:0:
359,86,36241,2,0,P|310:71|255:74,1,90,8|0,0:0|0:0,0:0:0:0:
146,199,36553,2,0,P|191:219|217:218,1,45
317,180,36709,2,0,P|291:175|243:179,1,45
96,283,36866,6,0,B|121:280|121:280|145:298|200:295,1,90,12|0,0:0|0:0,0:0:0:0:
205,112,37178,1,0,0:0:0:0:
254,258,37334,1,0,0:0:0:0:
96,52,37491,2,0,P|119:52|141:58,1,45,8|0,0:0|0:0,0:0:0:0:
303,58,37647,2,0,P|282:49|259:47,1,45
146,199,37803,2,0,P|102:195|59:182,1,90,8|0,0:0|0:0,0:0:0:0:
417,136,38116,6,0,P|460:145|504:135,1,90,4|0,0:0|0:0,0:0:0:0:
388,17,38428,2,0,L|379:61,1,45
328,137,38584,2,0,L|337:180,1,45
286,324,38741,6,0,P|241:325|198:312,1,90,12|0,0:0|0:0,0:0:0:0:
110,189,39053,2,0,L|121:240,1,45
31,351,39209,2,0,L|42:300,1,45
225,213,39366,5,12,0:0:0:0:
247,208,39444,1,0,0:0:0:0:
271,205,39522,5,0,0:0:0:0:
234,178,39600,1,0,0:0:0:0:
198,153,39678,1,8,0:0:0:0:
98,115,39834,1,8,0:0:0:0:
298,115,39991,1,8,0:0:0:0:
198,153,40147,1,8,0:0:0:0:
398,153,40303,1,8,0:0:0:0:
298,10,40459,1,8,0:3:0:0:
256,192,50616,12,0,52803,0:0:0:0:
426,338,53116,5,4,0:0:0:0:
426,338,53428,5,0,0:0:0:0:
452,261,53584,1,0,0:0:0:0:
480,185,53741,1,8,0:0:0:0:
372,274,53897,1,0,0:0:0:0:
400,197,54053,1,0,0:0:0:0:
428,120,54209,2,0,L|459:22,1,90
87,207,54678,5,0,0:0:0:0:
121,113,54834,1,0,0:0:0:0:
127,356,54991,1,8,0:0:0:0:
127,356,55303,5,0,0:0:0:0:
33,322,55459,1,0,0:0:0:0:
276,316,55616,1,0,0:0:0:0:
276,316,55928,5,0,0:0:0:0:
303,240,56084,1,0,0:0:0:0:
331,164,56241,1,8,0:0:0:0:
250,180,56397,6,0,P|210:183|166:169,1,45
183,250,56553,2,0,P|147:232|116:198,1,45
88,277,56709,2,0,P|66:243|56:198,1,45
105,122,56866,1,0,0:0:0:0:
105,122,57178,5,0,0:0:0:0:
12,178,57334,1,0,0:0:0:0:
253,173,57491,1,8,0:0:0:0:
204,17,57647,2,0,L|196:121,1,90
172,213,57959,1,0,0:0:0:0:
279,354,58116,5,4,0:0:0:0:
279,354,58428,1,0,0:0:0:0:
302,276,58584,2,0,L|331:183,1,90,0|8,0:0|0:0,0:0:0:0:
175,300,58897,2,0,P|157:278|150:251,1,45
206,209,59053,1,0,0:0:0:0:
65,163,59209,2,0,P|83:185|90:212,1,45
58,267,59365,1,0,0:0:0:0:
133,53,59678,6,0,P|227:77|306:43,1,180,0|8,0:0|0:0,0:0:0:0:
368,1,60147,1,0,0:0:0:0:
457,126,60303,2,0,P|409:115|357:133,1,90
170,209,60616,5,0,0:0:0:0:
170,209,60928,1,0,0:0:0:0:
147,287,61084,2,0,L|118:380,1,90,0|8,0:0|0:0,0:0:0:0:
120,372,61553,1,0,0:0:0:0:
210,345,61709,1,0,0:0:0:0:
300,377,61866,6,0,L|286:275,1,90
387,308,62178,1,0,0:0:0:0:
415,231,62334,1,0,0:0:0:0:
443,154,62490,2,0,L|474:56,1,90,8|0,0:0|0:0,0:0:0:0:
259,182,62803,2,0,L|228:84,1,90
57,298,63116,6,0,P|128:285|182:302,1,90,4|0,0:0|0:0,0:0:0:0:
257,347,63428,1,0,0:0:0:0:
217,260,63584,1,0,0:0:0:0:
403,287,63741,2,0,P|332:300|278:283,1,90,8|0,0:0|0:0,0:0:0:0:
219,112,64053,1,0,0:0:0:0:
295,207,64209,1,0,0:0:0:0:
63,220,64366,6,0,P|134:207|188:224,1,90
217,260,64678,1,0,0:0:0:0:
219,112,64834,1,0,0:0:0:0:
382,196,64991,2,0,P|311:209|257:192,1,90,8|0,0:0|0:0,0:0:0:0:
228,4,65303,2,0,P|289:27|326:91,1,135
329,119,65616,5,4,0:0:0:0:
219,112,65772,2,0,P|145:98|27:115,1,180
161,257,66241,1,8,0:0:0:0:
87,189,66397,1,0,0:0:0:0:
116,330,66553,2,0,P|168:341|225:319,1,90
321,214,66866,5,0,0:0:0:0:
273,293,67022,1,0,0:0:0:0:
221,119,67178,2,0,P|204:65|212:27,1,90
321,214,67491,2,0,P|338:160|330:122,1,90,8|0,0:0|0:0,0:0:0:0:
207,326,67803,2,0,P|190:272|198:234,1,90
392,268,68116,6,0,P|445:235|478:268,1,90,4|0,0:0|0:0,0:0:0:0:
407,194,68428,2,0,P|462:223|450:268,1,90
478,170,68741,2,0,P|480:232|435:244,1,90,8|0,0:0|0:0,0:0:0:0:
264,346,69053,2,0,L|359:335,1,90
388,118,69366,2,0,L|293:129,1,90
103,276,69678,6,0,P|181:230|289:242,1,180,0|8,0:0|0:0,0:0:0:0:
388,118,70147,1,0,0:0:0:0:
194,85,70303,2,0,P|240:104|268:166,1,90
338,350,70616,6,0,P|347:293|369:261,1,90
374,358,70929,2,0,P|383:301|405:269,1,90
408,368,71241,2,0,P|417:311|439:279,1,90
480,176,71553,2,0,L|379:168,1,90
153,222,71866,6,0,P|126:178|130:117,1,90
275,224,72178,6,0,B|282:288|251:307|251:307|236:259,1,107.999996704102
297,88,72491,6,0,B|289:14|320:-5|320:-5|335:43,1,125.999996154785,8|0,0:0|0:0,0:0:0:0:
123,140,72803,6,0,B|30:154|11:123|11:123|59:108,1,135.000005149842,8|0,0:0|0:0,0:0:0:0:
261,350,73116,6,0,P|316:328|372:336,1,90,4|0,0:0|0:0,0:0:0:0:
486,270,73428,1,0,0:0:0:0:
416,357,73584,1,0,0:0:0:0:
350,205,73741,2,0,L|328:87,1,90,8|0,0:0|0:0,0:0:0:0:
446,0,74053,1,0,0:0:0:0:
420,86,74209,1,0,0:0:0:0:
239,46,74366,6,0,P|170:36|126:51,1,90
48,202,74678,1,0,0:0:0:0:
130,132,74834,1,0,0:0:0:0:
149,279,74991,2,0,L|133:379,1,90,8|0,0:0|0:0,0:0:0:0:
325,224,75303,1,0,0:0:0:0:
239,250,75459,1,0,0:0:0:0:
413,301,75616,6,0,P|431:251|429:189,1,90,4|0,0:0|0:0,0:0:0:0:
472,360,75928,2,0,P|505:282|496:146,1,180,0|8,0:0|0:0,0:0:0:0:
442,87,76397,1,0,0:0:0:0:
336,151,76553,2,0,P|279:146|265:136,1,45
256,216,76709,2,0,P|225:184|221:157,1,45
231,105,76866,5,0,0:0:0:0:
192,30,77022,1,0,0:0:0:0:
114,177,77178,2,0,P|123:125|165:79,1,90
55,270,77491,2,0,P|45:218|4:172,1,90,8|0,0:0|0:0,0:0:0:0:
119,338,77803,2,0,P|128:286|170:240,1,90
381,253,78116,6,0,P|328:286|295:253,1,90,4|0,0:0|0:0,0:0:0:0:
366,325,78428,2,0,P|310:295|323:250,1,90
296,350,78741,2,0,P|293:287|339:275,1,90,8|0,0:0|0:0,0:0:0:0:
478,189,79053,2,0,L|378:174,1,90
282,43,79366,5,0,0:0:0:0:
311,122,79522,1,0,0:0:0:0:
181,204,79678,2,0,L|214:118,1,90
403,263,79991,2,0,P|332:247|277:258,1,90,8|0,0:0|0:0,0:0:0:0:
166,313,80303,2,0,P|237:329|292:318,1,90
455,204,80616,6,0,P|477:130|439:18,1,180,4|0,0:0|0:0,0:0:0:0:
418,204,81241,2,0,P|440:130|402:18,1,180,8|0,0:0|0:0,0:0:0:0:
399,117,81709,6,0,P|390:60|368:28,1,90
363,125,82022,2,0,P|354:68|332:36,1,90
171,66,82334,1,0,0:0:0:0:
277,107,82491,5,8,0:0:0:0:
219,257,82647,1,8,0:0:0:0:
88,148,82804,5,8,0:0:0:0:
412,229,82959,1,8,0:0:0:0:
84,272,83116,5,4,0:0:0:0:
256,192,83194,12,0,86866,0:0:0:0:
381,105,87178,6,0,P|349:150|271:124,1,135
240,73,87491,6,0,L|243:258,1,168.75
163,320,87803,6,0,P|196:277|322:351,1,202.500007724762
481,241,88116,5,4,0:0:0:0:
317,317,88272,2,0,P|378:335|448:301,1,112.5
390,129,88584,1,0,0:0:0:0:
214,177,88741,2,0,P|275:159|345:193,1,112.5,8|0,0:0|0:0,0:0:0:0:
207,335,89053,1,0,0:0:0:0:
405,237,89209,6,0,L|166:259,1,225,4|0,0:0|0:0,0:0:0:0:
73,57,89678,6,0,P|155:73|147:120,1,112.5
101,261,89991,2,0,P|117:179|164:187,1,112.5,8|0,0:0|0:0,0:0:0:0:
317,246,90303,2,0,P|235:230|243:183,1,112.5
485,117,90616,6,0,L|246:95,1,225,4|0,0:0|0:0,0:0:0:0:
143,197,91084,1,0,0:0:0:0:
317,246,91241,2,0,P|248:231|197:250,1,112.5,8|0,0:0|0:0,0:0:0:0:
127,356,91553,1,0,0:0:0:0:
351,335,91709,6,0,L|112:357,1,225,4|0,0:0|0:0,0:0:0:0:
44,249,92178,2,0,P|18:196|20:119,1,112.5
208,16,92491,2,0,P|234:69|232:146,1,112.5,8|0,0:0|0:0,0:0:0:0:
95,29,92803,1,0,0:0:0:0:
318,141,92959,1,0,0:0:0:0:
14,143,93116,6,0,L|238:122,1,225,4|0,0:0|0:0,0:0:0:0:
387,184,93584,1,0,0:0:0:0:
215,254,93741,2,0,P|270:244|325:252,1,112.5,8|0,0:0|0:0,0:0:0:0:
393,320,94053,1,0,0:0:0:0:
31,332,94209,6,0,L|255:352,1,225,4|0,0:0|0:0,0:0:0:0:
257,124,94678,2,0,P|314:161|301:216,1,112.5
438,148,94991,2,0,P|434:215|380:232,1,112.5,8|0,0:0|0:0,0:0:0:0:
486,310,95303,2,0,P|425:340|384:302,1,112.5
29,187,95616,6,0,L|268:165,1,225,4|0,0:0|0:0,0:0:0:0:
357,287,96084,1,0,0:0:0:0:
177,267,96241,2,0,P|231:252|300:263,1,112.5,8|0,0:0|0:0,0:0:0:0:
420,372,96553,1,8,0:0:0:0:
196,352,96709,6,0,L|435:374,1,225,4|0,0:0|0:0,0:0:0:0:
414,156,97178,6,8,P|371:116|408:75,1,112.5,8|0,0:0|0:0,0:0:0:0:
201,190,97491,6,8,P|214:132|268:144,1,112.5,8|0,0:0|0:0,0:0:0:0:
47,205,97803,5,8,0:0:0:0:
280,46,97959,1,8,0:0:0:0:
453,300,98116,6,0,L|215:279,1,225,4|0,0:0|0:0,0:0:0:0:
194,148,98584,1,0,0:0:0:0:
392,212,98741,2,0,P|336:219|278:199,1,112.5,8|0,0:0|0:0,0:0:0:0:
175,24,99053,1,0,0:0:0:0:
505,54,99209,6,0,L|267:75,1,225,4|0,0:0|0:0,0:0:0:0:
120,214,99678,6,0,P|77:174|114:133,1,112.5
287,271,99991,2,0,P|247:314|206:277,1,112.5,8|0,0:0|0:0,0:0:0:0:
401,138,100303,2,0,P|423:184|381:215,1,112.5
7,227,100616,6,0,L|245:206,1,225,4|0,0:0|0:0,0:0:0:0:
310,56,101084,1,0,0:0:0:0:
110,112,101241,2,0,P|177:101|250:127,1,112.5,8|0,0:0|0:0,0:0:0:0:
362,283,101553,1,0,0:0:0:0:
43,343,101709,6,0,L|281:364,1,225,4|0,0:0|0:0,0:0:0:0:
445,247,102178,2,0,P|456:189|432:119,1,112.5
161,142,102491,2,0,P|150:200|174:270,1,112.5,8|0,0:0|0:0,0:0:0:0:
247,0,102803,1,0,0:0:0:0:
116,82,102959,1,0,0:0:0:0:
385,122,103116,6,0,L|147:143,1,225,4|0,0:0|0:0,0:0:0:0:
95,292,103584,1,0,0:0:0:0:
283,273,103741,2,0,P|238:235|158:261,1,112.5,8|0,0:0|0:0,0:0:0:0:
11,344,104053,1,0,0:0:0:0:
332,273,104209,6,0,P|248:236|288:320,1,225,4|0,0:0|0:0,0:0:0:0:
287,120,104678,1,0,0:0:0:0:
65,262,104834,6,0,B|109:247|109:247|142:273|180:256|268:255|303:283,1,225,8|0,0:0|0:0,0:0:0:0:
260,61,105303,2,0,B|227:84|227:84|254:123|324:124,1,112.5,8|0,0:0|0:0,0:0:0:0:
512,101,105616,6,0,L|274:122,1,225,4|0,0:0|0:0,0:0:0:0:
281,264,106084,1,0,0:0:0:0:
471,263,106241,2,0,P|411:236|344:242,1,112.5,8|0,0:0|0:0,0:0:0:0:
158,322,106553,1,0,0:0:0:0:
469,363,106709,6,0,L|231:342,1,225,4|8,0:0|0:0,0:0:0:0:
158,322,107100,1,8,0:0:0:0:
158,322,107178,1,8,0:0:0:0:
88,157,107334,1,8,0:0:0:0:
87,275,107491,1,8,0:0:0:0:
188,90,107647,1,8,0:0:0:0:
140,215,107803,5,8,0:0:0:0:
104,51,107959,1,8,0:0:0:0:
412,116,108116,5,4,0:0:0:0:
412,116,108741,1,0,0:0:0:0:
412,116,109366,1,0,0:0:0:0:
412,116,109991,1,0,0:0:0:0:
0,384,110616,5,0,0:0:0:0:
183,274,111241,2,0,B|155:258|155:258|123:267|101:250|101:250|72:259|41:242,1,135.000005149842
304,351,111866,2,0,B|332:335|332:335|364:344|386:327|386:327|415:336|446:319,1,135.000005149842
463,169,112491,2,0,B|446:156|446:156|414:162|393:149|393:149|364:157|354:141,1,101.250003862381
334,172,112803,2,0,B|308:168|308:168|284:180|254:169,1,67.5000025749208
235,163,113037,1,0,0:0:0:0:
235,163,113116,6,0,P|144:146|48:161,1,180,4|0,0:0|0:0,0:0:0:0:
240,85,113584,2,0,P|189:74|128:72,1,90,0|8,0:0|0:0,0:0:0:0:
32,91,113897,1,0,0:0:0:0:
109,273,114053,1,0,0:0:0:0:
77,152,114209,1,0,0:0:0:0:
66,345,114366,6,0,B|93:354|93:354|114:347|134:354|134:354|163:344,1,90,4|0,0:0|0:0,0:0:0:0:
224,178,114678,1,0,0:0:0:0:
222,317,114834,1,0,0:0:0:0:
176,117,114991,2,0,L|160:17,1,90,8|0,0:0|0:0,0:0:0:0:
63,173,115303,1,0,0:0:0:0:
91,20,115459,1,0,0:0:0:0:
109,238,115616,6,0,B|140:246|140:246|176:211|252:223,1,135,4|0,0:0|0:0,0:0:0:0:
307,243,115928,1,0,0:0:0:0:
139,342,116084,1,0,0:0:0:0:
117,347,116162,1,0,0:0:0:0:
94,347,116240,1,8,0:0:0:0:
268,314,116397,1,0,0:0:0:0:
47,288,116553,1,0,0:0:0:0:
212,368,116709,1,0,0:0:0:0:
164,160,116866,6,0,L|139:66,1,90,8|0,0:0|0:0,0:0:0:0:
360,130,117178,1,0,0:0:0:0:
357,152,117256,1,0,0:0:0:0:
354,174,117334,1,0,0:0:0:0:
352,197,117412,1,0,0:0:0:0:
316,240,117491,6,0,L|341:334,1,90,8|0,0:0|0:0,0:0:0:0:
232,212,117803,1,0,0:0:0:0:
265,384,117959,1,0,0:0:0:0:
164,167,118116,6,0,P|116:151|160:219,1,180,4|0,0:0|0:0,0:0:0:0:
290,106,118584,1,0,0:0:0:0:
311,100,118662,1,0,0:0:0:0:
331,99,118741,2,0,P|372:95|403:103,1,45,8|0,0:0|0:0,0:0:0:0:
263,5,118897,2,0,P|240:5|218:1,1,45
87,79,119053,2,0,P|128:75|204:84,1,90,8|0,0:0|0:0,0:0:0:0:
325,243,119366,6,0,P|373:259|329:191,1,180,4|0,0:0|0:0,0:0:0:0:
199,304,119834,1,0,0:0:0:0:
177,309,119912,1,0,0:0:0:0:
158,311,119991,2,0,P|117:315|86:307,1,45,8|0,0:0|0:0,0:0:0:0:
247,233,120147,2,0,P|269:232|291:236,1,45
372,352,120303,2,0,P|331:356|255:347,1,90,8|0,0:0|0:0,0:0:0:0:
468,379,120616,6,0,L|486:223,1,135
486,229,120928,5,0,0:0:0:0:
489,210,121006,1,0,0:0:0:0:
492,191,121084,1,0,0:0:0:0:
495,172,121162,1,0,0:0:0:0:
461,149,121241,5,0,0:0:0:0:
458,129,121319,1,0,0:0:0:0:
455,110,121397,1,0,0:0:0:0:
452,91,121475,1,0,0:0:0:0:
410,82,121553,5,0,0:0:0:0:
407,101,121631,1,0,0:0:0:0:
404,120,121709,1,0,0:0:0:0:
401,139,121787,1,0,0:0:0:0:
329,161,121866,5,8,0:3:0:0:
284,142,121944,1,8,0:3:0:0:
244,170,122022,1,8,0:3:0:0:
245,218,122100,1,8,0:3:0:0:
286,243,122178,5,0,0:0:0:0:
259,229,122256,1,0,0:0:0:0:
229,230,122334,1,0,0:0:0:0:
203,245,122412,1,0,0:0:0:0:
187,270,122490,1,0,0:0:0:0:
185,300,122568,1,0,0:0:0:0:
196,327,122646,1,0,0:0:0:0:
220,346,122724,1,0,0:0:0:0:
249,352,122803,6,0,P|290:353|319:339,1,45,8|0,0:3|0:0,0:0:0:0:
424,283,122959,2,0,P|383:283|354:269,1,45,8|0,0:3|0:0,0:0:0:0:
316,174,123116,6,0,P|405:163|494:178,1,180,4|0,0:0|0:0,0:0:0:0:
423,87,123584,2,0,P|467:91|511:103,1,90,0|8,0:0|0:0,0:0:0:0:
334,89,123897,1,0,0:0:0:0:
235,218,124053,1,0,0:0:0:0:
174,113,124209,1,0,0:0:0:0:
269,334,124366,6,0,B|296:343|296:343|317:336|337:343|337:343|366:333,1,90,4|0,0:0|0:0,0:0:0:0:
423,87,124678,2,0,P|378:95|334:89,1,90
263,116,124912,1,0,0:0:0:0:
263,116,124991,2,0,P|218:108|174:114,1,90,8|0,0:0|0:0,0:0:0:0:
86,230,125303,1,0,0:0:0:0:
113,73,125459,1,0,0:0:0:0:
147,277,125616,6,0,P|205:296|248:289,1,90,4|0,0:0|0:0,0:0:0:0:
326,184,125928,1,0,0:0:0:0:
435,256,126084,1,0,0:0:0:0:
434,278,126162,1,0,0:0:0:0:
433,302,126241,2,0,P|434:335|446:361,1,45,8|0,0:0|0:0,0:0:0:0:
332,338,126397,2,0,P|350:360|379:376,1,45
512,359,126553,5,0,0:0:0:0:
359,268,126709,1,0,0:0:0:0:
501,182,126866,6,0,P|435:166|307:193,1,180,4|0,0:0|0:0,0:0:0:0:
248,173,127256,1,0,0:0:0:0:
248,173,127334,1,0,0:0:0:0:
135,285,127491,5,8,0:0:0:0:
94,106,127647,1,4,0:0:0:0:
80,223,127803,1,8,0:0:0:0:
165,61,127959,1,4,0:0:0:0:
358,192,128116,6,0,L|166:215,1,180,4|0,0:0|0:0,0:0:0:0:
109,349,128584,1,0,0:0:0:0:
70,151,128741,2,0,P|56:110|66:56,1,90,8|0,0:0|0:0,0:0:0:0:
245,22,129053,2,0,P|255:68|252:98,1,45
236,212,129209,2,0,P|226:166|229:136,1,45
418,117,129366,6,0,P|439:187|421:300,1,180,4|0,0:0|0:0,0:0:0:0:
336,375,129834,1,0,0:0:0:0:
227,296,129991,2,0,P|244:291|287:294,1,45,8|0,0:0|0:0,0:0:0:0:
162,216,130147,2,0,P|139:218|118:226,1,45
0,288,130303,2,0,P|47:302|101:304,1,90
325,220,130616,6,0,P|297:211|230:214,1,90,4|0,0:0|0:0,0:0:0:0:
68,159,130928,2,0,P|109:153|133:157,1,45
196,79,131084,2,0,L|206:124,1,45
395,146,131241,6,0,P|350:147|307:134,1,90,12|0,0:0|0:0,0:0:0:0:
192,66,131553,2,0,L|182:21,1,45
56,166,131709,2,0,L|12:176,1,45
204,191,131866,5,4,0:0:0:0:
226,196,131944,1,0,0:0:0:0:
250,199,132022,5,8,0:0:0:0:
213,226,132100,1,8,0:0:0:0:
177,251,132178,1,8,0:0:0:0:
77,289,132334,1,8,0:0:0:0:
277,289,132491,1,8,0:0:0:0:
177,251,132647,1,8,0:0:0:0:
377,251,132803,1,8,0:0:0:0:
277,289,132959,1,8,0:0:0:0:
497,371,133116,5,4,0:0:0:0:
497,371,133428,1,0,0:0:0:0:
482,291,133584,1,0,0:0:0:0:
468,211,133741,1,8,0:0:0:0:
468,211,134366,5,0,0:0:0:0:
417,145,134523,2,0,P|375:131|330:127,1,90,8|0,0:0|0:0,0:0:0:0:
168,153,134834,1,0,0:0:0:0:
218,218,134991,2,0,P|273:235|324:234,1,90,8|0,0:0|0:0,0:0:0:0:
411,316,135303,1,0,0:0:0:0:
375,208,135459,1,0,0:0:0:0:
347,356,135616,5,4,0:0:0:0:
347,356,135928,1,0,0:0:0:0:
267,340,136084,1,0,0:0:0:0:
187,326,136241,2,0,P|137:310|89:278,1,90,8|0,0:0|0:0,0:0:0:0:
317,210,136553,2,0,P|278:245|226:270,1,90
178,93,136866,2,0,P|228:109|276:141,1,90
48,209,137178,2,0,P|86:173|138:148,1,90
406,157,137491,6,0,P|417:208|413:265,1,90,8|0,0:0|0:0,0:0:0:0:
359,291,137725,1,0,0:0:0:0:
359,291,137803,2,0,P|328:297|303:293,1,45
260,345,137959,2,0,P|239:321|230:297,1,45
145,312,138116,5,4,0:0:0:0:
145,312,138428,1,0,0:0:0:0:
130,232,138584,1,0,0:0:0:0:
116,152,138741,2,0,B|113:47|209:28|209:28|154:91,1,225,8|0,0:0|0:0,0:0:0:0:
176,81,139366,5,4,0:0:0:0:
176,81,139678,1,0,0:0:0:0:
191,161,139834,1,0,0:0:0:0:
205,241,139991,2,0,B|204:288|238:305|238:305|240:282,1,90,8|0,0:0|0:0,0:0:0:0:
297,205,140303,1,0,0:0:0:0:
330,280,140459,1,0,0:0:0:0:
381,210,140616,5,4,0:0:0:0:
381,210,140928,2,0,P|410:164|482:154,1,90
459,229,141241,2,0,P|522:155|398:82,1,270,8|0,0:0|0:0,0:0:0:0:
305,131,141866,5,0,0:0:0:0:
280,143,141944,1,0,0:0:0:0:
236,153,142022,1,8,0:0:0:0:
176,140,142100,1,8,0:0:0:0:
114,108,142178,5,8,0:0:0:0:
96,271,142334,1,8,0:0:0:0:
69,168,142491,1,8,0:0:0:0:
160,310,142647,1,8,0:0:0:0:
236,153,142803,5,8,0:0:0:0:
297,291,142959,1,8,0:0:0:0:
294,58,143116,5,12,0:0:0:0:
294,58,143428,1,0,0:0:0:0:
309,138,143584,1,0,0:0:0:0:
323,218,143741,1,8,0:0:0:0:
491,303,143975,5,0,0:0:0:0:
473,326,144053,2,0,P|438:331|415:320,1,45
384,381,144209,2,0,P|362:353|360:327,1,45
284,324,144366,6,0,P|302:291|366:267,1,90
427,126,144678,1,0,0:0:0:0:
411,224,144834,1,0,0:0:0:0:
364,78,144991,2,0,P|346:45|282:21,1,90,8|0,0:0|0:0,0:0:0:0:
269,183,145303,1,0,0:0:0:0:
288,99,145459,1,0,0:0:0:0:
251,266,145616,5,4,0:0:0:0:
251,266,145928,1,0,0:0:0:0:
170,291,146084,2,0,P|112:300|66:300,1,90,0|8,0:0|0:0,0:0:0:0:
235,345,146397,1,0,0:0:0:0:
187,210,146553,1,0,0:0:0:0:
317,169,146709,1,0,0:0:0:0:
364,308,146866,5,0,0:0:0:0:
364,308,147178,2,0,L|389:197,1,90
365,83,147491,2,0,P|398:120|421:38,1,180,8|0,0:0|0:0,0:0:0:0:
219,173,147959,1,0,0:0:0:0:
398,193,148116,6,0,L|206:172,1,180,4|0,0:0|0:0,0:0:0:0:
152,261,148584,1,0,0:0:0:0:
111,61,148741,1,8,0:0:0:0:
36,178,148897,5,0,0:0:0:0:
222,138,149053,1,0,0:0:0:0:
36,178,149209,2,0,L|149:156,1,90
124,160,149678,6,0,P|148:80|144:39,1,90
336,268,149991,2,0,P|312:348|316:389,1,90,8|0,0:0|0:0,0:0:0:0:
188,64,150303,6,0,P|146:33|167:112,1,180,0|8,0:0|0:3,0:0:0:0:
496,364,150772,6,0,L|473:162,1,180,4|0,0:0|0:0,0:0:0:0:
443,286,151241,2,0,L|429:173,1,90,8|0,0:0|0:0,0:0:0:0:
406,290,151553,2,0,L|392:177,1,90
185,301,151866,5,4,0:0:0:0:
245,87,152022,1,8,0:0:0:0:
133,160,152178,5,8,0:0:0:0:
318,242,152334,1,8,0:0:0:0:
169,93,152491,5,8,0:0:0:0:
263,316,152647,1,8,0:0:0:0:
256,50,152803,5,8,0:0:0:0:
171,341,152959,1,8,0:0:0:0:
429,145,153116,6,0,P|371:131|321:134,1,90,4|0,0:0|0:0,0:0:0:0:
317,242,153428,2,0,P|273:240|229:228,1,90
129,70,153741,1,8,0:0:0:0:
203,152,153897,1,0,0:0:0:0:
66,148,154053,1,0,0:0:0:0:
240,86,154209,1,0,0:0:0:0:
67,227,154366,6,0,P|125:213|175:216,1,90
178,324,154678,2,0,P|222:322|266:310,1,90
461,208,154991,2,0,B|388:151|276:188|276:188|358:217,1,270,8|0,0:0|0:0,0:0:0:0:
402,286,155616,5,4,0:0:0:0:
347,213,155772,2,0,B|380:161|380:161|293:120|299:39,1,180
155,13,156241,1,8,0:0:0:0:
220,94,156397,1,0,0:0:0:0:
92,81,156553,1,0,0:0:0:0:
258,18,156709,1,0,0:0:0:0:
150,147,156866,5,0,0:0:0:0:
220,211,157022,2,0,P|283:221|332:219,1,90,8|0,0:0|0:0,0:0:0:0:
404,113,157334,1,0,0:0:0:0:
469,175,157490,2,0,P|479:238|477:287,1,90,8|0,0:0|0:0,0:0:0:0:
319,310,157803,2,0,P|309:247|311:198,1,90
237,111,158116,6,0,P|290:78|323:111,1,90,4|0,0:0|0:0,0:0:0:0:
252,37,158428,2,0,P|307:66|295:111,1,90
323,13,158741,2,0,P|325:75|280:87,1,90,8|0,0:0|0:0,0:0:0:0:
115,188,159053,2,0,L|214:174,1,90
362,161,159366,1,0,0:0:0:0:
362,161,159522,1,0,0:0:0:0:
254,312,159678,6,0,B|220:255|220:255|308:219|275:129,1,180,0|8,0:0|0:0,0:0:0:0:
231,56,160147,1,0,0:0:0:0:
109,175,160303,2,0,L|198:162,1,90
365,297,160616,6,0,P|374:240|396:208,1,90
388,306,160928,2,0,P|397:249|419:217,1,90
416,320,161241,2,0,P|425:263|447:231,1,90
511,120,161553,2,0,L|412:134,1,90
287,175,161866,1,0,0:0:0:0:
168,294,162022,5,0,0:0:0:0:
154,116,162178,6,0,B|136:32|136:32|172:69,1,107.999996704102
287,175,162491,6,0,B|309:83|309:83|263:134,1,125.999996154785,8|0,0:0|0:0,0:0:0:0:
93,267,162803,6,0,B|86:368|86:368|127:315,1,135.000005149842,8|0,0:0|0:0,0:0:0:0:
366,230,163116,6,0,L|385:42,1,180,4|0,0:0|0:0,0:0:0:0:
469,25,163584,1,0,0:0:0:0:
294,63,163741,1,8,0:0:0:0:
214,178,163897,1,0,0:0:0:0:
220,84,164053,1,0,0:0:0:0:
290,220,164209,1,0,0:0:0:0:
241,9,164366,5,8,0:0:0:0:
241,9,164522,1,8,0:0:0:0:
120,127,164678,2,0,L|95:224,1,90
290,220,164991,2,0,P|235:176|257:291,1,270,8|0,0:0|0:0,0:0:0:0:
488,120,165616,6,0,L|459:223,1,90,4|0,0:0|0:0,0:0:0:0:
233,236,165928,2,0,L|192:38,1,180,0|8,0:0|0:0,0:0:0:0:
270,5,166397,1,0,0:0:0:0:
364,149,166553,1,0,0:0:0:0:
344,37,166709,1,0,0:0:0:0:
309,204,166866,5,0,0:0:0:0:
218,263,167022,2,0,P|153:264|107:251,1,90,8|0,0:0|0:0,0:0:0:0:
0,204,167334,1,0,0:0:0:0:
83,140,167490,2,0,P|148:139|194:152,1,90,8|0,0:0|0:0,0:0:0:0:
266,327,167803,1,0,0:0:0:0:
231,185,167959,1,0,0:0:0:0:
193,360,168116,6,0,P|140:327|107:360,1,90,4|0,0:0|0:0,0:0:0:0:
178,287,168428,2,0,P|122:317|135:362,1,90
107,262,168741,2,0,P|104:325|150:337,1,90,8|0,0:0|0:0,0:0:0:0:
313,202,169053,1,0,0:0:0:0:
202,179,169209,1,0,0:0:0:0:
348,306,169366,1,8,0:0:0:0:
348,306,169522,1,8,0:0:0:0:
422,158,169678,6,0,P|488:164|425:219,1,180,0|8,0:0|0:0,0:0:0:0:
313,202,170147,1,0,0:0:0:0:
214,284,170303,2,0,L|195:383,1,90
52,40,170616,6,0,P|126:18|238:56,1,180,4|0,0:0|0:0,0:0:0:0:
52,77,171241,2,0,P|126:55|238:93,1,180,8|0,0:0|0:0,0:0:0:0:
139,96,171709,6,0,P|196:105|228:126,1,90
131,132,172022,2,0,P|188:141|220:163,1,90,0|8,0:0|0:0,0:0:0:0:
393,149,172334,5,8,0:0:0:0:
276,194,172491,1,8,0:0:0:0:
340,359,172647,1,8,0:0:0:0:
484,239,172804,5,8,0:0:0:0:
127,328,172959,1,8,0:0:0:0:
486,381,173116,5,4,0:0:0:0:
256,192,173194,12,0,175303,0:0:0:0:
210,103,175616,6,0,P|198:59|205:28,1,45,8|0,0:0|0:0,0:0:0:0:
155,153,175772,5,8,0:3:0:0:
133,172,175850,1,0,0:3:0:0:
124,201,175928,1,0,0:0:0:0:
130,229,176006,1,8,0:3:0:0:
151,251,176084,1,0,0:0:0:0:
179,259,176162,1,0,0:0:0:0:
207,254,176241,6,0,P|254:252|279:258,3,45,8|0|0|0,0:3|0:0|0:0|0:0,0:0:0:0:
273,330,176553,2,0,P|320:332|345:326,1,45,8|0,0:3|0:0,0:0:0:0:
187,341,176709,5,0,0:0:0:0:
172,342,176787,1,0,0:0:0:0:
157,344,176865,1,0,0:0:0:0:
142,345,176943,1,0,0:0:0:0:
89,340,177022,6,0,P|62:344|36:356,1,45,8|0,0:3|0:0,0:0:0:0:
95,260,177178,5,0,0:0:0:0:
87,254,177256,1,0,0:0:0:0:
76,242,177334,1,0,0:0:0:0:
68,225,177412,1,0,0:0:0:0:
67,204,177491,5,0,0:0:0:0:
73,182,177569,1,0,0:0:0:0:
87,164,177647,1,0,0:0:0:0:
112,150,177725,1,0,0:0:0:0:
148,151,177803,5,0,0:0:0:0:
187,174,177881,1,0,0:0:0:0:
239,182,177959,1,0,0:0:0:0:
303,168,178037,1,0,0:0:0:0:
354,116,178116,6,0,B|254:62|254:62|128:73,1,225,4|0,0:0|0:0,0:0:0:0:
124,219,178584,1,0,0:0:0:0:
311,274,178741,2,0,P|224:264|166:285,1,112.5,8|0,0:0|0:0,0:0:0:0:
72,367,179053,1,0,0:0:0:0:
371,367,179209,6,0,L|148:335,1,225,4|0,0:0|0:0,0:0:0:0:
27,88,179678,6,0,P|109:104|101:151,1,112.5
55,292,179991,2,0,P|71:210|118:218,1,112.5,8|0,0:0|0:0,0:0:0:0:
271,277,180303,2,0,P|189:261|197:214,1,112.5
512,161,180616,6,0,L|289:193,1,225,4|0,0:0|0:0,0:0:0:0:
137,31,181084,1,0,0:0:0:0:
324,86,181241,2,0,P|237:76|179:97,1,112.5,8|0,0:0|0:0,0:0:0:0:
82,231,181553,1,0,0:0:0:0:
390,324,181709,6,0,L|167:292,1,225,4|0,0:0|0:0,0:0:0:0:
126,104,182178,2,0,P|64:103|13:119,1,112.5
275,182,182491,2,0,P|337:183|388:167,1,112.5,8|0,0:0|0:0,0:0:0:0:
165,374,182803,1,0,0:0:0:0:
275,182,182959,1,0,0:0:0:0:
24,249,183116,6,0,L|247:281,1,225,4|0,0:0|0:0,0:0:0:0:
367,141,183584,1,0,0:0:0:0:
166,167,183741,2,0,P|237:187|288:177,1,112.5,8|0,0:0|0:0,0:0:0:0:
394,18,184053,1,0,0:0:0:0:
93,35,184209,6,0,L|316:67,1,225,4|0,0:0|0:0,0:0:0:0:
302,265,184678,2,0,P|245:228|258:173,1,112.5
121,241,184991,2,0,P|125:174|179:157,1,112.5,8|0,0:0|0:0,0:0:0:0:
74,80,185303,2,0,P|135:50|176:88,1,112.5
471,84,185616,6,0,L|248:116,1,225,4|0,0:0|0:0,0:0:0:0:
181,279,186084,1,0,0:0:0:0:
353,206,186241,2,0,P|297:198|242:210,1,112.5,8|0,0:0|0:0,0:0:0:0:
128,352,186553,1,0,0:0:0:0:
447,321,186709,6,0,L|224:353,1,225,4|8,0:0|0:0,0:0:0:0:
84,149,187178,6,8,P|127:189|90:230,1,112.5,8|0,0:0|0:0,0:0:0:0:
305,114,187491,6,8,P|292:172|238:160,1,112.5,8|0,0:0|0:0,0:0:0:0:
439,187,187803,5,8,0:0:0:0:
190,272,187959,1,8,0:0:0:0:
41,58,188116,6,0,L|264:26,1,225,4|0,0:0|0:0,0:0:0:0:
385,120,188584,1,0,0:0:0:0:
175,138,188741,2,0,P|231:114|303:121,1,112.5,8|0,0:0|0:0,0:0:0:0:
381,289,189053,1,0,0:0:0:0:
73,299,189209,6,0,L|296:331,1,225,4|0,0:0|0:0,0:0:0:0:
504,226,189678,6,0,P|422:210|430:163,1,112.5
453,5,189991,2,0,P|437:87|390:79,1,112.5,8|0,0:0|0:0,0:0:0:0:
239,110,190303,2,0,P|321:126|313:173,1,112.5
0,215,190616,6,0,L|223:183,1,225,4|0,0:0|0:0,0:0:0:0:
384,82,191084,1,0,0:0:0:0:
189,28,191241,2,0,P|252:13|320:35,1,112.5,8|0,0:0|0:0,0:0:0:0:
366,237,191553,1,0,0:0:0:0:
79,290,191709,6,0,L|302:322,1,225,4|0,0:0|0:0,0:0:0:0:
386,121,192178,2,0,P|385:59|401:8,1,112.5
487,271,192491,2,0,P|488:333|472:384,1,112.5,8|0,0:0|0:0,0:0:0:0:
302,114,192803,1,0,0:0:0:0:
194,279,192959,1,0,0:0:0:0:
512,184,193116,6,0,L|282:219,1,225,4|0,0:0|0:0,0:0:0:0:
82,143,193584,1,0,0:0:0:0:
294,268,193741,2,0,P|308:200|258:157,1,112.5,8|0,0:0|0:0,0:0:0:0:
32,271,194053,1,0,0:0:0:0:
326,341,194209,6,0,B|387:322|385:271|385:271|349:227|287:253|287:253|307:297,1,225,4|0,0:0|0:0,0:0:0:0:
361,158,194678,1,0,0:0:0:0:
111,234,194834,6,0,B|163:260|211:236|211:236|218:287|245:319|245:319|303:295|292:255,1,270.000010299683,8|0,0:0|0:0,0:0:0:0:
235,87,195303,6,0,B|202:110|202:110|229:149|299:150,1,112.5,8|0,0:0|0:0,0:0:0:0:
484,112,195616,6,0,L|254:147,1,225,4|0,0:0|0:0,0:0:0:0:
137,237,196084,1,0,0:0:0:0:
329,277,196241,2,0,P|270:252|205:276,1,112.5,8|0,0:0|0:0,0:0:0:0:
69,379,196553,1,0,0:0:0:0:
264,347,196709,1,0,0:0:0:0:
0,293,196866,6,0,L|175:321,1,168.75,4|0,0:0|0:0,0:0:0:0:
224,262,197178,1,8,0:0:0:0:
187,125,197334,1,8,0:0:0:0:
84,212,197491,1,8,0:0:0:0:
322,171,197647,1,8,0:0:0:0:
163,50,197803,5,8,0:0:0:0:
248,342,197959,1,8,0:0:0:0:
374,44,198116,5,4,0:0:0:0:
374,44,198428,2,0,B|413:78|413:78|453:66|458:24,1,112.5
238,151,198741,2,0,B|277:117|277:117|317:129|322:171,1,112.5,8|0,0:0|0:0,0:0:0:0:
97,49,199053,2,0,B|136:83|136:83|176:71|181:29,1,112.5
39,253,199366,5,4,0:0:0:0:
39,253,199678,2,0,P|75:243|118:251,1,56.25
157,287,199834,1,0,0:0:0:0:
299,218,199991,2,0,B|296:189|256:177|256:177|217:211,1,112.5,8|0,0:0|0:0,0:0:0:0:
335,316,200303,2,0,B|384:288|449:296|496:317|496:317|487:281|424:265,1,225,0|4,0:0|0:0,0:0:0:0:
417,202,200928,6,0,B|456:168|456:168|496:180|501:222,1,112.5
281,95,201241,2,0,B|320:129|320:129|360:117|365:75,1,112.5,8|0,0:0|0:0,0:0:0:0:
140,197,201553,2,0,B|179:163|179:163|219:175|224:217,1,112.5
45,107,201866,5,8,0:3:0:0:
45,107,202022,1,8,0:3:0:0:
201,42,202178,2,0,B|198:13|158:1|158:1|119:35,1,112.5
264,134,202491,2,0,B|267:163|307:175|307:175|346:141,1,112.5,8|0,0:0|0:0,0:0:0:0:
493,66,202803,2,0,B|490:37|450:25|450:25|411:59,1,112.5
417,129,203037,1,0,0:0:0:0:
443,167,203116,5,4,0:0:0:0:
419,238,203428,6,0,B|458:272|458:272|498:260|503:218,1,112.5
272,310,203741,2,0,B|311:276|311:276|351:288|356:330,1,112.5,8|0,0:0|0:0,0:0:0:0:
130,265,204053,1,0,0:0:0:0:
222,215,204209,1,0,0:0:0:0:
58,185,204366,6,0,B|9:146|-10:91|20:32|78:-2|149:14|167:59|111:93|111:93|136:112|175:98|175:98|219:82|285:110,1,450,4|8,0:0|0:0,0:0:0:0:
454,60,205303,2,0,B|415:26|415:26|375:38|370:80,1,112.5
414,229,205616,5,0,0:0:0:0:
398,232,205694,1,0,0:0:0:0:
382,235,205772,1,0,0:0:0:0:
366,238,205850,1,0,0:0:0:0:
350,241,205928,1,0,0:0:0:0:
335,244,206006,1,0,0:0:0:0:
319,247,206084,1,0,0:0:0:0:
303,251,206162,1,0,0:0:0:0:
287,254,206241,6,0,P|259:251|220:231,1,56.25,8|0,0:3|0:0,0:0:0:0:
112,230,206397,2,0,P|140:227|179:207,1,56.25,8|0,0:3|0:0,0:0:0:0:
210,111,206553,2,0,P|222:153|216:180,1,56.25,8|0,0:3|0:0,0:0:0:0:
190,349,206709,2,0,P|178:307|184:280,1,56.25,8|0,0:3|0:0,0:0:0:0:
13,154,206866,5,8,0:3:0:0:
22,100,206944,1,8,0:3:0:0:
68,71,207022,1,8,0:3:0:0:
120,87,207100,1,8,0:3:0:0:
142,137,207178,5,0,0:0:0:0:
122,125,207256,1,0,0:0:0:0:
107,104,207334,1,0,0:0:0:0:
103,77,207412,1,0,0:0:0:0:
117,61,207491,5,0,0:0:0:0:
137,47,207569,1,0,0:0:0:0:
177,52,207647,1,0,0:0:0:0:
204,86,207725,1,0,0:0:0:0:
237,116,207803,5,0,0:0:0:0:
283,134,207881,1,0,0:0:0:0:
332,138,207959,1,0,0:0:0:0:
393,122,208037,1,0,0:0:0:0:
446,81,208116,5,4,0:0:0:0:
370,340,208428,6,0,B|409:306|409:306|449:318|454:360,1,112.5
234,233,208741,2,0,B|273:267|273:267|313:255|318:213,1,112.5,8|0,0:0|0:0,0:0:0:0:
93,335,209053,2,0,B|132:301|132:301|172:313|177:355,1,112.5
32,143,209366,6,0,B|91:100|133:135|133:135|177:173|243:146|243:146|309:121|374:146,1,337.5,4|0,0:0|0:0,0:0:0:0:
510,251,209991,2,0,P|468:209|418:276,1,112.5,8|0,0:0|0:0,0:0:0:0:
358,371,210303,2,0,P|373:320|333:285,1,112.5
147,327,210616,5,4,0:0:0:0:
116,62,210928,6,0,B|77:96|77:96|37:84|32:42,1,112.5
252,169,211241,2,0,B|213:135|213:135|173:147|168:189,1,112.5,8|0,0:0|0:0,0:0:0:0:
393,67,211553,2,0,B|354:101|354:101|314:89|309:47,1,112.5
435,227,211866,5,8,0:3:0:0:
435,227,212022,1,8,0:3:0:0:
347,315,212178,2,0,B|308:349|308:349|268:337|263:295,1,112.5
243,148,212491,2,0,P|201:106|151:173,1,112.5,8|0,0:0|0:0,0:0:0:0:
91,268,212803,2,0,P|106:217|66:182,1,112.5
12,377,213116,5,4,0:0:0:0:
97,74,213428,6,0,B|136:40|136:40|176:52|181:94,1,112.5
244,229,213741,2,0,B|283:263|283:263|323:251|328:209,1,112.5,8|0,0:0|0:0,0:0:0:0:
399,50,214053,2,0,L|421:186,1,112.5
458,377,214366,5,4,0:0:0:0:
12,109,214678,6,0,B|48:45|48:45|113:73|96:129,1,144
176,289,214991,2,0,B|212:346|212:346|277:325|260:269,1,144,8|0,0:0|0:0,0:0:0:0:
349,78,215303,2,0,P|408:141|370:177,1,144
86,132,215616,5,8,0:3:0:0:
123,95,215694,1,8,0:3:0:0:
174,102,215772,1,8,0:3:0:0:
200,147,215850,1,8,0:3:0:0:
181,195,215928,5,0,0:0:0:0:
147,182,216006,1,0,0:0:0:0:
146,146,216084,1,0,0:0:0:0:
177,129,216162,1,0,0:0:0:0:
213,132,216241,5,8,0:3:0:0:
263,160,216319,1,8,0:3:0:0:
287,211,216397,1,8,0:3:0:0:
278,267,216475,1,8,0:3:0:0:
237,308,216553,5,0,0:0:0:0:
200,284,216631,1,0,0:0:0:0:
195,241,216709,1,0,0:0:0:0:
233,221,216787,1,0,0:0:0:0:
281,226,216866,5,0,0:0:0:0:
314,248,216944,1,0,0:0:0:0:
355,267,217022,2,0,P|403:274|455:257,1,72,8|0,0:3|0:0,0:0:0:0:
484,164,217178,5,0,0:0:0:0:
465,148,217256,1,0,0:0:0:0:
439,130,217334,1,0,0:0:0:0:
408,118,217412,1,0,0:0:0:0:
372,113,217491,5,0,0:0:0:0:
327,118,217569,1,0,0:0:0:0:
280,138,217647,1,0,0:0:0:0:
241,177,217725,1,0,0:0:0:0:
220,232,217803,5,0,0:0:0:0:
245,290,217881,1,0,0:0:0:0:
298,327,217959,1,0,0:0:0:0:
362,335,218037,1,0,0:0:0:0:
420,296,218116,6,0,B|338:227|338:227|220:233,1,225,4|0,0:0|0:0,0:0:0:0:
124,165,218584,1,0,0:0:0:0:
311,110,218741,2,0,P|224:120|166:99,1,112.5,8|0,0:0|0:0,0:0:0:0:
72,17,219053,1,0,0:0:0:0:
371,17,219209,6,0,L|148:49,1,225,4|0,0:0|0:0,0:0:0:0:
27,296,219678,6,0,P|109:280|101:233,1,112.5
55,92,219991,2,0,P|71:174|118:166,1,112.5,8|0,0:0|0:0,0:0:0:0:
271,107,220303,2,0,P|189:123|197:170,1,112.5
512,223,220616,6,0,L|289:191,1,225,4|0,0:0|0:0,0:0:0:0:
137,353,221084,1,0,0:0:0:0:
324,298,221241,2,0,P|237:308|179:287,1,112.5,8|0,0:0|0:0,0:0:0:0:
82,153,221553,1,0,0:0:0:0:
390,60,221709,6,0,L|167:92,1,225,4|0,0:0|0:0,0:0:0:0:
126,280,222178,2,0,P|64:281|13:265,1,112.5
287,224,222491,2,0,P|349:223|400:239,1,112.5,8|0,0:0|0:0,0:0:0:0:
245,325,222803,1,0,0:0:0:0:
326,123,222959,1,0,0:0:0:0:
24,135,223116,6,0,L|247:103,1,225,4|0,0:0|0:0,0:0:0:0:
391,264,223584,1,0,0:0:0:0:
178,238,223741,2,0,P|249:218|300:228,1,112.5,8|0,0:0|0:0,0:0:0:0:
394,366,224053,1,0,0:0:0:0:
76,356,224209,6,0,L|299:324,1,225,4|0,0:0|0:0,0:0:0:0:
302,119,224678,2,0,P|245:156|258:211,1,112.5
121,143,224991,2,0,P|125:210|179:227,1,112.5,8|0,0:0|0:0,0:0:0:0:
74,304,225303,2,0,P|135:334|176:296,1,112.5
471,306,225616,6,0,L|248:274,1,225,4|0,0:0|0:0,0:0:0:0:
197,132,226084,1,0,0:0:0:0:
376,187,226241,2,0,P|321:198|265:191,1,112.5,8|0,0:0|0:0,0:0:0:0:
225,15,226553,1,0,0:0:0:0:
512,116,226709,6,0,L|289:84,1,225,4|0,0:0|0:0,0:0:0:0:
141,222,227178,6,8,P|184:182|147:141,1,112.5,8|0,0:0|0:0,0:0:0:0:
349,277,227491,6,8,P|336:219|282:231,1,112.5,8|0,0:0|0:0,0:0:0:0:
477,355,227803,5,8,0:0:0:0:
261,147,227959,1,8,0:0:0:0:
0,333,228116,6,0,L|223:365,1,225,4|0,0:0|0:0,0:0:0:0:
373,197,228584,1,0,0:0:0:0:
175,246,228741,2,0,P|231:270|303:263,1,112.5,8|0,0:0|0:0,0:0:0:0:
381,95,229053,1,0,0:0:0:0:
76,109,229209,6,0,L|299:141,1,225,4|0,0:0|0:0,0:0:0:0:
504,158,229678,6,0,P|422:174|430:221,1,112.5
453,379,229991,2,0,P|437:297|390:305,1,112.5,8|0,0:0|0:0,0:0:0:0:
239,274,230303,2,0,P|321:258|313:211,1,112.5
0,169,230616,6,0,L|223:201,1,225,4|0,0:0|0:0,0:0:0:0:
394,263,231084,1,0,0:0:0:0:
202,354,231241,2,0,P|265:369|333:347,1,112.5,8|0,0:0|0:0,0:0:0:0:
366,147,231553,1,0,0:0:0:0:
79,94,231709,6,0,L|302:62,1,225,4|0,0:0|0:0,0:0:0:0:
394,263,232178,2,0,P|393:325|409:376,1,112.5
488,124,232491,2,0,P|489:62|473:11,1,112.5,8|0,0:0|0:0,0:0:0:0:
277,298,232803,1,0,0:0:0:0:
197,74,232959,1,0,0:0:0:0:
512,207,233116,6,0,L|282:172,1,225,4|0,0:0|0:0,0:0:0:0:
82,241,233584,1,0,0:0:0:0:
290,127,233741,2,0,P|304:195|254:238,1,112.5,8|0,0:0|0:0,0:0:0:0:
65,160,234053,1,0,0:0:0:0:
331,36,234209,6,0,B|389:74|379:121|379:121|370:141|302:156|302:156|277:136|299:109,1,225,4|0,0:0|0:0,0:0:0:0:
348,235,234678,1,0,0:0:0:0:
65,160,234834,6,0,B|117:134|137:98|137:98|172:107|196:141|196:141|257:99|304:135,1,270.000010299683,8|0,0:0|0:0,0:0:0:0:
235,297,235303,6,0,B|202:274|202:274|229:235|299:234,1,112.5,8|0,0:0|0:0,0:0:0:0:
484,272,235616,6,0,L|254:237,1,225,4|0,0:0|0:0,0:0:0:0:
137,147,236084,1,0,0:0:0:0:
329,107,236241,2,0,P|270:132|205:108,1,112.5,8|0,0:0|0:0,0:0:0:0:
46,29,236553,2,0,L|58:113,1,56.25,8|0,0:3|0:0,0:0:0:0:
108,248,236709,1,8,0:3:0:0:
147,243,236787,1,8,0:3:0:0:
201,260,236866,5,0,0:0:0:0:
216,262,236944,1,0,0:0:0:0:
232,264,237022,1,0,0:0:0:0:
248,266,237100,1,0,0:0:0:0:
264,269,237178,1,0,0:0:0:0:
280,271,237256,1,0,0:0:0:0:
295,273,237334,6,0,L|358:260,1,56.25,8|0,0:3|0:0,0:0:0:0:
440,110,237491,1,0,0:0:0:0:
427,97,237569,1,0,0:0:0:0:
407,74,237647,1,0,0:0:0:0:
384,58,237725,1,0,0:0:0:0:
354,44,237803,5,0,0:0:0:0:
312,35,237881,1,0,0:0:0:0:
258,43,237959,1,0,0:0:0:0:
209,83,238037,1,0,0:0:0:0:
189,149,238116,6,0,B|295:180|295:180|439:182,1,225,4|0,0:0|0:0,0:0:0:0:
512,44,238584,1,0,0:0:0:0:
322,108,238741,2,0,P|409:98|467:119,1,112.5,8|0,0:0|0:0,0:0:0:0:
409,353,239053,1,0,0:0:0:0:
136,321,239209,6,0,L|359:289,1,225,4|0,0:0|0:0,0:0:0:0:
512,204,239678,6,0,P|430:188|438:141,1,112.5
484,0,239991,2,0,P|468:82|421:74,1,112.5,8|0,0:0|0:0,0:0:0:0:
268,15,240303,2,0,P|350:31|342:78,1,112.5
0,161,240616,6,0,L|223:193,1,225,4|0,0:0|0:0,0:0:0:0:
353,63,241084,1,0,0:0:0:0:
159,84,241241,2,0,P|246:89|299:120,1,112.5,8|0,0:0|0:0,0:0:0:0:
430,231,241553,1,0,0:0:0:0:
122,324,241709,6,0,L|345:292,1,225,4|0,0:0|0:0,0:0:0:0:
386,104,242178,2,0,P|448:103|499:119,1,112.5
237,182,242491,2,0,P|175:183|124:167,1,112.5,8|0,0:0|0:0,0:0:0:0:
422,356,242803,1,0,0:0:0:0:
191,325,242959,1,0,0:0:0:0:
486,252,243116,6,0,B|439:235|439:235|405:273|353:260|353:260|299:247|263:284,1,225,4|0,0:0|0:0,0:0:0:0:
145,141,243584,1,0,0:0:0:0:
346,167,243741,2,0,P|275:187|224:177,1,112.5,8|0,0:0|0:0,0:0:0:0:
118,18,244053,1,0,0:0:0:0:
463,88,244209,6,0,B|416:105|416:105|382:67|330:80|330:80|276:93|240:56,1,225,4|0,0:0|0:0,0:0:0:0:
155,224,244678,2,0,B|131:182|131:182|80:177|66:233,1,112.5
233,296,244991,2,0,L|358:282,1,112.5,8|0,0:0|0:0,0:0:0:0:
140,309,245303,1,0,0:0:0:0:
318,119,245459,1,0,0:0:0:0:
47,85,245616,6,0,B|94:102|94:102|128:64|180:77|180:77|234:90|270:53,1,225,4|0,0:0|0:0,0:0:0:0:
402,123,246084,1,0,0:0:0:0:
357,327,246241,2,0,B|333:369|333:369|282:374|268:318,1,112.5,8|0,0:0|0:0,0:0:0:0:
120,180,246553,2,0,B|144:138|144:138|195:133|209:189,1,112.5
112,358,246866,5,8,0:3:0:0:
67,328,246944,1,8,0:3:0:0:
72,275,247022,1,8,0:3:0:0:
122,255,247100,1,8,0:3:0:0:
162,290,247178,5,8,0:3:0:0:
152,323,247256,1,0,0:0:0:0:
121,309,247334,1,0,0:0:0:0:
129,276,247412,1,0,0:0:0:0:
155,253,247491,5,0,0:0:0:0:
194,249,247569,1,0,0:0:0:0:
235,268,247647,1,0,0:0:0:0:
285,285,247725,1,0,0:0:0:0:
342,276,247803,5,0,0:0:0:0:
401,259,247881,1,0,0:0:0:0:
444,207,247959,1,0,0:0:0:0:
440,134,248037,1,0,0:0:0:0:
400,73,248116,6,0,L|160:103,1,225,4|0,0:0|0:0,0:0:0:0:
89,239,248584,1,0,0:0:0:0:
306,187,248741,2,0,P|219:177|161:198,1,112.5,8|0,0:0|0:0,0:0:0:0:
161,377,249053,1,0,0:0:0:0:
443,277,249209,6,0,L|220:309,1,225,4|0,0:0|0:0,0:0:0:0:
24,318,249678,6,0,P|106:302|98:255,1,112.5
47,71,249991,2,0,P|63:153|110:145,1,112.5,8|0,0:0|0:0,0:0:0:0:
307,93,250303,2,0,P|225:109|233:156,1,112.5
509,245,250616,6,0,L|286:213,1,225,4|0,0:0|0:0,0:0:0:0:
134,375,251084,1,0,0:0:0:0:
346,318,251241,2,0,P|259:328|201:307,1,112.5,8|0,0:0|0:0,0:0:0:0:
79,175,251553,1,0,0:0:0:0:
387,82,251709,6,0,L|164:114,1,225,4|0,0:0|0:0,0:0:0:0:
123,302,252178,2,0,P|61:303|10:287,1,112.5
326,214,252491,2,0,P|388:213|439:229,1,112.5,8|0,0:0|0:0,0:0:0:0:
87,50,252803,1,0,0:0:0:0:
326,214,252959,1,0,0:0:0:0:
26,252,253116,6,0,B|73:235|73:235|107:273|159:260|159:260|213:247|249:284,1,225,4|0,0:0|0:0,0:0:0:0:
401,123,253584,1,0,0:0:0:0:
138,174,253741,2,0,P|204:166|260:184,1,112.5,8|0,0:0|0:0,0:0:0:0:
391,13,254053,1,0,0:0:0:0:
75,72,254209,6,0,B|122:89|122:89|156:51|208:64|208:64|262:77|298:40,1,225,4|0,0:0|0:0,0:0:0:0:
382,218,254678,2,0,B|406:176|406:176|457:171|471:227,1,112.5
295,274,254991,2,0,L|171:298,1,112.5,8|0,0:0|0:0,0:0:0:0:
374,359,255303,1,0,0:0:0:0:
215,189,255459,1,0,0:0:0:0:
421,88,255616,6,0,B|392:139|337:142|337:142|291:116|298:71|298:71|329:43|361:67,1,225,4|0,0:0|0:0,0:0:0:0:
463,214,256084,1,0,0:0:0:0:
295,274,256241,6,0,P|329:234|357:285,1,112.5,8|0,0:0|0:0,0:0:0:0:
31,337,256553,2,0,B|76:327|76:327|100:361|151:340|151:340|194:322|245:349,1,225,8|4,0:0|0:0,0:0:0:0:
390,150,257022,1,0,0:0:0:0:
285,39,257178,5,8,0:0:0:0:
295,274,257334,1,8,0:0:0:0:
390,150,257491,1,8,0:0:0:0:
180,159,257647,1,8,0:0:0:0:
289,197,257803,1,8,0:0:0:0:
286,113,257959,1,8,0:0:0:0:
445,356,258116,5,4,0:0:0:0:
445,356,258741,1,0,0:0:0:0:
445,356,259366,1,0,0:0:0:0:
445,356,259991,1,0,0:0:0:0:
368,325,260147,1,0,0:0:0:0:
265,312,260303,1,0,0:0:0:0:
140,327,260459,1,0,0:0:0:0:
4,382,260616,5,0,0:0:0:0:
187,235,261241,2,0,B|159:219|159:219|127:228|105:211|105:211|76:220|45:203,1,135.000005149842
308,312,261866,2,0,B|336:296|336:296|368:305|390:288|390:288|419:297|450:280,1,135.000005149842
467,130,262491,2,0,B|450:117|450:117|418:123|397:110|397:110|368:118|358:102,1,101.250003862381
331,129,262803,2,0,B|314:142|314:142|282:136|261:149|261:149|232:141|222:157,1,101.250003862381
197,120,263116,5,0,0:0:0:0:
