osu file format v14

[General]
AudioFilename: audio.mp3
AudioLeadIn: 0
PreviewTime: 177182
Countdown: 0
SampleSet: None
StackLeniency: 0.7
Mode: 0
LetterboxInBreaks: 0
WidescreenStoryboard: 0

[Editor]
Bookmarks: 24604,53198,63198,220698
DistanceSpacing: 1
BeatDivisor: 4
GridSize: 32
TimelineZoom: 1.1

[Metadata]
Title:Endure The Silence
TitleUnicode:Endure The Silence
Artist:Myrath
ArtistUnicode:Myrath
Creator:LMT
Version:Normal
Source:
Tags:Mir BOUYAAA tunisian middle eastern folk progressive metal Xtazy legacy ميراث
BeatmapID:1303813
BeatmapSetID:555454

[Difficulty]
HPDrainRate:3
CircleSize:3.5
OverallDifficulty:4
ApproachRate:5
SliderMultiplier:0.799999999999999
SliderTickRate:1

[Events]
//Background and Video events
0,0,"arab_drawing.jpg",0,0
//Break Periods
2,43116,46916
//Storyboard Layer 0 (Background)
//Storyboard Layer 1 (Fail)
//Storyboard Layer 2 (Pass)
//Storyboard Layer 3 (Foreground)
//Storyboard Sound Samples

[TimingPoints]
616,625,4,2,0,30,1,0
616,-50,4,2,0,30,0,0
20616,312.5,4,3,2,90,1,0
88116,-100,4,3,2,90,0,1
108116,-100,4,2,0,30,0,0
113116,-100,4,3,2,90,0,0
178116,-100,4,3,2,90,0,1
198116,-100,4,3,2,90,0,0
218116,-100,4,3,2,90,0,1
258116,-100,4,2,0,30,0,0

[Colours]
Combo1 : 141,245,254
Combo2 : 232,249,23
Combo3 : 109,208,245
Combo4 : 255,255,198

[HitObjects]
197,189,616,5,0,0:0:0:0:
354,219,1241,2,0,L|436:231,2,79.9999999999999,0|0|0,0:0|0:0|0:0,0:0:0:0:
215,299,2491,2,0,L|133:287,1,79.9999999999999,0|0,0:0|0:0,0:0:0:0:
37,161,3428,5,0,0:0:0:0:
117,177,3741,2,0,L|199:189,2,79.9999999999999,0|0|0,0:0|0:0|0:0,0:0:0:0:
235,69,4991,2,0,L|317:81,1,79.9999999999999,0|0,0:0|0:0,0:0:0:0:
392,98,5616,5,4,0:0:0:0:
447,249,6241,2,0,L|365:237,1,79.9999999999999,0|0,0:0|0:0,0:0:0:0:
288,225,6866,5,4,0:0:0:0:
229,70,7491,2,0,L|311:82,1,79.9999999999999,0|0,0:0|0:0,0:0:0:0:
385,100,8116,5,0,0:0:0:0:
475,241,8741,1,0,0:0:0:0:
376,367,9366,1,0,0:0:0:0:
475,241,9991,1,0,0:0:0:0:
369,120,10616,5,0,0:0:0:0:
238,213,11241,2,0,L|250:295,2,79.9999999999999,0|0|0,0:0|0:0|0:0,0:0:0:0:
84,166,12491,2,0,L|72:84,2,79.9999999999999
238,123,13741,2,0,L|226:43,1,79.9999999999999,0|0,0:0|0:0,0:0:0:0:
385,23,14678,1,0,0:0:0:0:
369,101,14991,2,0,L|357:180,1,79.9999999999999,0|0,0:0|0:0,0:0:0:0:
341,258,15616,5,4,0:0:0:0:
195,322,16241,2,0,L|206:242,1,79.9999999999999,0|0,0:0|0:0,0:0:0:0:
220,163,16866,5,4,0:0:0:0:
365,94,17491,2,0,L|353:173,1,79.9999999999999,0|0,0:0|0:0,0:0:0:0:
344,252,18116,5,0,0:0:0:0:
209,337,18741,1,0,0:0:0:0:
73,252,19366,1,0,0:0:0:0:
220,190,19991,1,0,0:0:0:0:
359,268,20616,6,0,P|376:224|365:142,1,120,4|0,0:0|0:0,0:0:0:0:
351,116,21241,1,8,0:0:0:0:
286,69,21553,1,0,0:0:0:0:
212,99,21866,2,0,P|154:110|68:62,1,160,4|8,0:0|0:0,0:0:0:0:
114,216,23116,6,0,P|158:199|240:210,1,120,4|0,0:0|0:0,0:0:0:0:
263,226,23741,1,8,0:0:0:0:
324,276,24053,1,0,0:0:0:0:
354,350,24366,2,0,P|351:278|394:202,1,160,4|12,0:0|0:0,0:0:0:0:
303,70,25616,6,0,B|256:51|256:51|206:66|206:66|144:45,1,160,4|8,0:0|0:0,0:0:0:0:
77,18,26553,1,8,0:0:0:0:
32,84,26866,6,0,B|79:103|79:103|129:88|129:88|191:109,1,160,4|8,0:0|0:0,0:0:0:0:
258,136,27803,1,8,0:0:0:0:
298,204,28116,5,4,0:0:0:0:
457,194,28741,2,0,P|458:240|442:275,1,79.9999999999999,8|0,0:0|0:0,0:0:0:0:
479,343,29366,2,0,B|435:293|374:320|374:320|309:349|246:292,1,240,4|8,0:0|0:3,0:0:0:0:
228,227,30616,6,0,P|188:195|104:197,1,120,4|0,0:0|0:0,0:0:0:0:
86,210,31241,1,8,0:0:0:0:
33,149,31553,1,0,0:0:0:0:
73,80,31866,2,0,P|134:95|232:40,1,160,4|8,0:0|0:0,0:0:0:0:
377,79,33116,6,0,P|349:135|359:218,1,120,4|0,0:0|0:0,0:0:0:0:
357,230,33741,1,8,0:0:0:0:
402,295,34053,1,0,0:0:0:0:
468,339,34366,2,0,P|402:329|314:365,1,160,4|8,0:0|0:0,0:0:0:0:
241,336,35303,2,0,L|202:322,1,40,8|0,0:0|0:0,0:0:0:0:
168,302,35616,6,0,B|179:238|179:238|165:197|165:197|175:133,1,160,12|8,0:0|0:0,0:0:0:0:
235,95,36553,2,0,L|274:109,1,40,8|0,0:0|0:0,0:0:0:0:
308,129,36866,6,0,B|297:193|297:193|311:234|311:234|301:298,1,160,12|8,0:0|0:0,0:0:0:0:
164,365,38116,6,0,P|146:310|159:261,1,79.9999999999999,4|0,0:0|0:0,0:0:0:0:
68,283,38741,2,0,P|80:226|116:190,1,79.9999999999999,12|0,0:0|0:0,0:0:0:0:
161,166,39366,2,0,P|197:158|218:162,2,40,12|0|8,0:0|0:0|0:0,0:0:0:0:
92,114,39991,2,0,L|134:77,2,40,8|0|8,0:0|0:0|0:0,0:0:0:0:
67,145,40459,1,8,0:0:0:0:
256,192,48116,12,0,51866,0:0:0:0:
197,92,53116,6,0,P|256:76|336:103,1,120,4|0,0:0|0:0,0:0:0:0:
346,110,53741,1,8,0:0:0:0:
440,238,54366,2,0,L|347:222,1,79.9999999999999,0|0,0:0|0:0,0:0:0:0:
281,234,54991,2,0,P|284:273|264:319,1,79.9999999999999,8|0,0:0|0:0,0:0:0:0:
210,362,55616,2,0,P|157:322|84:335,1,120,0|0,0:0|0:0,0:0:0:0:
68,339,56241,1,8,0:0:0:0:
111,103,57178,5,0,0:0:0:0:
65,169,57491,2,0,P|158:166|189:86,1,160,8|0,0:0|0:0,0:0:0:0:
30,95,58741,1,8,0:0:0:0:
225,233,59678,2,0,P|279:250|350:226,1,120,0|0,0:0|0:0,0:0:0:0:
366,206,60303,1,0,0:0:0:0:
439,174,60616,6,0,L|460:309,1,120,0|0,0:0|0:0,0:0:0:0:
467,331,61241,1,8,0:0:0:0:
338,234,61866,6,0,L|359:99,1,120,0|0,0:0|0:0,0:0:0:0:
366,77,62491,1,8,0:0:0:0:
209,42,63116,6,0,P|169:31|107:43,1,79.9999999999999,4|0,0:0|0:0,0:0:0:0:
65,79,63741,1,8,0:0:0:0:
134,117,64053,1,0,0:0:0:0:
155,194,64366,2,0,P|153:255|124:293,1,79.9999999999999,0|0,0:0|0:0,0:0:0:0:
76,312,64991,2,0,B|117:289|152:314|152:314|190:342|234:310,1,160,8|4,0:0|0:0,0:0:0:0:
282,259,65928,6,0,P|336:244|391:266,2,79.9999999999999,0|8|0,0:0|0:0|0:0,0:0:0:0:
205,236,66866,1,0,0:0:0:0:
147,180,67178,2,0,L|136:84,2,79.9999999999999,0|8|0,0:0|0:0|0:0,0:0:0:0:
126,257,68116,6,0,P|90:263|70:258,2,40,4|0|0,0:0|0:0|0:0,0:0:0:0:
205,246,68741,2,0,B|245:264|289:256|289:256|319:284|361:287,1,160
408,227,69678,2,0,P|436:275|386:363,1,160
311,363,70616,6,0,P|287:361|247:342,2,40,4|0|0,0:0|0:0|0:0,0:0:0:0:
350,293,71241,1,8,0:0:0:0:
192,264,71866,2,0,P|179:218|201:157,1,79.9999999999999
225,118,72491,2,0,P|271:105|332:127,1,79.9999999999999,8|8,0:0|0:0,0:0:0:0:
360,164,73116,6,0,L|377:269,1,79.9999999999999,4|0,0:0|0:0,0:0:0:0:
327,308,73741,1,8,0:0:0:0:
254,275,74053,1,0,0:0:0:0:
180,307,74366,2,0,P|128:318|80:295,1,79.9999999999999,0|0,0:0|0:0,0:0:0:0:
41,362,74991,2,0,B|63:324|42:286|42:286|17:246|51:196,1,160,8|4,0:0|0:0,0:0:0:0:
116,178,75928,2,0,P|168:167|216:190,2,79.9999999999999,0|8|0,0:0|0:0|0:0,0:0:0:0:
50,131,76866,5,0,0:0:0:0:
116,87,77178,2,0,L|131:2,2,79.9999999999999,0|8|0,0:0|0:0|0:0,0:0:0:0:
123,166,78116,6,0,P|132:190|129:221,2,40,4|0|0,0:0|0:0|0:0,0:0:0:0:
47,138,78741,1,8,0:0:0:0:
205,116,79366,1,0,0:0:0:0:
143,66,79678,2,0,P|191:38|279:88,1,160,0|0,0:0|0:0,0:0:0:0:
304,156,80616,6,0,L|287:251,1,79.9999999999999,4|0,0:0|0:0,0:0:0:0:
273,313,81241,1,8,0:0:0:0:
119,262,81866,6,0,P|104:215|119:169,1,79.9999999999999,0|0,0:0|0:0,0:0:0:0:
187,163,82491,2,0,L|240:168,1,40,8|0,0:0|0:0,0:0:0:0:
264,152,82803,2,0,L|305:156,1,40,8|0,0:0|0:0,0:0:0:0:
343,145,83116,1,4,0:0:0:0:
256,192,83428,12,0,85616,0:0:0:0:
147,36,87178,5,0,0:0:0:0:
67,27,87491,1,0,0:0:0:0:
62,107,87803,1,0,0:0:0:0:
139,119,88116,6,0,P|206:125|272:78,1,120,4|0,0:0|0:0,0:0:0:0:
280,73,88741,2,0,L|297:172,1,79.9999999999999,8|0,0:0|0:0,0:0:0:0:
305,189,89209,2,0,P|372:183|438:230,1,120,4|0,0:0|0:0,0:0:0:0:
479,256,89991,1,8,0:0:0:0:
326,302,90616,6,0,P|259:296|193:343,1,120,4|0,0:0|0:0,0:0:0:0:
185,347,91241,2,0,L|162:249,1,79.9999999999999,8|0,0:0|0:0,0:0:0:0:
156,230,91709,2,0,P|89:236|23:189,1,120,4|0,0:0|0:0,0:0:0:0:
13,138,92491,1,8,0:0:0:0:
90,120,92803,2,0,L|105:75,1,40
138,60,93116,6,0,P|194:49|273:72,1,120,4|0,0:0|0:0,0:0:0:0:
277,95,93741,2,0,L|286:188,1,79.9999999999999,8|0,0:0|0:0,0:0:0:0:
287,214,94209,2,0,P|231:203|152:226,1,120,4|0,0:0|0:0,0:0:0:0:
108,267,94991,1,8,0:0:0:0:
183,292,95303,1,0,0:0:0:0:
234,349,95616,6,0,P|290:360|369:337,1,120,4|0,0:0|0:0,0:0:0:0:
373,313,96241,2,0,L|392:206,1,79.9999999999999,8|8,0:0|0:0,0:0:0:0:
392,194,96709,2,0,L|378:97,1,79.9999999999999,4|8,0:0|0:0,0:0:0:0:
372,75,97178,1,8,0:0:0:0:
295,51,97491,2,0,P|266:57|234:52,1,40,8|0,0:0|0:0,0:0:0:0:
216,51,97803,2,0,P|187:45|155:50,1,40,8|0,0:0|0:0,0:0:0:0:
138,57,98116,6,0,B|141:99|141:99|124:141|124:141|128:181,1,120,4|0,0:0|0:0,0:0:0:0:
132,213,98741,2,0,P|175:206|228:221,1,79.9999999999999,8|0,0:0|0:0,0:0:0:0:
241,238,99209,2,0,B|238:196|238:196|255:154|255:154|251:114,1,120,4|0,0:0|0:0,0:0:0:0:
311,67,99991,1,8,0:0:0:0:
426,177,100616,6,0,B|423:219|423:219|440:261|440:261|436:301,1,120,4|0,0:0|0:0,0:0:0:0:
438,333,101241,2,0,P|384:320|336:334,1,79.9999999999999,8|0,0:0|0:0,0:0:0:0:
322,336,101709,2,0,B|325:294|325:294|308:252|308:252|312:212,1,120,4|0,0:0|0:0,0:0:0:0:
281,144,102491,1,8,0:0:0:0:
216,191,102803,2,0,L|203:247,1,40
186,264,103116,6,0,P|128:273|58:215,1,120,4|0,0:0|0:0,0:0:0:0:
67,205,103741,2,0,L|50:99,1,79.9999999999999,8|0,0:0|0:0,0:0:0:0:
49,86,104209,2,0,P|102:83|134:65,1,79.9999999999999,4|0,0:0|0:0,0:0:0:0:
155,44,104678,1,0,0:0:0:0:
194,49,104834,2,0,L|217:145,1,79.9999999999999,8|0,0:0|0:0,0:0:0:0:
221,162,105303,1,8,0:0:0:0:
301,195,105616,6,0,P|310:126|390:52,1,160,4|8,0:0|0:0,0:0:0:0:
448,52,106553,1,8,0:0:0:0:
450,91,106709,2,0,L|452:182,1,79.9999999999999,4|0,0:0|0:0,0:0:0:0:
453,211,107178,1,8,0:0:0:0:
403,273,107491,2,0,L|341:279,1,40,8|0,0:0|0:0,0:0:0:0:
323,280,107803,2,0,L|248:285,1,40,8|0,0:0|0:0,0:0:0:0:
243,288,108116,5,4,0:0:0:0:
256,192,108272,12,0,110616,0:0:0:0:
385,226,113116,6,0,P|325:245|246:217,1,120,4|0,0:0|0:0,0:0:0:0:
237,209,113741,1,8,0:0:0:0:
201,137,114053,1,0,0:0:0:0:
151,74,114366,2,0,P|85:54|0:78,1,160,4|8,0:0|0:0,0:0:0:0:
82,211,115616,6,0,P|107:261|87:335,1,120,4|0,0:0|0:0,0:0:0:0:
77,357,116241,1,8,0:0:0:0:
155,369,116553,1,0,0:0:0:0:
221,324,116866,2,0,P|287:304|372:328,1,160,4|8,0:0|0:0,0:0:0:0:
446,298,117803,2,0,L|457:237,1,40,0|0,0:0|0:0,0:0:0:0:
456,218,118116,6,0,B|411:200|411:200|356:239|275:197,1,160,4|8,0:0|0:0,0:0:0:0:
255,147,119053,1,8,0:0:0:0:
208,212,119366,2,0,B|156:241|101:202|101:202|56:220,1,160,4|8,0:0|0:0,0:0:0:0:
11,287,120303,1,8,0:0:0:0:
4,366,120616,5,4,0:0:0:0:
162,340,121241,2,0,P|218:325|266:332,1,79.9999999999999,8|0,0:0|0:0,0:0:0:0:
306,370,121866,2,0,B|262:319|297:262|297:262|335:202|287:132,1,240,8|8,0:3|0:3,0:0:0:0:
232,97,123116,6,0,P|172:116|93:88,1,120,4|0,0:0|0:0,0:0:0:0:
82,84,123741,1,8,0:0:0:0:
15,128,124053,1,0,0:0:0:0:
31,206,124366,2,0,P|97:186|182:210,1,160,4|8,0:0|0:0,0:0:0:0:
302,301,125616,6,0,P|277:251|297:177,1,120,4|0,0:0|0:0,0:0:0:0:
304,152,126241,1,8,0:0:0:0:
361,96,126553,1,0,0:0:0:0:
424,47,126866,2,0,P|358:67|273:43,1,160,4|8,0:0|0:0,0:0:0:0:
207,89,127803,2,0,L|218:150,1,40,8|0,0:0|0:0,0:0:0:0:
217,169,128116,6,0,B|172:187|172:187|117:148|36:190,1,160,4|8,0:0|0:0,0:0:0:0:
24,245,129053,1,0,0:0:0:0:
67,312,129366,2,0,B|118:341|173:302|173:302|218:320,1,160,4|8,0:0|0:0,0:0:0:0:
254,163,130616,6,0,P|299:116|329:108,1,79.9999999999999,4|0,0:0|0:0,0:0:0:0:
329,189,131241,2,0,P|374:236|404:244,1,79.9999999999999,12|0,0:0|0:0,0:0:0:0:
403,162,131866,2,0,P|414:138|448:121,2,40,4|0|8,0:0|0:0|0:0,0:0:0:0:
461,217,132491,2,0,L|466:276,1,40,8|0,0:0|0:0,0:0:0:0:
461,296,132803,2,0,L|453:354,1,40,8|0,0:0|0:0,0:0:0:0:
448,375,133116,6,0,P|400:360|330:362,1,120,4|0,0:0|0:0,0:0:0:0:
292,372,133741,1,8,0:0:0:0:
168,270,134366,2,0,L|149:162,1,79.9999999999999,0|0,0:0|0:0,0:0:0:0:
148,111,134991,2,0,P|216:108|251:88,1,79.9999999999999,8|0,0:0|0:0,0:0:0:0:
293,59,135616,6,0,L|414:72,1,120,4|0,0:0|0:0,0:0:0:0:
452,77,136241,1,8,0:0:0:0:
316,275,137178,1,0,0:0:0:0:
246,235,137491,2,0,P|240:298|336:354,1,160,8|4,0:0|0:0,0:0:0:0:
320,195,138741,2,0,P|241:150|168:205,1,160,8|4,0:0|0:0,0:0:0:0:
316,275,139991,2,0,L|381:269,2,40,8|0|0,0:0|0:0|0:0,0:0:0:0:
248,231,140616,6,0,P|181:231|124:265,1,120,4|0,0:0|0:0,0:0:0:0:
100,275,141241,2,0,L|84:124,1,120,8|0,0:0|0:0,0:0:0:0:
82,115,141866,2,0,L|77:67,2,40,0|0|8,0:0|0:0|0:0,0:0:0:0:
160,124,142491,2,0,L|211:117,1,40,8|0,0:0|0:0,0:0:0:0:
239,113,142803,2,0,L|290:106,1,40,8|0,0:0|0:0,0:0:0:0:
318,101,143116,6,0,P|338:168|324:226,1,120,12|0,0:0|0:0,0:0:0:0:
316,254,143741,1,8,0:0:0:0:
174,329,144366,2,0,P|137:304|71:304,1,79.9999999999999,0|0,0:0|0:0,0:0:0:0:
25,321,144991,2,0,L|16:221,1,79.9999999999999,8|0,0:0|0:0,0:0:0:0:
74,184,145616,6,0,P|149:204|213:184,1,120,4|0,0:0|0:0,0:0:0:0:
223,175,146241,1,8,0:0:0:0:
416,316,147178,1,0,0:0:0:0:
441,239,147491,2,0,P|369:250|343:354,1,160,8|4,0:0|0:0,0:0:0:0:
493,303,148741,1,8,0:0:0:0:
366,99,149678,1,0,0:0:0:0:
297,140,149991,2,0,P|234:152|166:127,1,120,8|0,0:0|0:0,0:0:0:0:
152,109,150616,6,0,L|131:258,1,120,8|0,0:0|0:0,0:0:0:0:
129,267,151241,1,8,0:0:0:0:
261,356,151866,6,0,L|244:237,1,120,8|0,0:0|0:0,0:0:0:0:
239,198,152491,2,0,L|244:147,1,40,8|0,0:0|0:0,0:0:0:0:
247,118,152803,2,0,L|252:67,1,40,8|0,0:0|0:0,0:0:0:0:
285,44,153116,6,0,P|325:33|387:45,1,79.9999999999999,4|0,0:0|0:0,0:0:0:0:
429,81,153741,1,8,0:0:0:0:
358,117,154053,1,0,0:0:0:0:
426,159,154366,2,0,P|424:220|395:258,1,79.9999999999999,0|0,0:0|0:0,0:0:0:0:
466,297,154991,2,0,B|425:274|390:299|390:299|352:327|308:295,1,160,8|4,0:0|0:0,0:0:0:0:
236,300,155928,6,0,P|182:315|127:293,2,79.9999999999999,0|8|0,0:0|0:0|0:0,0:0:0:0:
279,232,156866,1,0,0:0:0:0:
323,165,157178,2,0,B|304:128|304:128|308:60,2,79.9999999999999,0|8|0,0:0|0:0|0:0,0:0:0:0:
363,234,158116,6,0,P|396:227|414:213,2,40,4|0|0,0:0|0:0|0:0,0:0:0:0:
283,242,158741,2,0,B|252:221|212:221|212:221|186:178|127:168,1,160
100,238,159678,2,0,P|64:188|112:97,1,160,0|0,0:0|3:0,0:0:0:0:
178,97,160616,6,0,P|212:84|244:91,2,40,4|0|0,0:0|0:0|0:0,0:0:0:0:
146,170,161241,1,8,0:0:0:0:
280,264,161866,6,0,P|329:270|387:244,1,79.9999999999999,0|0,0:0|0:0,0:0:0:0:
387,187,162491,2,0,P|436:181|494:207,1,79.9999999999999,8|8,0:0|0:0,0:0:0:0:
510,254,163116,6,0,P|510:305|495:343,1,79.9999999999999,4|0,0:0|0:0,0:0:0:0:
430,370,163741,1,8,0:0:0:0:
364,324,164053,1,0,0:0:0:0:
289,353,164366,2,0,L|191:337,1,79.9999999999999,0|0,0:0|0:0,0:0:0:0:
142,383,164991,2,0,B|164:345|143:307|143:307|118:267|152:217,1,160,8|4,0:0|0:0,0:0:0:0:
185,162,165928,6,0,B|168:119|168:119|185:61,2,79.9999999999999,0|8|0,0:0|0:0|0:0,0:0:0:0:
225,231,166866,1,0,0:0:0:0:
304,222,167178,2,0,B|340:207|340:207|392:213,2,79.9999999999999,0|8|0,0:0|0:0|0:0,0:0:0:0:
274,296,168116,6,0,P|280:325|270:351,2,40,4|0|0,0:0|0:0|0:0,0:0:0:0:
218,238,168741,2,0,B|182:214|167:170|167:170|139:181|92:156,1,160
56,227,169678,2,0,P|20:177|68:86,1,160
129,65,170616,6,0,P|173:72|225:45,1,79.9999999999999,4|0,0:0|0:0,0:0:0:0:
274,18,171241,1,8,0:0:0:0:
313,176,171866,2,0,L|319:228,2,40,0|0|8,0:0|0:0|0:0,0:0:0:0:
408,191,172491,2,0,L|413:136,1,40,8|0,0:0|0:0,0:0:0:0:
415,111,172803,2,0,L|420:48,1,40,8|0,0:0|0:0,0:0:0:0:
421,31,173116,5,4,0:0:0:0:
256,192,173272,12,0,175616,0:0:0:0:
100,221,177178,5,0,0:0:0:0:
24,248,177491,1,0,0:0:0:0:
24,168,177803,1,0,0:0:0:0:
96,139,178116,6,0,P|149:123|219:151,1,120,4|0,0:0|0:0,0:0:0:0:
229,176,178741,2,0,L|244:61,1,79.9999999999999,8|0,0:0|0:0,0:0:0:0:
259,62,179209,2,0,P|312:78|382:50,1,120,4|0,0:0|0:0,0:0:0:0:
434,8,179991,1,8,0:0:0:0:
421,167,180616,6,0,L|409:305,1,120,4|0,0:0|0:0,0:0:0:0:
393,322,181241,2,0,P|339:307|295:318,1,79.9999999999999,8|0,0:0|0:0,0:0:0:0:
280,328,181709,2,0,L|268:190,1,120,4|0,0:0|0:0,0:0:0:0:
262,128,182491,1,8,0:0:0:0:
195,84,182803,2,0,L|143:79,1,40
114,67,183116,6,0,P|87:122|99:192,1,120,4|0,0:0|0:0,0:0:0:0:
116,211,183741,2,0,L|225:223,1,79.9999999999999,8|0,0:0|0:0,0:0:0:0:
233,231,184209,2,0,P|260:286|248:356,1,120,4|0,0:0|0:0,0:0:0:0:
183,380,184991,1,8,0:0:0:0:
108,350,185303,1,0,0:0:0:0:
55,289,185616,6,0,L|43:144,1,120,4|0,0:0|0:0,0:0:0:0:
47,129,186241,2,0,P|105:138|143:113,1,79.9999999999999,8|0,0:0|0:0,0:0:0:0:
155,106,186709,2,0,P|213:97|251:122,1,79.9999999999999,4|8,0:0|0:0,0:0:0:0:
262,129,187178,1,0,0:0:0:0:
304,196,187491,2,0,L|317:254,1,40,8|0,0:0|0:0,0:0:0:0:
321,273,187803,2,0,L|333:336,1,40,8|0,0:0|0:0,0:0:0:0:
338,351,188116,6,0,B|300:369|300:369|249:342|195:371,1,120,4|0,0:0|0:0,0:0:0:0:
194,330,188741,2,0,L|178:232,1,79.9999999999999,8|0,0:0|0:0,0:0:0:0:
169,212,189209,2,0,B|131:194|131:194|80:221|26:192,1,120,4|0,0:0|0:0,0:0:0:0:
21,131,189991,1,8,0:0:0:0:
176,94,190616,6,0,B|214:112|214:112|265:85|319:114,1,120,4|0,0:0|0:0,0:0:0:0:
315,133,191241,2,0,L|328:223,1,79.9999999999999,8|0,0:0|0:0,0:0:0:0:
325,252,191709,2,0,B|300:234|249:261|249:261|211:243,1,120,4|0,0:0|0:0,0:0:0:0:
151,193,192491,1,8,0:0:0:0:
86,239,192803,2,0,L|78:302,1,40,0|0,0:0|0:0,0:0:0:0:
75,318,193116,6,0,P|143:312|218:355,1,120,4|0,0:0|0:0,0:0:0:0:
221,355,193741,2,0,L|234:255,1,79.9999999999999,8|0,0:0|0:0,0:0:0:0:
236,236,194209,2,0,P|272:232|320:208,1,79.9999999999999,4|0,0:0|0:0,0:0:0:0:
344,190,194678,1,0,0:0:0:0:
380,173,194834,2,0,L|462:213,1,79.9999999999999,8|0,0:0|0:0,0:0:0:0:
479,237,195303,1,8,0:0:0:0:
451,310,195616,6,0,P|391:328|332:314,1,120,4|0,0:0|0:0,0:0:0:0:
314,276,196241,2,0,L|298:174,1,79.9999999999999,8|0,0:0|0:0,0:0:0:0:
295,157,196709,1,8,0:0:0:0:
284,118,196866,2,0,P|233:104|190:118,1,79.9999999999999,4|8,0:0|0:0,0:0:0:0:
147,162,197491,2,0,L|135:232,1,40,8|0,0:0|0:0,0:0:0:0:
134,240,197803,2,0,L|122:310,1,40,8|0,0:0|0:0,0:0:0:0:
124,319,198116,6,0,B|171:301|205:322|263:344|307:319,1,160,4|8,0:0|0:0,0:0:0:0:
312,254,199053,1,0,0:0:0:0:
295,176,199366,2,0,B|248:158|214:179|156:201|112:176,1,160,4|8,0:0|0:0,0:0:0:0:
27,68,200616,6,0,B|38:121|21:149|15:148|32:188|32:188|24:216|32:253,1,160,4|8,0:0|0:0,0:0:0:0:
27,304,201553,1,0,0:0:0:0:
97,265,201866,2,0,P|122:257|160:268,2,40,8|8|0,0:3|0:3|0:0,0:0:0:0:
37,318,202491,2,0,P|82:342|144:329,1,79.9999999999999,8|0,0:0|0:0,0:0:0:0:
187,322,203116,6,0,B|245:312|245:312|347:342,1,160,4|8,0:0|0:0,0:0:0:0:
415,307,204053,1,0,0:0:0:0:
417,226,204366,2,0,B|359:236|359:236|257:206,1,160,4|8,0:0|0:0,0:0:0:0:
194,165,205303,1,0,0:0:0:0:
265,129,205616,5,4,0:0:0:0:
134,43,206241,2,0,L|124:106,1,40,8|0,0:3|0:0,0:0:0:0:
120,121,206553,2,0,L|110:184,1,40,8|0,0:3|0:0,0:0:0:0:
105,199,206866,6,0,L|95:264,2,40,8|8|0,0:3|0:3|0:0,0:0:0:0:
184,209,207491,2,0,L|194:146,1,40,8|0,0:0|0:0,0:0:0:0:
198,131,207803,2,0,L|208:68,1,40,8|0,0:0|0:0,0:0:0:0:
211,51,208116,6,0,B|279:30|339:63|339:63|388:36,1,160,4|8,0:0|0:0,0:0:0:0:
435,14,209053,1,0,0:0:0:0:
433,94,209366,1,4,0:0:0:0:
329,215,209991,2,0,L|263:221,1,40,8|0,0:0|0:0,0:0:0:0:
249,225,210303,2,0,L|185:231,1,40,0|0,0:0|0:0,0:0:0:0:
169,230,210616,6,0,B|141:210|141:210|90:239|9:223,1,160,4|8,0:0|0:0,0:0:0:0:
6,145,211553,1,0,0:0:0:0:
36,70,211866,2,0,P|64:61|90:63,2,40,8|8|0,0:3|0:3|0:0,0:0:0:0:
15,147,212491,1,8,0:0:0:0:
173,123,213116,6,0,B|211:135|211:135|272:111|341:139,1,160,4|8,0:0|0:0,0:0:0:0:
391,183,214053,1,0,0:0:0:0:
446,240,214366,6,0,B|408:228|408:228|347:252|278:224,1,160,4|8,0:0|0:0,0:0:0:0:
232,173,215303,1,0,0:0:0:0:
214,251,215616,6,0,P|222:285|218:314,2,40,8|8|0,0:3|0:0|0:0,0:0:0:0:
155,196,216241,2,0,P|147:162|151:133,2,40,8|8|0,0:3|0:3|0:0,0:0:0:0:
134,273,216866,5,8,0:0:0:0:
98,254,217022,2,0,P|50:219|34:177,1,79.9999999999999,4|0,0:0|0:0,0:0:0:0:
23,165,217491,2,0,L|18:105,1,40,0|0,0:0|0:0,0:0:0:0:
14,85,217803,2,0,L|10:30,1,40,0|0,0:0|0:0,0:0:0:0:
12,4,218116,6,0,P|78:29|158:13,1,120,4|0,0:0|0:0,0:0:0:0:
165,15,218741,2,0,L|177:127,1,79.9999999999999,8|0,0:0|0:0,0:0:0:0:
183,133,219209,2,0,P|249:108|329:124,1,120,4|0,0:0|0:0,0:0:0:0:
370,145,219991,1,8,0:0:0:0:
426,294,220616,6,0,B|390:310|390:310|342:292|300:314,1,120,4|0,0:0|0:0,0:0:0:0:
281,336,221241,2,0,L|266:229,1,79.9999999999999,8|0,0:0|0:0,0:0:0:0:
235,236,221709,2,0,B|199:220|199:220|151:238|109:216,1,120,4|0,0:0|0:0,0:0:0:0:
57,170,222491,1,8,0:0:0:0:
92,98,222803,2,0,L|156:85,1,40,0|0,0:0|0:0,0:0:0:0:
170,79,223116,6,0,B|224:109|268:85|268:85|296:114,1,120,4|0,0:0|0:0,0:0:0:0:
307,126,223741,2,0,L|296:219,1,79.9999999999999,8|0,0:0|0:0,0:0:0:0:
297,245,224209,2,0,B|351:215|395:239|395:239|406:226,1,120,4|0,0:0|0:0,0:0:0:0:
457,164,224991,1,8,0:0:0:0:
486,238,225303,1,0,0:0:0:0:
457,312,225616,6,0,P|391:337|311:321,1,120,4|0,0:0|0:0,0:0:0:0:
310,309,226241,1,8,0:0:0:0:
244,263,226553,1,8,0:0:0:0:
204,258,226709,2,0,L|96:250,1,79.9999999999999,4|0,0:0|0:0,0:0:0:0:
84,247,227178,1,8,0:0:0:0:
52,173,227491,2,0,L|48:111,1,40,8|0,0:0|0:0,0:0:0:0:
45,93,227803,2,0,L|41:31,1,40,8|0,0:0|0:0,0:0:0:0:
41,12,228116,6,0,P|108:35|179:20,1,120,4|0,0:0|0:0,0:0:0:0:
176,63,228741,2,0,P|241:57|276:68,1,79.9999999999999,8|0,0:0|0:0,0:0:0:0:
283,32,229209,2,0,P|350:55|421:40,1,120,4|0,0:0|0:0,0:0:0:0:
469,14,229991,1,8,0:0:0:0:
457,173,230616,6,0,B|449:210|449:210|474:256|448:312,1,120,4|0,0:0|0:0,0:0:0:0:
447,328,231241,2,0,L|352:313,1,79.9999999999999,8|0,0:0|0:0,0:0:0:0:
335,291,231709,2,0,B|343:254|343:254|318:208|344:152,1,120,4|0,0:0|0:0,0:0:0:0:
288,109,232491,1,8,0:0:0:0:
218,68,232803,2,0,L|160:62,1,40,0|0,0:0|0:0,0:0:0:0:
138,61,233116,6,0,P|123:119|137:190,1,120,4|0,0:0|0:0,0:0:0:0:
152,211,233741,2,0,L|245:219,1,79.9999999999999,8|0,0:0|0:0,0:0:0:0:
270,227,234209,2,0,P|283:268|280:314,1,79.9999999999999,4|0,0:0|0:0,0:0:0:0:
259,338,234678,1,0,0:0:0:0:
224,357,234834,2,0,L|138:349,1,79.9999999999999,8|0,0:0|0:0,0:0:0:0:
104,353,235303,1,8,0:0:0:0:
63,281,235616,6,0,L|54:157,1,120,4|0,0:0|0:0,0:0:0:0:
51,121,236241,1,8,0:0:0:0:
106,63,236553,1,8,0:3:0:0:
145,67,236709,2,0,L|256:76,1,79.9999999999999,4|0,0:0|0:0,0:0:0:0:
264,77,237178,1,8,0:0:0:0:
318,135,237491,2,0,L|325:205,1,40,8|0,0:0|0:0,0:0:0:0:
329,214,237803,2,0,L|335:276,1,40,8|0,0:0|0:0,0:0:0:0:
337,293,238116,6,0,P|262:282|189:306,1,120,4|0,0:0|0:0,0:0:0:0:
182,307,238741,2,0,L|165:203,1,79.9999999999999,8|0,0:0|0:0,0:0:0:0:
156,190,239209,2,0,P|81:201|8:177,1,120,4|0,0:0|0:0,0:0:0:0:
5,118,239991,1,8,0:0:0:0:
150,51,240616,6,0,L|271:37,1,120,4|0,0:0|0:0,0:0:0:0:
309,36,241241,2,0,P|304:98|326:135,1,79.9999999999999,8|0,0:0|0:0,0:0:0:0:
332,146,241709,2,0,L|453:132,1,120,4|0,0:0|0:0,0:0:0:0:
490,202,242491,1,8,0:0:0:0:
346,273,243116,6,0,P|281:242|270:298,1,120,4|0,0:0|0:0,0:0:0:0:
258,308,243741,2,0,P|199:291|158:305,1,79.9999999999999,8|0,0:0|0:0,0:0:0:0:
144,306,244209,2,0,L|131:172,1,120,4|0,0:0|0:0,0:0:0:0:
124,147,244834,2,0,P|118:103|139:57,1,79.9999999999999,8|0,0:0|0:0,0:0:0:0:
169,72,245303,2,0,L|224:80,1,40,8|0,0:0|0:0,0:0:0:0:
221,120,245616,6,0,P|286:89|297:145,1,120,4|0,0:0|0:0,0:0:0:0:
309,155,246241,2,0,P|368:138|409:152,1,79.9999999999999,8|0,0:0|0:0,0:0:0:0:
463,158,246866,6,0,L|532:145,2,40,8|8|8,0:3|0:3|0:0,0:0:0:0:
408,217,247491,2,0,L|396:283,1,40,8|0,0:0|0:0,0:0:0:0:
396,296,247803,2,0,L|384:362,1,40,8|0,0:0|0:0,0:0:0:0:
380,374,248116,6,0,P|304:353|249:370,1,120,4|0,0:0|0:0,0:0:0:0:
226,372,248741,2,0,L|206:258,1,79.9999999999999,8|0,0:0|0:0,0:0:0:0:
198,255,249209,2,0,P|122:276|67:259,1,120,4|0,0:0|0:0,0:0:0:0:
29,207,249991,1,8,0:0:0:0:
147,99,250616,6,0,B|182:87|182:87|223:106|271:94,1,120,4|0,0:0|0:0,0:0:0:0:
303,95,251241,2,0,L|315:192,1,79.9999999999999,8|0,0:0|0:0,0:0:0:0:
317,214,251709,2,0,B|282:202|282:202|241:221|193:209,1,120,4|0,0:0|0:0,0:0:0:0:
124,236,252491,1,8,0:0:0:0:
245,340,253116,6,0,P|310:309|321:365,1,120,4|0,0:0|0:0,0:0:0:0:
333,375,253741,2,0,P|392:358|433:372,1,79.9999999999999,8|0,0:0|0:0,0:0:0:0:
447,373,254209,2,0,L|460:239,1,120,4|0,0:0|0:0,0:0:0:0:
469,173,254991,2,0,L|402:160,1,40,8|0,0:0|0:0,0:0:0:0:
391,154,255303,2,0,L|315:138,1,40,8|0,0:0|0:0,0:0:0:0:
312,138,255616,6,0,P|298:195|267:222,1,79.9999999999999,4|0,0:0|0:0,0:0:0:0:
209,238,256241,2,0,L|149:235,1,40,8|0,0:0|0:0,0:0:0:0:
129,236,256553,2,0,P|115:274|123:319,1,79.9999999999999,8|4,0:0|0:0,0:0:0:0:
188,353,257178,2,0,L|253:341,1,40,8|0,0:0|0:0,0:0:0:0:
266,335,257491,2,0,L|331:323,1,40,8|0,0:0|0:0,0:0:0:0:
344,320,257803,2,0,L|397:309,1,40,8|0,0:0|0:0,0:0:0:0:
415,304,258116,5,4,0:0:0:0:
256,192,258272,12,0,260616,0:0:0:0:
221,89,261866,6,0,L|234:174,1,79.9999999999999
310,188,262491,2,0,L|297:273,1,79.9999999999999
238,320,263116,5,0,0:0:0:0:
