osu file format v14

[General]
AudioFilename: audio.mp3
AudioLeadIn: 0
PreviewTime: 56491
Countdown: 0
SampleSet: None
StackLeniency: 0
Mode: 0
LetterboxInBreaks: 0
WidescreenStoryboard: 1

[Editor]
DistanceSpacing: 0.1
BeatDivisor: 4
GridSize: 32
TimelineZoom: 2.2

[Metadata]
Title:Love Will Surely Skyrocket -Rock Buster-
TitleUnicode:恋はきっと急上昇☆-Rock Buster-
Artist:Myoya x Suzushiro
ArtistUnicode:ミョヤ×すずしろ
Creator:suzusiro
Version:HS
Source:
Tags:gay
BeatmapID:4549318
BeatmapSetID:2146037

[Difficulty]
HPDrainRate:10
CircleSize:2
OverallDifficulty:10
ApproachRate:10
SliderMultiplier:1.62
SliderTickRate:1

[Events]
//Background and Video events
0,0,"FB-nAzyVUAkrjnm.jpg",0,0
//Break Periods
2,81562,87105
2,158013,175151
//Storyboard Layer 0 (Background)
//Storyboard Layer 1 (Fail)
//Storyboard Layer 2 (Pass)
//Storyboard Layer 3 (Foreground)
//Storyboard Layer 4 (Overlay)
//Storyboard Sound Samples

[TimingPoints]
846,387.096774193548,4,2,1,60,1,0
846,-166.666666666667,4,2,1,45,0,0
7039,-99.9999999999999,4,2,1,75,0,0
13233,-111.111111111111,4,2,1,75,0,0
16329,-99.9999999999999,4,2,1,80,0,0
19426,-125,4,2,1,60,0,0
31039,-125,4,2,1,62,0,0
31813,-111.111111111111,4,2,1,65,0,0
48071,-111.111111111111,4,2,1,70,0,0
48652,-90.9090909090908,4,2,1,70,0,0
50394,-111.111111111111,4,2,1,70,0,0
53491,-111.111111111111,4,2,1,70,0,0
56587,-100,4,2,1,80,0,1
68975,-99.9999999999999,4,2,1,75,0,0
75168,-111.111111111111,4,2,1,75,0,0
78265,-99.9999999999999,4,2,1,80,0,0
81362,-99.9999999999999,4,2,1,55,0,0
87555,-125,4,2,1,60,0,0
91813,-125,4,2,1,62,0,0
92975,-125,4,2,1,65,0,0
93749,-111.111111111111,4,2,1,65,0,0
104394,-90.9090909090909,4,2,1,65,0,0
104781,-111.111111111111,4,2,1,65,0,0
110007,-111.111111111111,4,2,1,70,0,0
110587,-90.9090909090909,4,2,1,70,0,0
112329,-111.111111111111,4,2,1,70,0,0
115426,-142.857142857143,4,2,1,70,0,0
117749,-142.857142857143,4,2,1,75,0,0
118523,-100,4,2,1,80,0,1
130910,-100,4,2,1,75,0,0
137104,-111.111111111111,4,2,1,70,0,0
140200,-100,4,2,1,75,0,0
143297,-125,4,2,1,65,0,0
147168,-125,4,2,1,70,0,0
147749,-100,4,2,1,70,0,0
149491,-111.111111111111,4,2,1,70,0,0
155297,-172.413793103448,4,2,1,70,0,0
157813,-172.413793103448,4,2,1,20,0,0
160329,545.454545454546,4,2,1,60,1,0
175601,387.096774193548,4,2,1,75,1,0
178697,-100,4,2,1,80,0,1
191084,-100,4,2,1,75,0,0
197278,-111.111111111111,4,2,1,75,0,0
200375,-100,4,2,1,75,0,0
209665,-100,4,2,1,80,0,0
215859,-100,4,2,1,75,0,0
216633,-100,4,2,1,70,0,0
217407,-100,4,2,1,65,0,0
217600,441.176470588235,4,2,1,60,1,0
217820,499.999999999999,4,2,1,60,1,0
218070,566.037735849057,4,2,1,60,1,0
218353,-133.333333333333,4,2,1,60,0,0
224862,-125,4,2,1,5,0,0

[HitObjects]
256,192,846,5,2,0:0:0:0:
256,192,1233,1,2,0:0:0:0:
256,192,1620,1,2,0:0:0:0:
256,192,1813,1,2,0:0:0:0:
256,192,2007,1,2,0:0:0:0:
256,192,2200,1,2,0:0:0:0:
256,192,2587,1,2,0:0:0:0:
256,192,2781,1,2,0:0:0:0:
256,192,2975,1,2,0:0:0:0:
256,192,3168,1,2,0:0:0:0:
256,192,3749,1,2,0:0:0:0:
256,192,3942,1,2,0:0:0:0:
256,192,4329,1,2,0:0:0:0:
256,192,4523,1,2,0:0:0:0:
256,192,4910,1,2,0:0:0:0:
256,192,5104,1,2,0:0:0:0:
256,192,5297,1,2,0:0:0:0:
256,192,5684,1,2,0:0:0:0:
256,192,5878,1,2,0:0:0:0:
256,192,6071,1,2,0:0:0:0:
256,192,6265,1,2,0:0:0:0:
256,192,7039,1,6,1:2:0:0:
256,192,7426,1,10,0:0:0:0:
256,192,7813,1,2,1:2:0:0:
256,192,8007,1,2,0:0:0:0:
256,192,8200,1,10,0:0:0:0:
256,192,8394,1,2,0:0:0:0:
256,192,8587,1,0,1:2:0:0:
256,192,8781,1,2,0:0:0:0:
256,192,8975,1,10,0:0:0:0:
256,192,9168,1,2,0:0:0:0:
256,192,9362,1,2,1:2:0:0:
256,192,9749,1,8,0:0:0:0:
256,192,9942,1,8,0:0:0:0:
256,192,10039,1,8,0:0:0:0:
256,192,10136,1,2,1:2:0:0:
256,192,10523,1,10,0:0:0:0:
256,192,10716,1,2,0:0:0:0:
256,192,10910,1,0,1:2:0:0:
256,192,11104,1,2,0:0:0:0:
256,192,11297,1,10,0:0:0:0:
256,192,11491,1,2,0:0:0:0:
256,192,11684,1,0,1:2:0:0:
256,192,11878,1,2,0:0:0:0:
256,192,12071,1,10,0:0:0:0:
256,192,12265,1,2,3:2:0:0:
256,192,12362,1,0,3:2:0:0:
256,192,12458,1,8,0:0:0:0:
256,192,12555,1,8,0:0:0:0:
256,192,12652,1,8,0:0:0:0:
256,192,12749,1,8,0:0:0:0:
256,192,12845,1,8,0:0:0:0:
256,192,13039,1,8,0:0:0:0:
256,192,13136,1,8,0:0:0:0:
256,192,13233,1,6,1:2:0:0:
256,192,13620,1,2,1:2:0:0:
256,192,13813,1,0,1:2:0:0:
256,192,14007,1,10,0:0:0:0:
256,192,14200,1,2,1:2:0:0:
256,192,14394,1,2,1:2:0:0:
256,192,14491,1,0,1:2:0:0:
256,192,14587,1,2,1:2:0:0:
256,192,14781,1,0,1:2:0:0:
256,192,14975,1,2,1:2:0:0:
256,192,15168,1,2,1:2:0:0:
256,192,15362,1,2,1:2:0:0:
256,192,15555,1,10,0:0:0:0:
256,192,15749,1,2,1:2:0:0:
256,192,15942,1,10,0:0:0:0:
256,192,16039,1,8,0:0:0:0:
256,192,16136,1,10,0:0:0:0:
256,192,16329,1,6,1:2:0:0:
256,192,16620,1,8,1:2:0:0:
256,192,16716,1,10,0:0:0:0:
256,192,16910,1,6,1:2:0:0:
257,192,17104,1,0,3:2:0:0:
256,192,17200,1,0,3:2:0:0:
256,192,17297,1,2,3:2:0:0:
256,192,17394,1,0,3:2:0:0:
256,192,17491,1,10,0:0:0:0:
256,192,17684,1,6,1:2:0:0:
256,192,17878,1,0,3:2:0:0:
256,192,18071,1,10,0:0:0:0:
256,192,18265,1,10,0:0:0:0:
256,192,18458,1,10,0:0:0:0:
256,192,18652,1,10,0:0:0:0:
256,192,18845,1,0,3:2:0:0:
256,192,18942,1,0,3:2:0:0:
256,192,19039,1,0,3:2:0:0:
256,192,19136,1,0,1:2:0:0:
256,192,19233,1,0,1:2:0:0:
256,192,19329,1,0,1:2:0:0:
256,192,19426,1,6,1:2:0:0:
256,192,19620,1,2,1:2:0:0:
256,192,19813,1,10,0:0:0:0:
256,192,20007,1,2,0:0:0:0:
256,192,20200,1,2,0:0:0:0:
256,192,20394,1,2,1:2:0:0:
256,192,20587,1,10,0:0:0:0:
256,192,20781,1,2,0:0:0:0:
256,192,20975,1,0,1:2:0:0:
256,192,21168,1,2,1:2:0:0:
256,192,21362,1,10,0:0:0:0:
256,192,21555,1,2,0:0:0:0:
256,192,21749,1,2,0:0:0:0:
256,192,21942,1,2,1:2:0:0:
256,192,22136,1,10,0:0:0:0:
256,192,22329,1,2,1:2:0:0:
256,192,22523,1,0,1:2:0:0:
256,192,22716,1,2,1:2:0:0:
256,192,22910,1,10,0:0:0:0:
256,192,23104,1,2,0:0:0:0:
256,192,23297,1,2,0:0:0:0:
256,192,23491,1,2,1:2:0:0:
256,192,23684,1,10,0:0:0:0:
256,192,23878,1,2,0:0:0:0:
256,192,24071,1,0,1:2:0:0:
256,192,24265,1,2,1:2:0:0:
256,192,24458,1,10,0:0:0:0:
256,192,24652,1,2,0:0:0:0:
256,192,24845,1,2,1:2:0:0:
256,192,24942,1,8,0:0:0:0:
256,192,25039,1,2,1:2:0:0:
256,192,25233,1,10,0:0:0:0:
256,192,25426,1,2,1:2:0:0:
256,192,25620,1,0,1:2:0:0:
256,192,25813,1,2,1:2:0:0:
256,192,26007,1,10,0:0:0:0:
256,192,26200,1,2,0:0:0:0:
256,192,26394,1,2,0:0:0:0:
256,192,26587,1,2,1:2:0:0:
256,192,26781,1,10,0:0:0:0:
256,192,26975,1,2,0:0:0:0:
256,192,27168,1,0,1:2:0:0:
256,192,27362,1,2,1:2:0:0:
256,192,27555,1,10,0:0:0:0:
256,192,27749,1,2,0:0:0:0:
256,192,27942,1,2,0:0:0:0:
256,192,28136,1,2,1:2:0:0:
256,192,28329,1,10,0:0:0:0:
256,192,28523,1,2,0:0:0:0:
256,192,28716,1,0,1:2:0:0:
256,192,28910,1,2,1:2:0:0:
256,192,29104,1,10,0:0:0:0:
256,192,29297,1,2,0:0:0:0:
256,192,29491,1,2,1:2:0:0:
256,192,29684,1,2,1:2:0:0:
256,192,29878,1,10,0:0:0:0:
256,192,30071,1,2,0:0:0:0:
256,192,30168,1,8,0:0:0:0:
256,192,30265,1,0,1:2:0:0:
256,192,30458,1,2,1:2:0:0:
256,192,30652,1,10,0:0:0:0:
256,192,30845,1,2,1:2:0:0:
256,192,31039,1,10,0:0:0:0:
257,192,31136,1,8,0:0:0:0:
256,192,31233,1,10,0:0:0:0:
256,192,31426,1,10,0:0:0:0:
256,192,31620,1,10,0:0:0:0:
256,192,31716,1,8,0:0:0:0:
256,192,31813,1,6,1:2:0:0:
256,192,32007,1,2,1:2:0:0:
256,192,32200,1,10,0:0:0:0:
256,192,32394,1,2,0:0:0:0:
256,192,32587,1,2,1:2:0:0:
256,192,32781,1,2,1:2:0:0:
256,192,32975,1,10,0:0:0:0:
256,192,33168,1,2,0:0:0:0:
256,192,33362,1,0,1:2:0:0:
256,192,33555,1,2,1:2:0:0:
256,192,33749,1,8,0:0:0:0:
256,192,33942,1,2,0:0:0:0:
256,192,34136,1,0,1:2:0:0:
256,192,34329,1,2,1:2:0:0:
256,192,34523,1,10,0:0:0:0:
256,192,34716,1,2,0:0:0:0:
256,192,34910,1,0,1:2:0:0:
256,192,35104,1,2,1:2:0:0:
256,192,35297,1,10,0:0:0:0:
256,192,35491,1,2,0:0:0:0:
256,192,35684,1,2,1:2:0:0:
256,192,35878,1,2,1:2:0:0:
256,192,36071,1,10,0:0:0:0:
256,192,36265,1,2,0:0:0:0:
256,192,36458,1,0,1:2:0:0:
256,192,36652,1,2,1:2:0:0:
256,192,36845,1,10,0:0:0:0:
256,192,37039,1,2,0:0:0:0:
256,192,37233,1,2,1:2:0:0:
256,192,37426,1,10,0:0:0:0:
256,192,37620,1,2,1:2:0:0:
256,192,37813,1,10,0:0:0:0:
256,192,38007,1,0,1:2:0:0:
256,192,38200,1,2,1:2:0:0:
256,192,38394,1,10,0:0:0:0:
256,192,38587,1,2,0:0:0:0:
256,192,38781,1,2,1:2:0:0:
256,192,38975,1,2,1:2:0:0:
256,192,39168,1,10,0:0:0:0:
256,192,39362,1,2,0:0:0:0:
256,192,39555,1,0,1:2:0:0:
256,192,39749,1,2,1:2:0:0:
256,192,39942,1,8,0:0:0:0:
256,192,40136,1,2,0:0:0:0:
256,192,40329,1,0,1:2:0:0:
256,192,40523,1,2,1:2:0:0:
256,192,40716,1,10,0:0:0:0:
256,192,40910,1,2,0:0:0:0:
256,192,41104,1,0,1:2:0:0:
256,192,41297,1,2,1:2:0:0:
256,192,41491,1,10,0:0:0:0:
256,192,41684,1,2,0:0:0:0:
256,192,41878,1,2,1:2:0:0:
256,192,42071,1,2,1:2:0:0:
256,192,42265,1,10,0:0:0:0:
256,192,42458,1,2,0:0:0:0:
256,192,42652,1,0,1:2:0:0:
256,192,42845,1,10,0:0:0:0:
256,192,43039,1,10,0:0:0:0:
256,192,43136,1,0,1:2:0:0:
256,192,43233,1,2,1:2:0:0:
256,192,43426,1,10,0:0:0:0:
256,192,43620,1,2,1:2:0:0:
256,192,43813,1,10,0:0:0:0:
256,192,44007,1,2,1:2:0:0:
256,192,44200,1,6,1:2:0:0:
256,192,44394,1,2,0:0:0:0:
256,192,44587,1,10,0:0:0:0:
256,192,44781,1,2,0:0:0:0:
256,192,44975,1,2,0:0:0:0:
256,192,45168,1,2,1:2:0:0:
256,192,45362,1,10,0:0:0:0:
256,192,45555,1,2,0:0:0:0:
256,192,45749,1,0,1:2:0:0:
256,192,45942,1,2,0:0:0:0:
256,192,46136,1,10,0:0:0:0:
256,192,46329,1,2,0:0:0:0:
256,192,46523,1,2,0:0:0:0:
256,192,46716,1,0,1:2:0:0:
256,192,46910,1,10,0:0:0:0:
256,192,47104,1,0,1:2:0:0:
256,192,47297,1,0,1:2:0:0:
256,192,47491,1,2,0:0:0:0:
256,192,47684,1,10,0:0:0:0:
256,192,47878,1,2,0:0:0:0:
256,192,48071,1,10,1:2:0:0:
256,192,48265,1,10,0:0:0:0:
256,192,48458,1,10,0:0:0:0:
256,192,48652,1,6,1:2:0:0:
256,192,49039,1,2,1:2:0:0:
256,192,49233,1,10,0:0:0:0:
256,192,49426,1,6,1:2:0:0:
256,192,49813,1,2,1:2:0:0:
256,192,50007,1,10,0:0:0:0:
256,192,50200,1,6,1:2:0:0:
256,192,50587,1,2,1:2:0:0:
256,192,50781,1,10,0:0:0:0:
256,192,50975,1,2,0:0:0:0:
256,192,51168,1,2,0:0:0:0:
256,192,51362,1,2,1:2:0:0:
256,192,51555,1,10,0:0:0:0:
256,192,51749,1,2,1:2:0:0:
256,192,51942,1,0,1:2:0:0:
256,192,52136,1,2,0:0:0:0:
256,192,52329,1,10,0:0:0:0:
256,192,52523,1,2,0:0:0:0:
256,192,52716,1,0,1:2:0:0:
256,192,52910,1,0,1:2:0:0:
256,192,53104,1,8,0:0:0:0:
256,192,53297,1,2,0:0:0:0:
256,192,53491,1,6,1:2:0:0:
256,192,53878,1,0,1:2:0:0:
256,192,54071,1,0,1:2:0:0:
256,192,54265,1,10,0:0:0:0:
256,192,54458,1,0,1:2:0:0:
256,192,54652,1,8,0:0:0:0:
256,192,54749,1,8,0:0:0:0:
256,192,54845,1,8,3:2:0:0:
256,192,55039,1,6,1:2:0:0:
256,192,55813,1,2,0:0:0:0:
256,192,55910,1,2,0:0:0:0:
256,192,56007,1,2,0:0:0:0:
256,192,56104,1,2,0:0:0:0:
256,192,56200,1,2,0:0:0:0:
256,192,56297,1,2,0:0:0:0:
256,192,56394,1,2,0:0:0:0:
256,192,56491,1,2,0:0:0:0:
256,192,56587,1,6,1:2:0:0:
256,192,56975,1,10,0:0:0:0:
256,192,57362,1,2,1:2:0:0:
256,192,57555,1,2,0:0:0:0:
256,192,57749,1,10,0:0:0:0:
256,192,57942,1,2,0:0:0:0:
256,192,58136,1,0,1:2:0:0:
256,192,58329,1,2,0:0:0:0:
256,192,58523,1,10,0:0:0:0:
256,192,58716,1,2,0:0:0:0:
256,192,58910,1,2,1:2:0:0:
256,192,59297,1,8,0:0:0:0:
256,192,59491,1,2,0:0:0:0:
256,192,59684,1,2,1:2:0:0:
256,192,60071,1,10,0:0:0:0:
256,192,60265,1,2,0:0:0:0:
256,192,60458,1,0,1:2:0:0:
256,192,60652,1,2,0:0:0:0:
256,192,60845,1,8,0:0:0:0:
256,192,61039,1,2,0:0:0:0:
256,192,61233,1,0,1:2:0:0:
256,192,61426,1,2,0:0:0:0:
256,192,61620,1,10,0:0:0:0:
256,192,61813,1,2,0:0:0:0:
256,192,62007,1,2,1:2:0:0:
256,192,62200,1,0,1:2:0:0:
256,192,62297,1,0,1:2:0:0:
256,192,62394,1,8,0:0:0:0:
256,192,62587,1,0,1:2:0:0:
256,192,62781,1,6,1:2:0:0:
256,192,63168,1,10,0:0:0:0:
256,192,63555,1,2,1:2:0:0:
256,192,63749,1,2,0:0:0:0:
256,192,63942,1,10,0:0:0:0:
256,192,64136,1,2,0:0:0:0:
256,192,64329,1,0,1:2:0:0:
256,192,64523,1,2,0:0:0:0:
256,192,64716,1,10,0:0:0:0:
256,192,64910,1,2,1:2:0:0:
256,192,65104,1,2,1:2:0:0:
256,192,65297,1,0,1:2:0:0:
256,192,65491,1,10,0:0:0:0:
256,192,65684,1,2,1:2:0:0:
256,192,65878,1,6,1:2:0:0:
256,192,66265,1,10,0:0:0:0:
256,192,66458,1,6,1:2:0:0:
256,192,66845,1,2,1:2:0:0:
256,192,67039,1,8,0:0:0:0:
256,192,67233,1,14,0:0:0:0:
256,192,67620,1,2,1:2:0:0:
256,192,67813,1,10,0:0:0:0:
256,192,68007,1,10,0:0:0:0:
256,192,68104,1,8,0:0:0:0:
256,192,68200,1,10,0:0:0:0:
256,192,68297,1,8,0:0:0:0:
256,192,68394,1,8,0:0:0:0:
256,192,68491,1,8,0:0:0:0:
256,192,68587,1,10,0:0:0:0:
256,192,68781,1,8,0:0:0:0:
256,192,68878,1,8,0:0:0:0:
256,192,68975,1,6,1:2:0:0:
256,192,69362,1,10,0:0:0:0:
256,192,69749,1,2,1:2:0:0:
256,192,69942,1,2,0:0:0:0:
256,192,70136,1,10,0:0:0:0:
256,192,70329,1,2,0:0:0:0:
256,192,70523,1,0,1:2:0:0:
256,192,70716,1,2,0:0:0:0:
256,192,70910,1,10,0:0:0:0:
256,192,71104,1,2,0:0:0:0:
256,192,71297,1,2,1:2:0:0:
256,192,71684,1,8,0:0:0:0:
256,192,71878,1,8,0:0:0:0:
256,192,71975,1,8,0:0:0:0:
256,192,72071,1,2,1:2:0:0:
256,192,72458,1,10,0:0:0:0:
256,192,72652,1,2,0:0:0:0:
256,192,72845,1,0,1:2:0:0:
256,192,73039,1,2,0:0:0:0:
256,192,73233,1,10,0:0:0:0:
256,192,73426,1,2,0:0:0:0:
256,192,73620,1,0,1:2:0:0:
256,192,73813,1,2,0:0:0:0:
256,192,74007,1,10,0:0:0:0:
256,192,74200,1,2,1:2:0:0:
256,192,74394,1,10,0:0:0:0:
256,192,74491,1,10,0:0:0:0:
256,192,74587,1,10,0:0:0:0:
256,192,74684,1,10,0:0:0:0:
256,192,74781,1,10,0:0:0:0:
256,192,74878,1,0,1:2:0:0:
256,192,74975,1,0,3:2:0:0:
256,192,75071,1,0,3:2:0:0:
256,192,75168,1,6,1:2:0:0:
256,192,75555,1,2,1:2:0:0:
256,192,75749,1,0,1:2:0:0:
256,192,75942,1,10,0:0:0:0:
256,192,76136,1,2,1:2:0:0:
256,192,76329,1,2,1:2:0:0:
256,192,76523,1,2,1:2:0:0:
256,192,76716,1,0,1:2:0:0:
256,192,76910,1,2,1:2:0:0:
256,192,77104,1,2,1:2:0:0:
256,192,77297,1,2,1:2:0:0:
256,192,77491,1,10,0:0:0:0:
256,192,77684,1,2,1:2:0:0:
256,192,77878,1,10,0:0:0:0:
256,192,77975,1,8,0:0:0:0:
256,192,78071,1,10,0:0:0:0:
256,192,78265,1,6,1:2:0:0:
256,192,78555,1,8,0:0:0:0:
256,192,78652,1,10,0:0:0:0:
256,192,78845,1,6,1:2:0:0:
256,192,79039,1,0,3:2:0:0:
256,192,79136,1,8,0:0:0:0:
256,192,79233,1,10,0:0:0:0:
256,192,79329,1,0,3:2:0:0:
256,192,79426,1,10,0:0:0:0:
256,192,79620,1,6,1:2:0:0:
256,192,79813,1,0,3:2:0:0:
256,192,80007,1,10,0:0:0:0:
256,192,80200,1,10,0:0:0:0:
256,192,80394,1,10,0:0:0:0:
256,192,80587,1,10,0:0:0:0:
256,192,80781,1,0,3:2:0:0:
256,192,80878,1,0,3:2:0:0:
256,192,80975,1,0,3:2:0:0:
256,192,81071,1,0,1:2:0:0:
256,192,81168,1,0,1:2:0:0:
256,192,81265,1,0,1:2:0:0:
256,192,81362,1,4,1:2:0:0:
256,192,87555,5,0,1:2:0:0:
256,192,87749,1,2,0:0:0:0:
256,192,87942,1,10,0:0:0:0:
256,192,88136,1,2,0:0:0:0:
256,192,88329,1,2,1:2:0:0:
256,192,88523,1,2,0:0:0:0:
256,192,88716,1,10,0:0:0:0:
256,192,88910,1,2,0:0:0:0:
256,192,89104,1,0,1:2:0:0:
256,192,89297,1,2,0:0:0:0:
256,192,89491,1,8,0:0:0:0:
256,192,89684,1,2,0:0:0:0:
256,192,89878,1,0,1:2:0:0:
256,192,90071,1,2,0:0:0:0:
256,192,90265,1,10,0:0:0:0:
256,192,90458,1,2,0:0:0:0:
256,192,90652,1,0,1:2:0:0:
256,192,90845,1,2,0:0:0:0:
256,192,91039,1,10,0:0:0:0:
256,192,91233,1,2,0:0:0:0:
256,192,91426,1,2,1:2:0:0:
256,192,91620,1,10,0:0:0:0:
256,192,91813,1,10,0:0:0:0:
256,192,91910,1,8,0:0:0:0:
256,192,92007,1,2,0:0:0:0:
256,192,92200,1,8,0:0:0:0:
256,192,92975,1,10,0:0:0:0:
256,192,93168,1,10,0:0:0:0:
256,192,93362,1,10,0:0:0:0:
256,192,93555,1,10,0:0:0:0:
256,192,93749,1,4,1:2:0:0:
256,192,93942,1,2,1:2:0:0:
256,192,94136,1,10,0:0:0:0:
256,192,94523,1,2,1:2:0:0:
256,192,94716,1,2,1:2:0:0:
256,192,94910,1,10,0:0:0:0:
256,192,95104,1,2,0:0:0:0:
256,192,95297,1,0,1:2:0:0:
256,192,95491,1,2,1:2:0:0:
256,192,95684,1,10,0:0:0:0:
256,192,95878,1,2,0:0:0:0:
256,192,96071,1,2,1:2:0:0:
256,192,96265,1,2,1:2:0:0:
256,192,96458,1,10,0:0:0:0:
256,192,96652,1,2,0:0:0:0:
256,192,96845,1,0,1:2:0:0:
256,192,97039,1,2,1:2:0:0:
256,192,97233,1,10,0:0:0:0:
256,192,97426,1,2,0:0:0:0:
256,192,97620,1,2,1:2:0:0:
256,192,97813,1,2,1:2:0:0:
256,192,98007,1,10,0:0:0:0:
256,192,98200,1,2,0:0:0:0:
256,192,98394,1,0,1:2:0:0:
256,192,98587,1,2,1:2:0:0:
256,192,98781,1,8,0:0:0:0:
256,192,98975,1,2,1:2:0:0:
256,192,99168,1,2,1:2:0:0:
256,192,99362,1,10,0:0:0:0:
256,192,99555,1,2,1:2:0:0:
256,192,99749,1,10,0:0:0:0:
256,192,99942,1,0,1:2:0:0:
256,192,100136,1,2,1:2:0:0:
256,192,100329,1,10,0:0:0:0:
256,192,100716,1,2,1:2:0:0:
256,192,100910,1,2,1:2:0:0:
256,192,101104,1,10,0:0:0:0:
256,192,101297,1,2,0:0:0:0:
256,192,101491,1,0,1:2:0:0:
256,192,101684,1,2,1:2:0:0:
256,192,101878,1,10,0:0:0:0:
256,192,102071,1,2,0:0:0:0:
256,192,102265,1,2,1:2:0:0:
256,192,102458,1,2,1:2:0:0:
256,192,102652,1,10,0:0:0:0:
256,192,102845,1,2,0:0:0:0:
256,192,103039,1,0,1:2:0:0:
256,192,103233,1,2,1:2:0:0:
256,192,103426,1,10,0:0:0:0:
256,192,103620,1,2,0:0:0:0:
256,192,103813,1,2,1:2:0:0:
256,192,104007,1,2,1:2:0:0:
256,192,104200,1,10,0:0:0:0:
256,192,104394,1,2,0:0:0:0:
256,192,104587,1,0,1:2:0:0:
256,192,104781,1,10,0:0:0:0:
256,192,104975,1,10,0:0:0:0:
256,192,105168,1,2,1:2:0:0:
256,192,105265,1,0,1:2:0:0:
256,192,105362,1,10,0:0:0:0:
256,192,105555,1,2,1:2:0:0:
256,192,105749,1,10,0:0:0:0:
256,192,105942,1,2,1:2:0:0:
256,192,106136,1,6,1:2:0:0:
256,192,106329,1,2,0:0:0:0:
256,192,106523,1,10,0:0:0:0:
256,192,106716,1,2,0:0:0:0:
256,192,106910,1,2,0:0:0:0:
256,192,107104,1,2,1:2:0:0:
256,192,107297,1,10,0:0:0:0:
256,192,107491,1,2,0:0:0:0:
256,192,107684,1,0,1:2:0:0:
256,192,107878,1,2,0:0:0:0:
256,192,108071,1,10,0:0:0:0:
256,192,108265,1,2,0:0:0:0:
256,192,108458,1,2,0:0:0:0:
256,192,108652,1,0,1:2:0:0:
256,192,108845,1,10,0:0:0:0:
256,192,109039,1,0,1:2:0:0:
256,192,109233,1,0,1:2:0:0:
256,192,109426,1,2,0:0:0:0:
256,192,109620,1,10,0:0:0:0:
256,192,109813,1,2,0:0:0:0:
256,192,110007,1,10,1:2:0:0:
256,192,110200,1,10,0:0:0:0:
256,192,110394,1,10,0:0:0:0:
256,192,110587,1,6,1:2:0:0:
256,192,110975,1,2,1:2:0:0:
256,192,111168,1,10,0:0:0:0:
256,192,111362,1,6,1:2:0:0:
256,192,111749,1,2,1:2:0:0:
256,192,111942,1,10,0:0:0:0:
256,192,112136,1,6,1:2:0:0:
256,192,112523,1,2,1:2:0:0:
256,192,112716,1,10,0:0:0:0:
256,192,112910,1,2,0:0:0:0:
256,192,113104,1,2,0:0:0:0:
256,192,113297,1,2,1:2:0:0:
256,192,113491,1,10,0:0:0:0:
256,192,113684,1,2,1:2:0:0:
256,192,113878,1,0,1:2:0:0:
256,192,114071,1,2,0:0:0:0:
256,192,114265,1,10,0:0:0:0:
256,192,114458,1,2,0:0:0:0:
256,192,114652,1,0,1:2:0:0:
256,192,114845,1,0,1:2:0:0:
256,192,115039,1,8,0:0:0:0:
256,192,115233,1,2,0:0:0:0:
256,192,115426,1,6,1:2:0:0:
256,192,115813,1,0,1:2:0:0:
256,192,116007,1,0,1:2:0:0:
256,192,116200,1,10,0:0:0:0:
256,192,116394,1,0,1:2:0:0:
256,192,116587,1,8,0:0:0:0:
256,192,116684,1,8,0:0:0:0:
256,192,116781,1,8,3:2:0:0:
256,192,116975,1,6,1:2:0:0:
256,192,117749,1,10,0:0:0:0:
256,192,117845,1,10,0:0:0:0:
256,192,117942,1,10,0:0:0:0:
256,192,118136,1,10,0:0:0:0:
256,192,118329,1,10,0:0:0:0:
256,192,118426,1,10,0:0:0:0:
256,192,118523,1,6,1:2:0:0:
256,192,118910,1,10,0:0:0:0:
256,192,119297,1,2,1:2:0:0:
256,192,119491,1,2,0:0:0:0:
256,192,119684,1,10,0:0:0:0:
256,192,119878,1,2,0:0:0:0:
256,192,120071,1,0,1:2:0:0:
256,192,120265,1,2,0:0:0:0:
256,192,120458,1,10,0:0:0:0:
256,192,120652,1,2,0:0:0:0:
256,192,120845,1,2,1:2:0:0:
256,192,121233,1,8,0:0:0:0:
256,192,121426,1,2,0:0:0:0:
256,192,121620,1,2,1:2:0:0:
256,192,122007,1,10,0:0:0:0:
256,192,122200,1,2,0:0:0:0:
256,192,122394,1,0,1:2:0:0:
256,192,122587,1,2,0:0:0:0:
256,192,122781,1,10,0:0:0:0:
256,192,122975,1,2,0:0:0:0:
256,192,123168,1,0,1:2:0:0:
256,192,123362,1,2,0:0:0:0:
256,192,123555,1,10,0:0:0:0:
256,192,123749,1,2,0:0:0:0:
256,192,123942,1,2,1:2:0:0:
256,192,124136,1,0,1:2:0:0:
256,192,124233,1,0,1:2:0:0:
256,192,124329,1,8,0:0:0:0:
256,192,124523,1,0,1:2:0:0:
256,192,124716,1,6,1:2:0:0:
256,192,125104,1,10,0:0:0:0:
256,192,125491,1,2,1:2:0:0:
256,192,125684,1,2,0:0:0:0:
256,192,125878,1,10,0:0:0:0:
256,192,126071,1,2,0:0:0:0:
256,192,126265,1,0,1:2:0:0:
256,192,126458,1,2,0:0:0:0:
256,192,126652,1,10,0:0:0:0:
256,192,126845,1,2,1:2:0:0:
256,192,127039,1,2,1:2:0:0:
256,192,127233,1,0,1:2:0:0:
256,192,127426,1,10,0:0:0:0:
256,192,127620,1,2,1:2:0:0:
256,192,127813,1,6,1:2:0:0:
256,192,128200,1,10,0:0:0:0:
256,192,128394,1,6,1:2:0:0:
256,192,128781,1,2,1:2:0:0:
256,192,128975,1,10,0:0:0:0:
256,192,129168,1,6,1:2:0:0:
256,192,129555,1,10,0:0:0:0:
256,192,129749,1,10,0:0:0:0:
256,192,129942,1,10,0:0:0:0:
256,192,130039,1,8,0:0:0:0:
256,192,130136,1,10,0:0:0:0:
256,192,130233,1,8,0:0:0:0:
256,192,130329,1,8,0:0:0:0:
256,192,130426,1,8,0:0:0:0:
256,192,130523,1,10,0:0:0:0:
256,192,130716,1,8,0:0:0:0:
256,192,130813,1,8,0:0:0:0:
256,192,130910,1,6,1:2:0:0:
256,192,131297,1,10,0:0:0:0:
256,192,131684,1,2,1:2:0:0:
256,192,131878,1,2,0:0:0:0:
256,192,132071,1,10,0:0:0:0:
256,192,132265,1,2,0:0:0:0:
256,192,132458,1,2,1:2:0:0:
256,192,132652,1,2,0:0:0:0:
256,192,132845,1,10,0:0:0:0:
256,192,133039,1,2,0:0:0:0:
256,192,133233,1,0,1:2:0:0:
256,192,133426,1,2,0:0:0:0:
256,192,133620,1,10,0:0:0:0:
256,192,133813,1,2,0:0:0:0:
256,192,134007,1,0,1:2:0:0:
256,192,134200,1,2,0:0:0:0:
256,192,134394,1,10,0:0:0:0:
256,192,134587,1,2,0:0:0:0:
256,192,134781,1,2,1:2:0:0:
256,192,134975,1,2,0:0:0:0:
256,192,135168,1,10,0:0:0:0:
256,192,135362,1,2,0:0:0:0:
256,192,135555,1,2,1:2:0:0:
256,192,135749,1,2,0:0:0:0:
256,192,135845,1,2,0:0:0:0:
256,192,135942,1,10,0:0:0:0:
256,192,136136,1,2,1:2:0:0:
256,192,136329,1,10,0:0:0:0:
256,192,136426,1,10,0:0:0:0:
256,192,136523,1,10,0:0:0:0:
256,192,136620,1,10,0:0:0:0:
256,192,136716,1,2,1:2:0:0:
256,192,136813,1,2,1:2:0:0:
256,192,136910,1,2,1:2:0:0:
256,192,137007,1,2,1:2:0:0:
256,192,137104,1,6,1:2:0:0:
256,192,137491,1,2,1:2:0:0:
256,192,137878,1,10,0:0:0:0:
256,192,138071,1,2,1:2:0:0:
256,192,138265,1,2,1:2:0:0:
256,192,138458,1,2,1:2:0:0:
256,192,138652,1,0,1:2:0:0:
256,192,138845,1,2,1:2:0:0:
256,192,139039,1,2,1:2:0:0:
256,192,139233,1,2,1:2:0:0:
256,192,139426,1,8,0:0:0:0:
256,192,139620,1,2,1:2:0:0:
256,192,139813,1,10,0:0:0:0:
256,192,139910,1,8,0:0:0:0:
256,192,140007,1,10,0:0:0:0:
256,192,140200,1,6,1:2:0:0:
256,192,140394,1,2,0:0:0:0:
256,192,140491,1,10,0:0:0:0:
256,192,140587,1,10,0:0:0:0:
256,192,140781,1,6,1:2:0:0:
256,192,140975,1,0,3:2:0:0:
256,192,141071,1,8,0:0:0:0:
256,192,141168,1,2,1:2:0:0:
256,192,141265,1,0,1:2:0:0:
256,192,141362,1,10,0:0:0:0:
256,192,141555,1,6,1:2:0:0:
256,192,141749,1,0,3:2:0:0:
256,192,141942,1,10,0:0:0:0:
256,192,142136,1,10,0:0:0:0:
256,192,142329,1,10,0:0:0:0:
256,192,142523,1,10,0:0:0:0:
256,192,142716,1,0,3:2:0:0:
256,192,142813,1,0,3:2:0:0:
256,192,142910,1,0,1:2:0:0:
256,192,143297,1,4,1:2:0:0:
256,192,143491,1,2,1:2:0:0:
256,192,143684,1,2,0:0:0:0:
256,192,143878,1,2,1:2:0:0:
256,192,144071,1,10,0:0:0:0:
256,192,144265,1,2,1:2:0:0:
256,192,144458,1,2,0:0:0:0:
256,192,144652,1,2,1:2:0:0:
256,192,144845,1,0,1:2:0:0:
256,192,145039,1,2,0:0:0:0:
256,192,145233,1,2,0:0:0:0:
256,192,145426,1,2,1:2:0:0:
256,192,145620,1,8,0:0:0:0:
256,192,145813,1,0,1:2:0:0:
256,192,146200,1,0,1:2:0:0:
256,192,146394,1,0,1:2:0:0:
256,192,146587,1,2,1:2:0:0:
256,192,146781,1,2,0:0:0:0:
256,192,146975,1,2,1:2:0:0:
256,192,147168,1,10,0:0:0:0:
256,192,147362,1,2,0:0:0:0:
256,192,147458,1,0,1:2:0:0:
256,192,147555,1,10,0:0:0:0:
256,192,147749,1,6,1:2:0:0:
256,192,148136,1,2,1:2:0:0:
256,192,148329,1,10,0:0:0:0:
256,192,148523,1,6,1:2:0:0:
256,192,148620,1,0,1:2:0:0:
256,192,148716,1,8,0:0:0:0:
256,192,148910,1,2,1:2:0:0:
256,192,149104,1,10,0:0:0:0:
256,192,149297,1,6,1:2:0:0:
256,192,149684,1,2,1:2:0:0:
256,192,149878,1,10,0:0:0:0:
256,192,150071,1,2,0:0:0:0:
256,192,150265,1,2,1:2:0:0:
256,192,150458,1,2,1:2:0:0:
256,192,150652,1,10,0:0:0:0:
256,192,150845,1,2,0:0:0:0:
256,192,151039,1,0,1:2:0:0:
256,192,151233,1,2,1:2:0:0:
256,192,151426,1,10,0:0:0:0:
256,192,151620,1,2,1:2:0:0:
256,192,151813,1,0,1:2:0:0:
256,192,152007,1,0,1:2:0:0:
256,192,152200,1,8,0:0:0:0:
256,192,152394,1,2,0:0:0:0:
256,192,152587,1,6,1:2:0:0:
256,192,152975,1,8,0:0:0:0:
256,192,153168,1,0,1:2:0:0:
256,192,153362,1,10,0:0:0:0:
256,192,153491,1,8,0:0:0:0:
256,192,153620,1,8,0:0:0:0:
256,192,153749,1,0,1:2:0:0:
256,192,153878,1,0,1:2:0:0:
256,192,154007,1,0,3:2:0:0:
256,192,154136,1,6,1:2:0:0:
256,192,154523,1,6,1:2:0:0:
256,192,154910,1,6,1:2:0:0:
256,192,155297,1,6,1:2:0:0:
256,192,157813,1,0,0:2:0:0:
256,192,175601,5,10,0:0:0:0:
256,192,175794,1,8,0:0:0:0:
256,192,176375,1,8,0:0:0:0:
256,192,176568,1,10,0:0:0:0:
256,192,176955,1,10,0:0:0:0:
256,192,177342,1,10,0:0:0:0:
256,192,177439,1,8,0:0:0:0:
256,192,177536,1,2,1:2:0:0:
256,192,177730,1,2,1:2:0:0:
256,192,177923,1,10,0:0:0:0:
256,192,178697,1,6,1:2:0:0:
256,192,179084,1,10,0:0:0:0:
256,192,179471,1,2,1:2:0:0:
256,192,179665,1,2,0:0:0:0:
256,192,179859,1,10,0:0:0:0:
256,192,180052,1,2,0:0:0:0:
256,192,180246,1,0,1:2:0:0:
256,192,180439,1,2,0:0:0:0:
256,192,180633,1,10,0:0:0:0:
256,192,180826,1,2,0:0:0:0:
256,192,181020,1,2,1:2:0:0:
256,192,181407,1,8,0:0:0:0:
256,192,181601,1,2,0:0:0:0:
256,192,181794,1,2,1:2:0:0:
256,192,182181,1,10,0:0:0:0:
256,192,182375,1,2,0:0:0:0:
256,192,182568,1,0,1:2:0:0:
256,192,182762,1,2,0:0:0:0:
256,192,182955,1,8,0:0:0:0:
256,192,183149,1,2,0:0:0:0:
256,192,183342,1,0,1:2:0:0:
256,192,183536,1,2,0:0:0:0:
256,192,183730,1,10,0:0:0:0:
256,192,183923,1,2,0:0:0:0:
256,192,184117,1,2,1:2:0:0:
256,192,184310,1,0,1:2:0:0:
256,192,184504,1,8,0:0:0:0:
256,192,184697,1,0,1:2:0:0:
256,192,184891,1,6,1:2:0:0:
256,192,185278,1,10,0:0:0:0:
256,192,185665,1,2,1:2:0:0:
256,192,185859,1,2,0:0:0:0:
256,192,186052,1,10,0:0:0:0:
256,192,186246,1,2,0:0:0:0:
256,192,186439,1,0,1:2:0:0:
256,192,186633,1,2,0:0:0:0:
256,192,186826,1,10,0:0:0:0:
256,192,187020,1,2,1:2:0:0:
256,192,187213,1,2,1:2:0:0:
256,192,187407,1,0,1:2:0:0:
256,192,187601,1,10,0:0:0:0:
256,192,187794,1,2,1:2:0:0:
256,192,187988,1,6,1:2:0:0:
256,192,188375,1,10,0:0:0:0:
256,192,188568,1,6,1:2:0:0:
256,192,188955,1,2,1:2:0:0:
256,192,189052,1,0,1:2:0:0:
256,192,189149,1,8,0:0:0:0:
256,192,189342,1,6,1:2:0:0:
256,192,189730,1,2,1:2:0:0:
256,192,189923,1,10,0:0:0:0:
256,192,190117,1,10,0:0:0:0:
256,192,190310,1,10,0:0:0:0:
256,192,190407,1,8,0:0:0:0:
256,192,190504,1,8,0:0:0:0:
256,192,190697,1,10,0:0:0:0:
256,192,190891,1,8,0:0:0:0:
256,192,190988,1,8,0:0:0:0:
256,192,191084,1,6,1:2:0:0:
256,192,191471,1,10,0:0:0:0:
256,192,191859,1,2,1:2:0:0:
256,192,192052,1,2,0:0:0:0:
256,192,192246,1,10,0:0:0:0:
256,192,192439,1,2,0:0:0:0:
256,192,192633,1,0,1:2:0:0:
256,192,192826,1,2,0:0:0:0:
256,192,193020,1,10,0:0:0:0:
256,192,193213,1,2,0:0:0:0:
256,192,193407,1,2,1:2:0:0:
256,192,193794,1,8,0:0:0:0:
256,192,193988,1,2,0:0:0:0:
256,192,194084,1,2,0:0:0:0:
256,192,194181,1,2,1:2:0:0:
256,192,194568,1,10,0:0:0:0:
256,192,194762,1,2,0:0:0:0:
256,192,194955,1,0,1:2:0:0:
256,192,195149,1,2,0:0:0:0:
256,192,195342,1,10,0:0:0:0:
256,192,195536,1,2,0:0:0:0:
256,192,195730,1,0,1:2:0:0:
256,192,195923,1,2,0:0:0:0:
256,192,196117,1,10,0:0:0:0:
256,192,196310,1,2,1:2:0:0:
256,192,196504,1,10,0:0:0:0:
256,192,196600,1,10,0:0:0:0:
256,192,196697,1,10,0:0:0:0:
256,192,196794,1,10,0:0:0:0:
256,192,196891,1,10,0:0:0:0:
256,192,197084,1,8,3:2:0:0:
256,192,197181,1,8,3:2:0:0:
256,192,197278,1,6,1:2:0:0:
256,192,197665,1,2,1:2:0:0:
256,192,197859,1,0,1:2:0:0:
256,192,198052,1,10,0:0:0:0:
256,192,198246,1,2,1:2:0:0:
256,192,198439,1,2,1:2:0:0:
256,192,198633,1,2,1:2:0:0:
256,192,198826,1,2,1:2:0:0:
256,192,199020,1,2,1:2:0:0:
256,192,199213,1,2,1:2:0:0:
256,192,199407,1,2,1:2:0:0:
256,192,199600,1,10,0:0:0:0:
256,192,199794,1,2,1:2:0:0:
256,192,199988,1,10,0:0:0:0:
256,192,200084,1,8,0:0:0:0:
256,192,200181,1,10,0:0:0:0:
256,192,200375,1,6,1:2:0:0:
256,192,200665,1,8,0:0:0:0:
256,192,200762,1,10,0:0:0:0:
256,192,200955,1,6,1:2:0:0:
256,192,201246,1,0,1:2:0:0:
256,192,201342,1,2,1:2:0:0:
256,192,201536,1,10,0:0:0:0:
256,192,201730,1,6,1:2:0:0:
256,192,201923,1,0,1:2:0:0:
256,192,202117,1,10,0:0:0:0:
256,192,202213,1,8,0:0:0:0:
256,192,202310,1,10,0:0:0:0:
256,192,202504,1,10,0:0:0:0:
256,192,202600,1,8,0:0:0:0:
256,192,202697,1,10,1:2:0:0:
256,192,202891,1,10,0:0:0:0:
256,192,202988,1,10,0:0:0:0:
256,192,203084,1,10,0:0:0:0:
256,192,203278,1,10,0:0:0:0:
256,192,203375,1,10,0:0:0:0:
256,192,203471,1,6,1:2:0:0:
256,192,203859,1,10,0:0:0:0:
256,192,204246,1,2,1:2:0:0:
256,192,204439,1,2,0:0:0:0:
256,192,204633,1,10,0:0:0:0:
256,192,204826,1,2,0:0:0:0:
256,192,205020,1,0,1:2:0:0:
256,192,205213,1,2,0:0:0:0:
256,192,205407,1,10,0:0:0:0:
256,192,205600,1,2,0:0:0:0:
256,192,205794,1,2,1:2:0:0:
256,192,206181,1,8,0:0:0:0:
256,192,206375,1,2,0:0:0:0:
256,192,206471,1,2,0:0:0:0:
256,192,206568,1,6,1:2:0:0:
256,192,206955,1,10,0:0:0:0:
256,192,207149,1,2,0:0:0:0:
256,192,207342,1,0,1:2:0:0:
256,192,207536,1,2,0:0:0:0:
256,192,207730,1,10,0:0:0:0:
256,192,207923,1,2,0:0:0:0:
256,192,208117,1,0,1:2:0:0:
256,192,208310,1,2,0:0:0:0:
256,192,208504,1,10,0:0:0:0:
256,192,208697,1,2,0:0:0:0:
256,192,208891,1,2,1:2:0:0:
256,192,208988,1,2,1:2:0:0:
256,192,209084,1,2,1:2:0:0:
256,192,209181,1,2,1:2:0:0:
256,192,209278,1,10,0:0:0:0:
256,192,209471,1,0,1:2:0:0:
256,192,209568,1,0,1:2:0:0:
256,192,209665,1,6,1:2:0:0:
256,192,210052,1,10,0:0:0:0:
256,192,210246,1,0,1:2:0:0:
256,192,210439,1,10,0:0:0:0:
256,192,210633,1,2,1:2:0:0:
256,192,210826,1,10,0:0:0:0:
256,192,211020,1,2,1:2:0:0:
256,192,211213,1,8,0:0:0:0:
256,192,211407,1,2,0:0:0:0:
256,192,211600,1,10,0:0:0:0:
256,192,211794,1,10,0:0:0:0:
256,192,211988,1,10,0:0:0:0:
256,192,212181,1,0,1:2:0:0:
256,192,212278,1,0,1:2:0:0:
256,192,212375,1,10,0:0:0:0:
256,192,212471,1,8,0:0:0:0:
256,192,212568,1,10,3:2:0:0:
256,192,212762,1,6,1:2:0:0:
256,192,212955,1,8,0:0:0:0:
256,192,213052,1,8,0:0:0:0:
256,192,213149,1,10,0:0:0:0:
256,192,213342,1,6,1:2:0:0:
256,192,213536,1,0,1:2:0:0:
256,192,213633,1,8,0:0:0:0:
256,192,213730,1,2,1:2:0:0:
256,192,213826,1,0,1:2:0:0:
256,192,213923,1,10,0:0:0:0:
256,192,214117,1,6,1:2:0:0:
256,192,214310,1,0,3:2:0:0:
256,192,214504,1,10,0:0:0:0:
256,192,214697,1,10,0:0:0:0:
256,192,214891,1,10,0:0:0:0:
256,192,215084,1,10,0:0:0:0:
256,192,215278,1,8,3:2:0:0:
256,192,215375,1,0,3:2:0:0:
256,192,215471,1,8,0:0:0:0:
256,192,215859,1,14,0:0:0:0:
256,192,216052,1,8,0:0:0:0:
256,192,216633,1,8,0:0:0:0:
256,192,216826,1,10,0:0:0:0:
256,192,217407,1,8,0:0:0:0:
256,192,217600,1,10,0:0:0:0:
256,192,218353,1,2,0:0:0:0:
