osu file format v14

[General]
AudioFilename: Horang Pungryuga.mp3
AudioLeadIn: 0
PreviewTime: 50705
Countdown: 0
SampleSet: Soft
StackLeniency: 0.7
Mode: 3
LetterboxInBreaks: 0
SpecialStyle: 0
WidescreenStoryboard: 0

[Editor]
DistanceSpacing: 2.9
BeatDivisor: 4
GridSize: 4
TimelineZoom: 1.4

[Metadata]
Title:Horangpungnyuga
TitleUnicode:호랑풍류가
Artist:Myoya
ArtistUnicode:묘야
Creator:ExNeko
Version:NM
Source:나와 호랑이님
Tags:상록수 虎狼風流歌 Wilben_Chan horang pungryuga utaite ver. version
BeatmapID:1544057
BeatmapSetID:728977

[Difficulty]
HPDrainRate:7
CircleSize:4
OverallDifficulty:7
ApproachRate:5
SliderMultiplier:1.4
SliderTickRate:1

[Events]
//Background and Video events
0,0,"bg.jpg",0,0
//Break Periods
//Storyboard Layer 0 (Background)
//Storyboard Layer 1 (Fail)
//Storyboard Layer 2 (Pass)
//Storyboard Layer 3 (Foreground)
//Storyboard Sound Samples
Sample,2330,0,"E4.wav",70
Sample,2517,0,"G4.wav",70
Sample,2705,0,"A5.wav",70
Sample,2892,0,"B5.wav",70
Sample,3080,0,"A5.wav",70
Sample,3455,0,"G4.wav",70
Sample,3830,0,"E4.wav",70
Sample,4017,0,"G4.wav",70
Sample,4205,0,"A5.wav",70
Sample,4392,0,"B5.wav",70
Sample,4580,0,"A5.wav",70
Sample,4955,0,"B5.wav",70
Sample,5330,0,"E4.wav",70
Sample,5517,0,"G4.wav",70
Sample,5705,0,"A5.wav",70
Sample,5892,0,"B5.wav",70
Sample,6080,0,"A5.wav",70
Sample,6455,0,"B5.wav",70
Sample,6830,0,"D5.wav",70
Sample,7017,0,"B5.wav",70
Sample,7205,0,"A5.wav",70
Sample,7392,0,"G4.wav",70
Sample,7580,0,"A5.wav",70
Sample,7955,0,"B5.wav",70
Sample,8330,0,"E4.wav",70
Sample,8517,0,"G4.wav",70
Sample,8705,0,"A5.wav",70
Sample,8892,0,"B5.wav",70
Sample,9080,0,"A5.wav",70
Sample,9455,0,"G4.wav",70
Sample,9830,0,"E4.wav",70
Sample,10017,0,"G4.wav",70
Sample,10205,0,"A5.wav",70
Sample,10392,0,"B5.wav",70
Sample,10580,0,"A5.wav",70
Sample,10955,0,"B5.wav",70
Sample,11330,0,"E4.wav",70
Sample,11517,0,"G4.wav",70
Sample,11705,0,"A5.wav",70
Sample,11892,0,"B5.wav",70
Sample,12080,0,"A5.wav",70
Sample,12455,0,"B5.wav",70
Sample,12830,0,"D5.wav",70
Sample,13017,0,"B5.wav",70
Sample,13205,0,"A5.wav",70
Sample,13392,0,"B5.wav",70
Sample,13580,0,"D5.wav",70
Sample,13955,0,"F#5.wav",70
Sample,14330,0,"E5.wav",70
Sample,95330,0,"F#4.wav",70
Sample,95517,0,"A5.wav",70
Sample,95705,0,"B5.wav",70
Sample,95892,0,"C#5.wav",70
Sample,96080,0,"B5.wav",70
Sample,96455,0,"A5.wav",70
Sample,96830,0,"F#4.wav",70
Sample,97017,0,"A5.wav",70
Sample,97205,0,"B5.wav",70
Sample,97392,0,"C#5.wav",70
Sample,97580,0,"B5.wav",70
Sample,97955,0,"C#5.wav",70
Sample,98330,0,"F#4.wav",70
Sample,98517,0,"A5.wav",70
Sample,98705,0,"B5.wav",70
Sample,98892,0,"C#5.wav",70
Sample,99080,0,"B5.wav",70
Sample,99455,0,"C#5.wav",70
Sample,99830,0,"E5.wav",70
Sample,100017,0,"C#5.wav",70
Sample,100205,0,"B5.wav",70
Sample,100392,0,"A5.wav",70
Sample,100580,0,"B5.wav",70
Sample,100955,0,"C#5.wav",70
Sample,101330,0,"F#4.wav",70
Sample,101517,0,"A5.wav",70
Sample,101705,0,"B5.wav",70
Sample,101892,0,"C#5.wav",70
Sample,102080,0,"B5.wav",70
Sample,102455,0,"A5.wav",70
Sample,102830,0,"F#4.wav",70
Sample,103017,0,"A5.wav",70
Sample,103205,0,"B5.wav",70
Sample,103392,0,"C#5.wav",70
Sample,103580,0,"B5.wav",70
Sample,103955,0,"C#5.wav",70
Sample,104330,0,"F#4.wav",70
Sample,104517,0,"A5.wav",70
Sample,104705,0,"B5.wav",70
Sample,104892,0,"C#5.wav",70
Sample,105080,0,"B5.wav",70
Sample,105455,0,"C#5.wav",70
Sample,105830,0,"E5.wav",70
Sample,106017,0,"C#5.wav",70
Sample,106205,0,"B5.wav",70
Sample,106392,0,"C#5.wav",70
Sample,106580,0,"E5.wav",70
Sample,106955,0,"G#5.wav",70
Sample,107330,0,"F#5.wav",70

[TimingPoints]
80,375,4,2,1,50,1,0
63080,-100,4,2,1,50,0,1
96080,-100,4,2,1,50,0,0

[HitObjects]
64,192,80,5,2,2:0:0:0:
192,192,80,1,4,2:0:0:0:
320,192,455,1,0,0:0:0:0:
192,192,642,1,0,0:0:0:0:
64,192,830,1,2,2:0:0:0:
448,192,830,1,4,2:0:0:0:
192,192,1205,1,0,0:0:0:0:
320,192,1392,1,0,0:0:0:0:
448,192,1580,1,2,2:0:0:0:
64,192,1580,1,4,2:0:0:0:
320,192,1955,1,2,2:0:0:0:
192,192,2142,1,2,2:0:0:0:
64,192,2330,1,4,2:0:0:0:
448,192,2330,1,0,0:0:0:0:
192,192,2517,1,0,0:0:0:0:
320,192,2705,1,0,0:0:0:0:
448,192,2892,1,0,0:0:0:0:
192,192,3080,1,2,2:0:0:0:
64,192,3080,128,4,3455:2:0:0:0:
320,192,3455,1,2,2:0:0:0:
448,192,3455,1,0,0:0:0:0:
192,192,3830,1,2,2:0:0:0:
320,192,4017,1,8,2:0:0:0:
448,192,4205,1,2,2:0:0:0:
64,192,4205,1,0,0:0:0:0:
192,192,4392,1,8,2:0:0:0:
320,192,4580,128,2,4955:2:0:0:0:
64,192,4955,1,2,2:0:0:0:
448,192,4955,1,0,0:0:0:0:
192,192,5330,1,2,2:0:0:0:
448,192,5517,1,8,2:0:0:0:
320,192,5705,1,2,2:0:0:0:
64,192,5705,1,0,0:0:0:0:
192,192,5892,1,8,2:0:0:0:
448,192,6080,128,2,6455:2:0:0:0:
64,192,6455,1,2,2:0:0:0:
192,192,6455,1,0,0:0:0:0:
320,192,6830,1,2,2:0:0:0:
64,192,7017,1,8,2:0:0:0:
192,192,7205,1,2,2:0:0:0:
448,192,7205,1,0,0:0:0:0:
320,192,7392,1,8,2:0:0:0:
64,192,7580,128,2,7955:2:0:0:0:
448,192,7955,1,2,2:0:0:0:
192,192,7955,1,0,0:0:0:0:
320,192,8330,1,2,2:0:0:0:
192,192,8517,1,8,2:0:0:0:
64,192,8705,1,2,2:0:0:0:
448,192,8705,1,0,0:0:0:0:
320,192,8892,1,8,2:0:0:0:
64,192,9080,1,2,2:0:0:0:
192,192,9080,128,4,9455:2:0:0:0:
320,192,9455,1,2,2:0:0:0:
448,192,9455,1,0,0:0:0:0:
64,192,9830,1,2,2:0:0:0:
192,192,10017,1,8,2:0:0:0:
320,192,10205,1,2,2:0:0:0:
448,192,10205,1,0,0:0:0:0:
192,192,10392,1,8,2:0:0:0:
448,192,10580,128,2,10955:2:0:0:0:
320,192,10955,1,2,2:0:0:0:
64,192,10955,1,0,0:0:0:0:
192,192,11330,1,2,2:0:0:0:
320,192,11517,1,8,2:0:0:0:
448,192,11705,1,2,2:0:0:0:
64,192,11705,1,0,0:0:0:0:
192,192,11892,1,8,2:0:0:0:
320,192,12080,128,2,12455:2:0:0:0:
448,192,12455,1,0,2:0:0:0:
64,192,12455,1,2,2:0:0:0:
192,192,12830,1,2,2:0:0:0:
448,192,13017,1,8,2:0:0:0:
320,192,13205,1,2,2:0:0:0:
64,192,13205,1,0,0:0:0:0:
192,192,13392,1,8,2:0:0:0:
64,192,13580,128,6,13955:2:0:0:0:
448,192,13955,128,6,14330:2:0:0:0:
192,192,14330,128,2,15080:2:0:0:0:
320,192,14330,128,4,15080:2:0:0:0:
64,192,15080,128,6,15455:2:0:0:0:
320,192,15455,1,8,3:0:0:0:
448,192,15455,1,0,0:0:0:0:
192,192,15642,1,2,2:0:0:0:
64,192,15830,1,8,3:0:0:0:
320,192,16017,1,2,2:0:0:0:
192,192,16205,1,8,3:0:0:0:
448,192,16392,1,2,2:0:0:0:
320,192,16580,1,8,3:0:0:0:
64,192,16767,1,2,2:0:0:0:
192,192,16955,1,8,3:0:0:0:
320,192,17142,1,2,2:0:0:0:
448,192,17330,1,8,3:0:0:0:
320,192,17517,1,0,0:0:0:0:
192,192,17705,1,8,3:0:0:0:
64,192,17705,1,0,0:0:0:0:
320,192,18080,128,8,18455:3:0:0:0:
64,192,18455,1,8,3:0:0:0:
192,192,18455,1,0,0:0:0:0:
448,192,18642,1,2,2:0:0:0:
320,192,18830,1,8,3:0:0:0:
192,192,19017,1,2,2:0:0:0:
64,192,19205,1,8,3:0:0:0:
448,192,19392,1,2,2:0:0:0:
320,192,19580,1,8,3:0:0:0:
64,192,19767,1,2,2:0:0:0:
192,192,19955,1,8,3:0:0:0:
320,192,20142,1,2,2:0:0:0:
448,192,20330,1,8,3:0:0:0:
192,192,20517,1,0,0:0:0:0:
320,192,20705,1,8,3:0:0:0:
64,192,20705,1,0,0:0:0:0:
192,192,21080,128,8,21455:3:0:0:0:
64,192,21455,1,8,3:0:0:0:
448,192,21455,1,0,0:0:0:0:
320,192,21642,1,2,2:0:0:0:
192,192,21830,1,8,3:0:0:0:
64,192,22017,1,2,2:0:0:0:
320,192,22205,1,8,3:0:0:0:
192,192,22392,1,2,2:0:0:0:
448,192,22580,1,8,3:0:0:0:
320,192,22767,1,2,2:0:0:0:
64,192,22955,1,8,3:0:0:0:
192,192,23142,1,2,2:0:0:0:
320,192,23330,1,8,3:0:0:0:
448,192,23517,1,0,0:0:0:0:
64,192,23705,1,8,3:0:0:0:
192,192,23705,1,0,0:0:0:0:
448,192,24080,128,8,24455:3:0:0:0:
64,192,24455,1,8,3:0:0:0:
320,192,24455,1,0,0:0:0:0:
192,192,24642,1,2,2:0:0:0:
320,192,24830,128,8,25205:3:0:0:0:
64,192,25205,1,8,3:0:0:0:
448,192,25205,1,0,0:0:0:0:
320,192,25580,1,8,3:0:0:0:
192,192,25767,1,2,2:0:0:0:
64,192,25955,1,8,3:0:0:0:
448,192,25955,1,0,0:0:0:0:
320,192,26142,1,2,2:0:0:0:
192,192,26330,128,0,26705:0:0:0:0:
320,192,26705,1,0,0:0:0:0:
448,192,27080,128,6,27455:2:0:0:0:
192,192,27455,1,8,3:0:0:0:
64,192,27455,1,0,0:0:0:0:
320,192,27642,1,2,2:0:0:0:
448,192,27830,1,8,3:0:0:0:
192,192,28017,1,2,2:0:0:0:
320,192,28205,1,8,3:0:0:0:
64,192,28392,1,2,2:0:0:0:
192,192,28580,1,8,3:0:0:0:
448,192,28767,1,2,2:0:0:0:
320,192,28955,1,8,3:0:0:0:
192,192,29142,1,2,2:0:0:0:
64,192,29330,1,8,3:0:0:0:
192,192,29517,1,0,0:0:0:0:
320,192,29705,1,8,3:0:0:0:
448,192,29705,1,0,0:0:0:0:
192,192,30080,128,8,30455:3:0:0:0:
448,192,30455,1,8,3:0:0:0:
320,192,30455,1,0,0:0:0:0:
64,192,30642,1,2,2:0:0:0:
192,192,30830,1,8,3:0:0:0:
320,192,31017,1,2,2:0:0:0:
448,192,31205,1,8,3:0:0:0:
64,192,31392,1,2,2:0:0:0:
192,192,31580,1,8,3:0:0:0:
448,192,31767,1,2,2:0:0:0:
320,192,31955,1,8,3:0:0:0:
192,192,32142,1,2,2:0:0:0:
64,192,32330,1,8,3:0:0:0:
320,192,32517,1,0,0:0:0:0:
192,192,32705,1,8,3:0:0:0:
448,192,32705,1,0,0:0:0:0:
320,192,33080,128,8,33455:3:0:0:0:
448,192,33455,1,8,3:0:0:0:
64,192,33455,1,0,0:0:0:0:
192,192,33642,1,2,2:0:0:0:
320,192,33830,1,8,3:0:0:0:
448,192,34017,1,2,2:0:0:0:
192,192,34205,1,8,3:0:0:0:
320,192,34392,1,2,2:0:0:0:
64,192,34580,1,8,3:0:0:0:
192,192,34767,1,2,2:0:0:0:
448,192,34955,1,8,3:0:0:0:
320,192,35142,1,2,2:0:0:0:
192,192,35330,1,8,3:0:0:0:
64,192,35517,1,0,0:0:0:0:
448,192,35705,1,8,3:0:0:0:
320,192,35705,1,0,0:0:0:0:
64,192,36080,128,8,36455:3:0:0:0:
448,192,36455,1,8,3:0:0:0:
192,192,36455,1,0,0:0:0:0:
320,192,36642,1,2,2:0:0:0:
192,192,36830,128,8,37205:3:0:0:0:
448,192,37205,1,8,3:0:0:0:
64,192,37205,1,0,0:0:0:0:
192,192,37580,1,8,3:0:0:0:
320,192,37767,1,2,2:0:0:0:
448,192,37955,1,8,3:0:0:0:
64,192,37955,1,0,0:0:0:0:
192,192,38142,1,2,2:0:0:0:
320,192,38330,128,0,38705:0:0:0:0:
192,192,38705,1,0,0:0:0:0:
64,192,39080,128,4,39830:2:0:0:0:
320,192,39080,1,2,3:0:0:0:
448,192,39455,1,2,3:0:0:0:
320,192,39830,128,2,40580:3:0:0:0:
64,192,40205,1,2,3:0:0:0:
192,192,40580,128,2,41330:3:0:0:0:
320,192,40955,1,2,3:0:0:0:
448,192,41330,128,2,42080:3:0:0:0:
192,192,41705,1,2,3:0:0:0:
64,192,42080,128,2,42830:3:0:0:0:
320,192,42455,1,2,3:0:0:0:
192,192,42830,128,2,43580:3:0:0:0:
448,192,43205,1,2,3:0:0:0:
320,192,43580,128,2,44330:3:0:0:0:
64,192,43955,1,2,3:0:0:0:
448,192,44330,128,2,45080:3:0:0:0:
320,192,44705,1,2,3:0:0:0:
64,192,45080,128,4,45830:2:0:0:0:
192,192,45080,1,2,3:0:0:0:
448,192,45455,1,2,3:0:0:0:
320,192,45830,128,2,46580:3:0:0:0:
64,192,46205,1,2,3:0:0:0:
192,192,46580,128,2,47330:3:0:0:0:
320,192,46955,1,2,3:0:0:0:
448,192,47330,128,2,48080:3:0:0:0:
192,192,47705,1,2,3:0:0:0:
64,192,48080,128,2,48455:3:0:0:0:
320,192,48455,128,2,48830:3:0:0:0:
192,192,48830,128,2,49205:3:0:0:0:
448,192,49205,128,2,49580:3:0:0:0:
64,192,49580,128,2,49955:3:0:0:0:
320,192,49955,128,2,50330:3:0:0:0:
192,192,50330,1,4,2:0:0:0:
448,192,50330,1,8,2:0:0:0:
64,192,51080,128,2,52580:2:0:0:0:
192,192,52580,128,2,54080:2:0:0:0:
320,192,54080,128,2,55580:2:0:0:0:
448,192,55580,128,2,57080:2:0:0:0:
320,192,55955,1,2,2:0:0:0:
192,192,56330,1,2,2:0:0:0:
64,192,56705,1,2,2:0:0:0:
320,192,57080,1,6,2:0:0:0:
192,192,57455,1,2,2:0:0:0:
320,192,57830,1,2,2:0:0:0:
192,192,58205,1,2,2:0:0:0:
64,192,58580,1,2,2:0:0:0:
320,192,58955,1,2,2:0:0:0:
64,192,59330,1,2,2:0:0:0:
320,192,59705,1,2,2:0:0:0:
448,192,60080,1,2,2:0:0:0:
192,192,60455,1,2,2:0:0:0:
448,192,60830,1,2,2:0:0:0:
192,192,61205,1,2,2:0:0:0:
320,192,61580,1,2,2:0:0:0:
448,192,61580,1,4,2:0:0:0:
192,192,61955,1,4,2:0:0:0:
64,192,61955,1,2,2:0:0:0:
320,192,62330,1,4,2:0:0:0:
448,192,62330,128,2,62705:2:0:0:0:
64,192,62705,128,0,63080:0:0:0:0:
192,192,62892,1,0,0:0:0:0:
320,192,63080,1,8,3:0:0:0:
448,192,63080,1,4,2:0:0:0:
192,192,63267,1,8,2:0:0:0:
64,192,63455,1,8,3:0:0:0:
448,192,63455,1,0,0:0:0:0:
320,192,63642,1,8,2:0:0:0:
192,192,63830,1,8,3:0:0:0:
64,192,64017,1,8,2:0:0:0:
320,192,64205,1,8,3:0:0:0:
448,192,64205,1,0,0:0:0:0:
192,192,64392,1,8,2:0:0:0:
64,192,64580,1,8,3:0:0:0:
320,192,64767,1,8,2:0:0:0:
192,192,64955,1,8,3:0:0:0:
448,192,64955,1,0,0:0:0:0:
64,192,65142,1,8,2:0:0:0:
192,192,65330,1,8,3:0:0:0:
320,192,65517,1,8,2:0:0:0:
448,192,65705,1,8,3:0:0:0:
64,192,65705,1,0,0:0:0:0:
192,192,65892,1,8,2:0:0:0:
320,192,66080,1,8,3:0:0:0:
64,192,66267,1,8,2:0:0:0:
192,192,66455,1,8,3:0:0:0:
448,192,66455,1,0,0:0:0:0:
320,192,66642,1,8,2:0:0:0:
192,192,66830,1,8,3:0:0:0:
64,192,67017,1,8,2:0:0:0:
320,192,67205,1,8,3:0:0:0:
448,192,67205,1,0,0:0:0:0:
192,192,67392,1,8,2:0:0:0:
64,192,67580,128,8,68330:3:0:0:0:
448,192,67767,1,8,2:0:0:0:
320,192,67955,1,8,3:0:0:0:
192,192,67955,1,0,0:0:0:0:
448,192,68142,1,8,2:0:0:0:
192,192,68330,1,8,3:0:0:0:
320,192,68517,1,8,2:0:0:0:
448,192,68705,1,8,3:0:0:0:
64,192,68705,1,0,0:0:0:0:
192,192,68892,1,8,2:0:0:0:
320,192,69080,1,8,3:0:0:0:
448,192,69267,1,8,2:0:0:0:
192,192,69455,1,8,3:0:0:0:
64,192,69455,1,0,0:0:0:0:
320,192,69642,1,8,2:0:0:0:
192,192,69830,1,8,3:0:0:0:
448,192,70017,1,8,2:0:0:0:
320,192,70205,1,8,3:0:0:0:
64,192,70205,1,0,0:0:0:0:
192,192,70392,1,8,2:0:0:0:
448,192,70580,1,8,3:0:0:0:
192,192,70767,1,8,2:0:0:0:
320,192,70955,1,8,3:0:0:0:
64,192,70955,1,0,0:0:0:0:
448,192,71142,1,8,2:0:0:0:
320,192,71330,1,8,3:0:0:0:
192,192,71517,1,8,2:0:0:0:
64,192,71705,1,8,3:0:0:0:
448,192,71705,1,0,0:0:0:0:
320,192,71892,1,8,2:0:0:0:
192,192,72080,1,8,3:0:0:0:
448,192,72267,1,8,2:0:0:0:
320,192,72455,5,8,3:0:0:0:
64,192,72455,1,0,0:0:0:0:
192,192,72642,1,8,2:0:0:0:
448,192,72830,1,8,3:0:0:0:
192,192,73017,1,8,2:0:0:0:
320,192,73205,1,8,3:0:0:0:
64,192,73205,1,0,0:0:0:0:
192,192,73392,1,8,2:0:0:0:
320,192,73580,5,4,2:0:0:0:
448,192,73580,1,2,2:0:0:0:
192,192,73955,1,4,2:0:0:0:
64,192,73955,1,2,2:0:0:0:
448,192,74330,128,2,75080:2:0:0:0:
320,192,74330,1,4,2:0:0:0:
192,192,74892,1,0,0:0:0:0:
320,192,75080,1,8,3:0:0:0:
64,192,75080,1,4,2:0:0:0:
192,192,75267,1,8,2:0:0:0:
448,192,75455,1,8,3:0:0:0:
320,192,75455,1,0,0:0:0:0:
64,192,75642,1,8,2:0:0:0:
192,192,75830,1,8,3:0:0:0:
320,192,76017,1,8,2:0:0:0:
448,192,76205,1,8,3:0:0:0:
64,192,76205,1,0,0:0:0:0:
192,192,76392,1,8,2:0:0:0:
320,192,76580,1,8,3:0:0:0:
64,192,76767,1,8,2:0:0:0:
448,192,76955,1,8,3:0:0:0:
192,192,76955,1,0,0:0:0:0:
320,192,77142,1,8,2:0:0:0:
64,192,77330,1,8,3:0:0:0:
192,192,77517,1,8,2:0:0:0:
320,192,77705,1,8,3:0:0:0:
448,192,77705,1,0,0:0:0:0:
64,192,77892,1,8,2:0:0:0:
320,192,78080,1,8,3:0:0:0:
192,192,78267,1,8,2:0:0:0:
448,192,78455,1,8,3:0:0:0:
64,192,78455,1,0,0:0:0:0:
320,192,78642,1,8,2:0:0:0:
192,192,78830,1,8,3:0:0:0:
64,192,79017,1,8,2:0:0:0:
448,192,79205,1,8,3:0:0:0:
320,192,79205,1,0,0:0:0:0:
192,192,79392,1,8,2:0:0:0:
448,192,79580,128,8,80330:3:0:0:0:
320,192,79767,1,8,2:0:0:0:
192,192,79955,1,8,3:0:0:0:
64,192,79955,1,0,0:0:0:0:
320,192,80142,1,8,2:0:0:0:
64,192,80330,1,8,3:0:0:0:
192,192,80517,1,8,2:0:0:0:
320,192,80705,1,8,3:0:0:0:
448,192,80705,1,0,0:0:0:0:
64,192,80892,1,8,2:0:0:0:
192,192,81080,1,8,3:0:0:0:
320,192,81267,1,8,2:0:0:0:
448,192,81455,1,8,3:0:0:0:
64,192,81455,1,0,0:0:0:0:
192,192,81642,1,8,2:0:0:0:
320,192,81830,1,8,3:0:0:0:
448,192,82017,1,8,2:0:0:0:
192,192,82205,1,8,3:0:0:0:
64,192,82205,1,0,0:0:0:0:
320,192,82392,1,8,2:0:0:0:
448,192,82580,1,8,3:0:0:0:
192,192,82767,1,8,2:0:0:0:
320,192,82955,1,8,3:0:0:0:
64,192,82955,1,0,0:0:0:0:
448,192,83142,1,8,2:0:0:0:
320,192,83330,1,8,3:0:0:0:
192,192,83517,1,8,2:0:0:0:
64,192,83705,1,8,3:0:0:0:
448,192,83705,1,0,0:0:0:0:
320,192,83892,1,8,2:0:0:0:
192,192,84080,1,8,3:0:0:0:
448,192,84267,1,8,2:0:0:0:
320,192,84455,5,8,3:0:0:0:
64,192,84455,1,0,0:0:0:0:
192,192,84642,1,8,2:0:0:0:
448,192,84830,1,8,3:0:0:0:
64,192,85017,1,8,2:0:0:0:
192,192,85205,1,8,3:0:0:0:
320,192,85205,1,0,0:0:0:0:
64,192,85392,1,8,2:0:0:0:
320,192,85580,5,4,2:0:0:0:
448,192,85580,1,2,2:0:0:0:
192,192,85955,1,4,2:0:0:0:
64,192,85955,1,2,2:0:0:0:
320,192,86330,1,4,2:0:0:0:
448,192,86330,128,2,87080:2:0:0:0:
192,192,86705,1,0,0:0:0:0:
320,192,86892,1,0,0:0:0:0:
192,192,87080,1,8,3:0:0:0:
64,192,87080,1,4,2:0:0:0:
320,192,87267,1,8,2:0:0:0:
64,192,87455,1,8,3:0:0:0:
448,192,87455,1,0,0:0:0:0:
320,192,87642,1,8,2:0:0:0:
192,192,87830,1,8,3:0:0:0:
64,192,88017,1,8,2:0:0:0:
320,192,88205,1,8,3:0:0:0:
448,192,88205,1,0,0:0:0:0:
64,192,88392,1,8,2:0:0:0:
320,192,88580,1,2,2:0:0:0:
192,192,88580,1,4,2:0:0:0:
64,192,88955,1,2,2:0:0:0:
448,192,88955,1,4,2:0:0:0:
192,192,89330,128,2,90080:2:0:0:0:
320,192,89330,1,4,2:0:0:0:
448,192,89705,1,0,0:0:0:0:
320,192,89892,1,0,0:0:0:0:
64,192,90080,1,8,3:0:0:0:
448,192,90080,1,4,2:0:0:0:
192,192,90267,1,8,2:0:0:0:
320,192,90455,1,8,3:0:0:0:
64,192,90455,1,0,0:0:0:0:
448,192,90642,1,8,2:0:0:0:
192,192,90830,1,8,3:0:0:0:
320,192,91017,1,8,2:0:0:0:
64,192,91205,1,8,3:0:0:0:
448,192,91205,1,0,0:0:0:0:
192,192,91392,1,8,2:0:0:0:
320,192,91580,1,4,2:0:0:0:
64,192,91580,128,2,91955:2:0:0:0:
192,192,91955,128,2,92330:2:0:0:0:
448,192,91955,1,4,2:0:0:0:
320,192,92330,128,4,92705:2:0:0:0:
64,192,92330,1,2,2:0:0:0:
192,192,92705,128,2,93080:2:0:0:0:
448,192,92705,1,4,2:0:0:0:
448,192,93080,128,4,95330:2:0:0:0:
64,192,93080,1,2,2:0:0:0:
192,192,93830,1,0,0:0:0:0:
320,192,94580,1,0,0:0:0:0:
320,192,95330,1,0,0:0:0:0:
64,192,95330,1,0,0:0:0:0:
192,192,95517,1,0,0:0:0:0:
448,192,95705,1,0,0:0:0:0:
320,192,95892,1,0,0:0:0:0:
192,192,96080,1,2,2:0:0:0:
64,192,96080,128,4,96455:2:0:0:0:
320,192,96455,1,2,2:0:0:0:
448,192,96455,1,0,0:0:0:0:
192,192,96830,1,2,2:0:0:0:
320,192,97017,1,8,2:0:0:0:
448,192,97205,1,2,2:0:0:0:
64,192,97205,1,0,0:0:0:0:
192,192,97392,1,8,2:0:0:0:
320,192,97580,128,2,97955:2:0:0:0:
64,192,97955,1,2,2:0:0:0:
448,192,97955,1,0,0:0:0:0:
192,192,98330,1,2,2:0:0:0:
448,192,98517,1,8,2:0:0:0:
320,192,98705,1,2,2:0:0:0:
64,192,98705,1,0,0:0:0:0:
192,192,98892,1,8,2:0:0:0:
448,192,99080,128,2,99455:2:0:0:0:
64,192,99455,1,2,2:0:0:0:
192,192,99455,1,0,0:0:0:0:
320,192,99830,1,2,2:0:0:0:
64,192,100017,1,8,2:0:0:0:
192,192,100205,1,2,2:0:0:0:
448,192,100205,1,0,0:0:0:0:
320,192,100392,1,8,2:0:0:0:
64,192,100580,128,2,100955:2:0:0:0:
448,192,100955,1,2,2:0:0:0:
192,192,100955,1,0,0:0:0:0:
320,192,101330,1,2,2:0:0:0:
192,192,101517,1,8,2:0:0:0:
64,192,101705,1,2,2:0:0:0:
448,192,101705,1,0,0:0:0:0:
320,192,101892,1,8,2:0:0:0:
64,192,102080,1,2,2:0:0:0:
192,192,102080,128,4,102455:2:0:0:0:
320,192,102455,1,2,2:0:0:0:
448,192,102455,1,0,0:0:0:0:
64,192,102830,1,2,2:0:0:0:
192,192,103017,1,8,2:0:0:0:
320,192,103205,1,2,2:0:0:0:
448,192,103205,1,0,0:0:0:0:
192,192,103392,1,8,2:0:0:0:
448,192,103580,128,2,103955:2:0:0:0:
320,192,103955,1,2,2:0:0:0:
64,192,103955,1,0,0:0:0:0:
192,192,104330,1,2,2:0:0:0:
320,192,104517,1,8,2:0:0:0:
448,192,104705,1,2,2:0:0:0:
64,192,104705,1,0,0:0:0:0:
192,192,104892,1,8,2:0:0:0:
320,192,105080,128,4,105455:2:0:0:0:
448,192,105455,1,2,3:0:0:0:
64,192,105455,1,0,0:0:0:0:
192,192,105830,1,4,2:0:0:0:
320,192,106017,1,2,3:0:0:0:
448,192,106205,1,2,3:0:0:0:
64,192,106205,1,0,0:0:0:0:
192,192,106392,1,2,3:0:0:0:
64,192,106580,128,4,106955:2:0:0:0:
320,192,106580,1,2,2:0:0:0:
448,192,106955,128,4,107330:2:0:0:0:
192,192,106955,1,2,2:0:0:0:
192,192,107330,128,4,107705:2:0:0:0:
320,192,107330,1,2,2:0:0:0:
448,192,107705,1,8,2:0:0:0:
