osu file format v14

[General]
AudioFilename: audio.mp3
AudioLeadIn: 0
PreviewTime: 80207
Countdown: 0
SampleSet: Drum
StackLeniency: 0.7
Mode: 0
LetterboxInBreaks: 0
WidescreenStoryboard: 1

[Editor]
DistanceSpacing: 1
BeatDivisor: 4
GridSize: 4
TimelineZoom: 1

[Metadata]
Title:Desenchantee
TitleUnicode:Désenchantée
Artist:Mylene Farmer
ArtistUnicode:Mylène Farmer
Creator:AnimeStyle
Version:Normal
Source:
Tags:french pop 1991 kate ryan europop new wave l'autre... qiyana dyl-byl français
BeatmapID:3052642
BeatmapSetID:1488666

[Difficulty]
HPDrainRate:3
CircleSize:3
OverallDifficulty:3
ApproachRate:4
SliderMultiplier:1.2
SliderTickRate:1

[Events]
//Background and Video events
0,0,"179502.jpg",0,0
//Break Periods
2,112214,114506
2,211323,228863
//Storyboard Layer 0 (Background)
//Storyboard Layer 1 (Fail)
//Storyboard Layer 2 (Pass)
//Storyboard Layer 3 (Foreground)
//Storyboard Layer 4 (Overlay)
//Storyboard Sound Samples

[TimingPoints]
1467.28997043348,476.493011435832,4,3,1,40,1,0
81041,-100,4,3,1,50,0,0
81518,-100,4,3,2,60,0,1
112013,-100,4,3,1,40,0,0
180152,-100,4,3,1,50,0,0
180628,-100,4,3,2,60,0,1
211124,-100,4,3,2,60,0,0
244478,-100,4,3,1,60,0,0
245431,-100,4,3,2,60,0,1
274974,-100,4,3,1,60,0,1
275689,-100,4,3,1,60,0,0
275927,-100,4,3,2,60,0,1
291175,-100,4,3,2,56,0,1
292128,-100,4,3,2,55,0,1
293081,-100,4,3,2,54,0,1
294033,-100,4,3,2,53,0,1
294986,-100,4,3,2,52,0,1
295939,-100,4,3,2,51,0,1
296892,-100,4,3,2,50,0,1
297845,-100,4,3,2,49,0,1
298798,-100,4,3,2,48,0,1
299751,-100,4,3,2,47,0,1
300704,-100,4,3,2,46,0,1
301657,-100,4,3,2,45,0,1
302610,-100,4,3,2,44,0,1
303563,-100,4,3,2,43,0,1
304516,-100,4,3,2,42,0,1
305469,-100,4,3,2,41,0,1
306422,-100,4,3,2,40,0,0

[Colours]
Combo1 : 191,191,191
Combo2 : 255,128,0
Combo3 : 89,89,89
Combo4 : 128,64,64

[HitObjects]
8,196,16716,21,4,0:0:0:0:
48,283,17192,1,8,0:0:0:0:
92,302,17430,1,0,0:0:0:0:
136,321,17669,2,0,L|248:362,1,120,4|8,0:0|0:0,0:0:0:0:
326,307,18622,6,0,L|438:348,1,120,4|8,0:0|0:0,0:0:0:0:
501,275,19575,2,0,L|444:254,1,60,4|0,0:0|0:0,0:0:0:0:
407,165,20289,1,0,0:0:0:0:
361,149,20528,5,4,0:0:0:0:
319,62,21004,1,8,0:0:0:0:
273,46,21241,1,0,0:0:0:0:
226,29,21480,2,0,P|170:48|144:100,1,120,4|8,0:0|0:0,0:0:0:0:
238,125,22433,6,0,P|247:182|294:218,1,120,4|8,0:0|0:0,0:0:0:0:
371,274,23385,1,4,0:0:0:0:
416,288,23624,1,0,0:0:0:0:
478,360,24101,1,0,0:0:0:0:
506,320,24339,6,0,P|513:261|479:214,1,120,4|8,0:0|0:0,0:0:0:0:
385,194,25292,2,0,P|350:146|358:88,1,120,4|8,0:0|0:0,0:0:0:0:
386,49,26007,1,0,0:0:0:0:
421,16,26245,6,0,P|455:63|446:121,1,120,4|8,0:0|0:0,0:0:0:0:
384,194,27198,2,0,L|354:324,1,120,4|8,0:0|0:0,0:0:0:0:
327,348,27913,1,0,0:0:0:0:
291,381,28151,6,0,L|161:351,1,120,4|8,0:0|0:0,0:0:0:0:
106,285,29104,2,0,L|136:155,1,120,4|8,0:0|0:0,0:0:0:0:
163,131,29819,1,0,0:0:0:0:
199,98,30057,6,0,L|329:128,1,120,4|8,0:0|0:0,0:0:0:0:
364,208,31010,2,0,L|442:226,2,60,6|2|10,0:0|0:0|0:0,0:0:0:0:
316,215,31725,1,2,0:0:0:0:
268,222,31963,5,4,0:0:0:0:
218,304,32440,1,8,0:0:0:0:
170,311,32678,1,0,0:0:0:0:
122,318,32916,2,0,B|64:304|64:304|37:230,1,120,4|8,0:0|0:0,0:0:0:0:
8,157,33869,6,0,B|-11:100|-11:100|24:52,1,120,4|8,0:0|0:0,0:0:0:0:
95,117,34822,2,0,L|114:173,1,60,4|0,0:0|0:0,0:0:0:0:
195,226,35537,1,0,0:0:0:0:
239,208,35775,5,4,0:0:0:0:
325,250,36252,1,8,0:0:0:0:
343,294,36490,1,0,0:0:0:0:
361,338,36728,2,0,P|409:371|466:360,1,120,4|8,0:0|0:0,0:0:0:0:
431,269,37681,6,0,P|464:221|452:164,1,120,4|8,0:0|0:0,0:0:0:0:
364,203,38633,1,0,0:0:0:0:
320,221,38871,1,0,0:0:0:0:
280,309,39349,1,0,0:0:0:0:
234,326,39587,6,0,P|176:325|135:284,1,120,4|8,0:0|0:0,0:0:0:0:
216,231,40540,2,0,P|218:173|261:133,1,120,4|8,0:0|0:0,0:0:0:0:
309,127,41255,1,0,0:0:0:0:
356,119,41493,6,0,P|398:80|401:21,1,120,4|8,0:0|0:0,0:0:0:0:
306,38,42446,2,0,L|187:59,1,120,4|8,0:0|0:0,0:0:0:0:
172,104,43161,1,0,0:0:0:0:
156,149,43399,6,0,L|35:171,1,120,4|8,0:0|0:0,0:0:0:0:
86,253,44351,2,0,L|204:231,1,120,4|8,0:0|0:0,0:0:0:0:
235,268,45067,1,0,0:0:0:0:
266,303,45305,6,0,L|384:281,1,120,4|8,0:0|0:0,0:0:0:0:
471,325,46258,2,0,L|483:392,2,60,6|2|10,0:0|0:0|0:0,0:0:0:0:
480,277,46973,1,2,0:0:0:0:
489,230,47211,6,0,B|479:171|479:171|424:146,1,120,6|8,0:0|0:0,0:0:0:0:
400,245,48164,1,4,0:0:0:0:
400,245,48402,1,0,0:0:0:0:
400,245,48641,1,8,0:0:0:0:
372,336,49117,6,0,B|316:311|316:311|306:253,1,120,4|8,0:0|0:0,0:0:0:0:
296,166,50070,1,4,0:0:0:0:
296,166,50308,1,0,0:0:0:0:
296,166,50547,1,8,0:0:0:0:
275,71,51023,6,0,P|227:38|170:50,1,120,4|8,0:0|0:0,0:0:0:0:
206,139,51976,2,0,P|173:187|185:244,1,120,4|8,0:0|0:0,0:0:0:0:
229,224,52691,1,0,0:0:0:0:
274,208,52929,6,0,P|322:241|379:229,1,120,4|8,0:0|0:0,0:0:0:0:
343,140,53882,2,0,L|317:87,1,60,4|0,0:0|0:0,0:0:0:0:
295,43,54359,1,8,0:0:0:0:
199,33,54835,6,0,B|167:85|167:85|192:138,1,120,4|8,0:0|0:0,0:0:0:0:
153,230,55788,1,4,0:0:0:0:
153,230,56026,1,0,0:0:0:0:
153,230,56264,1,8,0:0:0:0:
246,253,56741,6,0,B|271:306|271:306|239:358,1,120,4|8,0:0|0:0,0:0:0:0:
151,367,57694,1,4,0:0:0:0:
151,367,57932,1,0,0:0:0:0:
151,367,58170,1,8,0:0:0:0:
55,359,58647,6,0,P|33:304|57:251,1,120,4|8,0:0|0:0,0:0:0:0:
107,169,59600,2,0,P|131:115|109:61,1,120,4|8,0:0|0:0,0:0:0:0:
61,58,60315,1,0,0:0:0:0:
13,59,60553,6,0,P|-11:112|10:166,1,120,4|8,0:0|0:0,0:0:0:0:
57,251,61506,2,0,L|91:311,1,60,4|0,0:0|0:0,0:0:0:0:
111,344,61982,1,8,0:0:0:0:
204,365,62459,5,4,0:0:0:0:
221,270,62935,1,8,0:0:0:0:
196,229,63174,1,0,0:0:0:0:
171,187,63412,2,0,B|139:137|139:137|165:81,1,120,4|8,0:0|0:0,0:0:0:0:
249,129,64365,6,0,B|298:97|298:97|354:123,1,120,4|8,0:0|0:0,0:0:0:0:
361,170,65080,1,0,0:0:0:0:
363,217,65318,2,0,B|313:248|313:248|257:222,1,120,4|8,0:0|0:0,0:0:0:0:
171,187,66271,6,0,B|152:245|152:245|189:290,1,120,4|8,0:0|0:0,0:0:0:0:
116,352,67224,2,0,B|78:306|78:306|13:318,1,120,4|8,0:0|0:0,0:0:0:0:
20,268,67939,2,0,L|31:128,1,120
35,100,68653,5,8,0:0:0:0:
106,35,69129,1,4,0:0:0:0:
154,41,69367,1,0,0:0:0:0:
205,123,69845,1,0,0:0:0:0:
252,127,70083,6,0,L|392:138,1,120,6|10,0:0|0:0,0:0:0:0:
407,225,71036,2,0,L|267:214,1,120,6|10,0:0|0:0,0:0:0:0:
216,150,71989,6,0,L|206:269,1,120,6|10,0:0|0:0,0:0:0:0:
165,293,72703,1,0,0:0:0:0:
122,316,72942,2,0,L|16:308,1,60,6|0,0:0|0:0,0:0:0:0:
27,222,73656,1,0,0:0:0:0:
63,190,73895,6,0,P|87:136|65:82,1,120,6|10,0:0|0:0,0:0:0:0:
150,37,74848,2,0,P|184:84|242:92,1,120,6|10,0:0|0:0,0:0:0:0:
244,187,75801,6,0,P|186:193|150:239,1,120,6|10,0:0|0:0,0:0:0:0:
236,282,76754,2,0,L|290:306,1,60,6|0,0:0|0:0,0:0:0:0:
350,231,77468,1,0,0:0:0:0:
378,192,77707,6,0,L|492:243,1,120,4|8,0:0|0:0,0:0:0:0:
481,145,78660,2,0,L|367:94,1,120,4|8,0:0|0:0,0:0:0:0:
297,34,79613,6,0,B|273:56|273:86|273:86|272:117|249:139,1,120,4|8,0:0|0:0,0:0:0:0:
213,172,80327,1,0,0:0:0:0:
177,204,80566,2,0,L|119:252,1,60,12|8,0:0|0:0,0:0:0:0:
51,189,81280,1,10,0:0:0:0:
88,158,81519,38,0,L|180:81,1,120,4|10,0:0|0:0,0:0:0:0:
277,55,82472,1,4,0:0:0:0:
277,55,82710,1,0,0:0:0:0:
277,55,82948,1,8,0:0:0:0:
301,147,83425,6,0,L|209:224,1,120,4|8,0:0|0:0,0:0:0:0:
199,271,84139,1,0,0:0:0:0:
189,318,84378,2,0,L|142:356,1,60,4|0,0:0|0:0,0:0:0:0:
76,285,85092,1,0,0:0:0:0:
42,249,85331,6,0,B|4:204|4:204|3:122,1,120,4|8,0:0|0:0,0:0:0:0:
89,94,86284,1,4,0:0:0:0:
89,94,86522,1,0,0:0:0:0:
89,94,86760,1,8,0:0:0:0:
169,145,87237,6,0,B|167:206|167:206|130:251,1,120,4|8,0:0|0:0,0:0:0:0:
97,286,87951,1,0,0:0:0:0:
64,321,88190,2,0,P|113:352|170:338,1,120,4|8,0:0|0:0,0:0:0:0:
266,338,89143,6,0,P|322:324|372:355,1,120,4|8,0:0|0:0,0:0:0:0:
405,320,89857,1,0,0:0:0:0:
438,286,90095,2,0,P|397:243|399:185,1,120,4|8,0:0|0:0,0:0:0:0:
306,162,91048,6,0,P|289:219|237:246,1,120,4|8,0:0|0:0,0:0:0:0:
210,154,92001,2,0,L|111:145,1,60,4|0,0:0|0:0,0:0:0:0:
95,69,92716,1,0,0:0:0:0:
100,21,92954,6,0,L|219:32,1,120,4|8,0:0|0:0,0:0:0:0:
295,108,93907,1,4,0:0:0:0:
295,108,94146,1,0,0:0:0:0:
295,108,94384,1,8,0:0:0:0:
365,173,94860,6,0,B|384:198|379:228|379:228|375:259|394:284,1,120,4|8,0:0|0:0,0:0:0:0:
475,233,95813,2,0,L|484:134,1,60,12|8,0:0|0:0,0:0:0:0:
489,77,96528,1,10,0:0:0:0:
441,71,96766,6,0,L|321:60,1,120,4|10,0:0|0:0,0:0:0:0:
250,123,97719,1,4,0:0:0:0:
250,123,97958,1,0,0:0:0:0:
250,123,98196,1,8,0:0:0:0:
173,180,98672,6,0,P|145:232|164:288,1,120,4|8,0:0|0:0,0:0:0:0:
216,367,99625,2,0,L|315:376,1,60,4|0,0:0|0:0,0:0:0:0:
351,312,100340,1,0,0:0:0:0:
398,316,100578,6,0,L|408:196,1,120,4|8,0:0|0:0,0:0:0:0:
496,150,101531,1,4,0:0:0:0:
496,150,101770,1,0,0:0:0:0:
496,150,102008,1,8,0:0:0:0:
419,90,102484,6,0,P|368:63|312:81,1,120,4|8,0:0|0:0,0:0:0:0:
259,161,103437,2,0,L|199:155,1,60,4|0,0:0|0:0,0:0:0:0:
145,235,104152,1,0,0:0:0:0:
118,274,104390,6,0,L|237:284,1,120,4|8,0:0|0:0,0:0:0:0:
313,360,105343,1,4,0:0:0:0:
313,360,105582,1,0,0:0:0:0:
313,360,105820,1,8,0:0:0:0:
386,296,106296,6,0,P|413:245|395:189,1,120,4|8,0:0|0:0,0:0:0:0:
311,236,107249,2,0,L|251:230,1,60,4|0,0:0|0:0,0:0:0:0:
174,288,107964,1,0,0:0:0:0:
126,283,108202,6,0,L|6:272,1,120,4|8,0:0|0:0,0:0:0:0:
18,184,109155,1,4,0:0:0:0:
18,184,109393,1,0,0:0:0:0:
18,184,109632,1,8,0:0:0:0:
16,88,110108,5,4,0:0:0:0:
97,36,110585,1,8,0:0:0:0:
144,40,110823,2,0,L|263:50,1,120,0|8,0:0|0:0,0:0:0:0:
311,54,111538,1,8,0:0:0:0:
368,130,112014,37,6,0:0:0:0:
359,209,115826,21,4,0:0:0:0:
288,274,116302,1,4,0:0:0:0:
240,268,116540,1,0,0:0:0:0:
192,263,116779,2,0,L|73:253,1,120,4|4,0:0|0:0,0:0:0:0:
96,345,117732,6,0,L|215:355,1,120,4|4,0:0|0:0,0:0:0:0:
311,361,118685,2,0,L|315:301,1,60,4|0,0:0|0:0,0:0:0:0:
324,205,119400,1,0,0:0:0:0:
371,209,119638,5,4,0:0:0:0:
466,217,120115,1,4,0:0:0:0:
470,170,120353,1,0,0:0:0:0:
473,121,120590,2,0,P|448:67|394:46,1,120,4|4,0:0|0:0,0:0:0:0:
379,143,121544,6,0,P|331:176|273:167,1,120,4|4,0:0|0:0,0:0:0:0:
212,92,122496,1,4,0:0:0:0:
165,88,122734,1,0,0:0:0:0:
90,26,123211,1,0,0:0:0:0:
59,62,123449,6,0,P|55:121|93:166,1,120,4|4,0:0|0:0,0:0:0:0:
166,228,124403,2,0,P|203:273|200:331,1,120,4|4,0:0|0:0,0:0:0:0:
154,347,125117,1,0,0:0:0:0:
108,363,125356,6,0,P|70:317|73:259,1,120,4|4,0:0|0:0,0:0:0:0:
166,228,126308,2,0,L|281:194,1,120,4|4,0:0|0:0,0:0:0:0:
313,158,127023,1,0,0:0:0:0:
345,122,127262,6,0,L|296:-44,1,120,4|4,0:0|0:0,0:0:0:0:
218,34,128215,2,0,L|102:67,1,120,4|4,0:0|0:0,0:0:0:0:
71,104,128930,1,0,0:0:0:0:
39,140,129167,6,0,L|88:306,1,120,4|4,0:0|0:0,0:0:0:0:
101,346,130120,2,0,L|23:369,2,60,6|2|14,0:0|0:0|0:0,0:0:0:0:
147,331,130835,1,2,0:0:0:0:
192,316,131073,5,4,0:0:0:0:
241,233,131550,1,8,0:0:0:0:
286,218,131789,1,0,0:0:0:0:
331,205,132027,2,0,B|387:186|387:186|404:129,1,120,4|8,0:0|0:0,0:0:0:0:
310,111,132980,6,0,B|265:70|265:70|207:85,1,120,4|8,0:0|0:0,0:0:0:0:
157,167,133933,2,0,L|98:182,1,60,4|0,0:0|0:0,0:0:0:0:
47,262,134648,1,0,0:0:0:0:
59,309,134886,5,4,0:0:0:0:
141,357,135362,1,8,0:0:0:0:
188,345,135600,1,0,0:0:0:0:
234,333,135838,2,0,P|282:366|339:355,1,120,4|8,0:0|0:0,0:0:0:0:
408,287,136792,6,0,P|359:253|302:265,1,120,4|8,0:0|0:0,0:0:0:0:
228,324,137744,1,4,0:0:0:0:
181,336,137982,1,0,0:0:0:0:
93,298,138459,1,0,0:0:0:0:
51,273,138698,6,0,P|18:224|30:167,1,120,4|8,0:0|0:0,0:0:0:0:
118,204,139651,2,0,P|166:170|223:182,1,120,4|8,0:0|0:0,0:0:0:0:
264,207,140366,1,0,0:0:0:0:
304,231,140604,6,0,P|361:243|409:210,1,120,4|8,0:0|0:0,0:0:0:0:
341,142,141557,2,0,L|317:23,1,120,4|8,0:0|0:0,0:0:0:0:
271,33,142271,1,0,0:0:0:0:
224,43,142510,6,0,L|247:161,1,120,4|8,0:0|0:0,0:0:0:0:
266,254,143463,2,0,L|148:276,1,120,4|8,0:0|0:0,0:0:0:0:
140,324,144176,1,0,0:0:0:0:
132,371,144415,6,0,L|249:348,1,120,4|8,0:0|0:0,0:0:0:0:
266,254,145369,2,0,L|350:238,2,60,6|2|10,0:0|0:0|0:0,0:0:0:0:
223,232,146083,1,2,0:0:0:0:
180,210,146322,6,0,B|120:221|120:221|74:183,1,120,6|8,0:0|0:0,0:0:0:0:
154,129,147275,1,4,0:0:0:0:
154,129,147512,1,0,0:0:0:0:
154,129,147751,1,8,0:0:0:0:
225,65,148228,6,0,B|179:27|179:27|119:38,1,120,4|8,0:0|0:0,0:0:0:0:
42,92,149180,1,4,0:0:0:0:
42,92,149418,1,0,0:0:0:0:
42,92,149657,1,8,0:0:0:0:
74,183,150133,6,0,P|82:240|45:286,1,120,4|8,0:0|0:0,0:0:0:0:
103,363,151087,2,0,P|148:326|206:335,1,120,4|8,0:0|0:0,0:0:0:0:
230,293,151801,1,0,0:0:0:0:
244,246,152040,6,0,P|190:225|169:170,1,120,4|8,0:0|0:0,0:0:0:0:
212,84,152993,2,0,L|296:68,1,60,4|0,0:0|0:0,0:0:0:0:
318,65,153469,1,8,0:0:0:0:
408,32,153946,6,0,B|419:92|419:92|381:137,1,120,4|8,0:0|0:0,0:0:0:0:
323,214,154898,1,4,0:0:0:0:
323,214,155136,1,0,0:0:0:0:
323,214,155374,1,8,0:0:0:0:
251,278,155852,6,0,B|213:323|213:323|224:383,1,120,4|8,0:0|0:0,0:0:0:0:
321,358,156804,1,4,0:0:0:0:
321,358,157042,1,0,0:0:0:0:
321,358,157280,1,8,0:0:0:0:
345,265,157757,6,0,P|327:209|274:184,1,120,4|8,0:0|0:0,0:0:0:0:
199,123,158710,2,0,P|147:98|128:42,1,120,4|8,0:0|0:0,0:0:0:0:
80,50,159425,1,0,0:0:0:0:
32,57,159663,6,0,P|36:115|-1:159,1,120,4|8,0:0|0:0,0:0:0:0:
45,243,160616,2,0,L|79:303,1,60,4|8,0:0|0:0,0:0:0:0:
99,336,161092,1,8,0:0:0:0:
191,360,161569,5,4,0:0:0:0:
212,266,162046,1,8,0:0:0:0:
253,241,162284,1,0,0:0:0:0:
294,216,162522,2,0,B|343:183|343:183|342:122,1,120,4|8,0:0|0:0,0:0:0:0:
247,132,163475,6,0,B|214:82|214:82|153:83,1,120,4|8,0:0|0:0,0:0:0:0:
132,126,164190,1,0,0:0:0:0:
110,168,164428,2,0,B|142:217|142:217|204:216,1,120,4|8,0:0|0:0,0:0:0:0:
267,287,165381,6,0,B|327:286|327:286|360:335,1,120,4|8,0:0|0:0,0:0:0:0:
443,287,166334,2,0,B|411:234|411:234|438:181,1,120,4|8,0:0|0:0,0:0:0:0:
354,135,167287,6,0,B|324:187|324:187|265:191,1,120,4|8,0:0|0:0,0:0:0:0:
192,254,168239,1,4,0:0:0:0:
144,257,168478,1,0,0:0:0:0:
69,318,168955,1,0,0:0:0:0:
21,321,169193,6,0,L|15:201,1,120,6|10,0:0|0:0,0:0:0:0:
68,120,170146,2,0,L|187:114,1,120,6|10,0:0|0:0,0:0:0:0:
253,184,171099,6,0,L|258:303,1,120,6|10,0:0|0:0,0:0:0:0:
224,337,171813,1,0,0:0:0:0:
189,370,172052,2,0,L|129:372,1,60,6|0,0:0|0:0,0:0:0:0:
53,313,172766,1,0,0:0:0:0:
42,266,173005,6,0,P|41:206|82:165,1,120,6|10,0:0|0:0,0:0:0:0:
111,74,173958,2,0,P|162:102|177:158,1,120,6|10,0:0|0:0,0:0:0:0:
242,227,174911,6,0,P|192:258|135:243,1,120,6|10,0:0|0:0,0:0:0:0:
81,166,175864,2,0,L|104:101,1,60,6|0,0:0|0:0,0:0:0:0:
181,57,176578,1,0,0:0:0:0:
226,73,176817,6,0,L|350:117,1,120,4|8,0:0|0:0,0:0:0:0:
348,208,177770,2,0,L|224:164,1,120,4|8,0:0|0:0,0:0:0:0:
146,130,178723,6,0,B|154:98|180:84|180:84|207:68|216:37,1,120,4|8,0:0|0:0,0:0:0:0:
264,41,179437,1,0,0:0:0:0:
311,45,179675,2,0,L|332:100,1,60,12|8,0:0|0:0,0:0:0:0:
326,196,180390,1,10,0:0:0:0:
282,214,180628,38,0,L|170:257,1,120,6|10,0:0|0:0,0:0:0:0:
94,216,181581,1,6,0:0:0:0:
94,216,181819,1,0,0:0:0:0:
94,216,182057,1,10,0:0:0:0:
115,122,182534,6,0,L|227:79,1,120,6|10,0:0|0:0,0:0:0:0:
271,97,183248,1,2,0:0:0:0:
314,117,183487,2,0,L|335:172,1,60,6|2,0:0|0:0,0:0:0:0:
421,216,184201,1,2,0:0:0:0:
442,259,184440,6,0,B|464:313|464:313|446:371,1,120,6|10,0:0|0:0,0:0:0:0:
374,325,185393,1,6,0:0:0:0:
374,325,185631,1,0,0:0:0:0:
374,325,185869,1,10,0:0:0:0:
293,272,186346,6,0,B|234:253|234:253|180:276,1,120,6|10,0:0|0:0,0:0:0:0:
138,298,187060,1,2,0:0:0:0:
94,320,187299,2,0,P|53:278|56:219,1,120,6|10,0:0|0:0,0:0:0:0:
111,140,188252,6,0,P|113:82|72:40,1,120,6|10,0:0|0:0,0:0:0:0:
46,81,188967,1,0,0:0:0:0:
17,119,189205,2,0,P|15:178|56:220,1,120,6|10,0:0|0:0,0:0:0:0:
111,140,190158,6,0,P|160:108|217:123,1,120,6|10,0:0|0:0,0:0:0:0:
279,195,191110,2,0,L|378:204,1,60,6|2,0:0|0:0,0:0:0:0:
394,280,191825,1,2,0:0:0:0:
389,328,192063,6,0,L|270:317,1,120,6|10,0:0|0:0,0:0:0:0:
205,260,193016,1,6,0:0:0:0:
205,260,193255,1,0,0:0:0:0:
205,260,193493,1,10,0:0:0:0:
280,200,193970,6,0,B|276:168|295:145|295:145|314:120|310:89,1,120,6|10,0:0|0:0,0:0:0:0:
377,18,194923,2,0,L|476:27,1,60,14|10,0:0|0:0,0:0:0:0:
488,103,195637,1,10,0:0:0:0:
483,150,195876,6,0,L|472:269,1,120,6|10,0:0|0:0,0:0:0:0:
394,321,196828,1,6,0:0:0:0:
394,321,197067,1,0,0:0:0:0:
394,321,197305,1,10,0:0:0:0:
334,244,197782,6,0,P|317:189|345:138,1,120,6|10,0:0|0:0,0:0:0:0:
419,199,198735,2,0,L|478:204,1,60,6|2,0:0|0:0,0:0:0:0:
498,298,199449,1,2,0:0:0:0:
450,293,199688,6,0,L|331:282,1,120,6|10,0:0|0:0,0:0:0:0:
275,217,200640,1,6,0:0:0:0:
275,217,200879,1,0,0:0:0:0:
275,217,201117,1,10,0:0:0:0:
215,141,201594,6,0,P|159:123|108:151,1,120,6|10,0:0|0:0,0:0:0:0:
54,231,202547,2,0,L|48:290,1,60,6|2,0:0|0:0,0:0:0:0:
120,353,203261,1,2,0:0:0:0:
167,358,203500,6,0,L|286:369,1,120,6|10,0:0|0:0,0:0:0:0:
361,308,204452,1,6,0:0:0:0:
361,308,204691,1,0,0:0:0:0:
361,308,204929,1,10,0:0:0:0:
423,234,205405,6,0,P|443:180|418:126,1,120,6|10,0:0|0:0,0:0:0:0:
354,54,206359,2,0,L|294:48,1,60,6|2,0:0|0:0,0:0:0:0:
224,113,207073,1,2,0:0:0:0:
190,147,207312,6,0,L|71:136,1,120,6|10,0:0|0:0,0:0:0:0:
11,212,208264,1,6,0:0:0:0:
11,212,208502,1,0,0:0:0:0:
11,212,208741,1,10,0:0:0:0:
48,300,209217,5,6,0:0:0:0:
136,261,209694,1,10,0:0:0:0:
153,216,209932,2,0,L|272:205,1,120,2|10,0:0|0:0,0:0:0:0:
289,159,210647,1,10,0:0:0:0:
313,66,211123,37,6,0:0:0:0:
172,211,230183,22,0,P|142:162|159:104,1,120,6|10,0:0|0:0,0:0:0:0:
211,28,231137,1,6,0:0:0:0:
211,28,231376,1,0,0:0:0:0:
211,28,231614,1,10,0:0:0:0:
288,84,232089,6,0,P|318:133|301:191,1,120,6|10,0:0|0:0,0:0:0:0:
253,275,233043,1,6,0:0:0:0:
253,275,233282,1,2,0:0:0:0:
253,275,233520,1,10,0:0:0:0:
183,340,233995,38,0,L|36:325,1,120,6|10,0:0|0:0,0:0:0:0:
7,250,234948,2,0,L|22:103,1,120,6|10,0:0|0:0,0:0:0:0:
36,36,235901,6,0,B|84:70|84:70|125:26|125:26|158:76|158:76|212:51|212:51|215:110|215:110|275:122|275:122|275:197,1,420,6|2,0:0|0:0,0:0:0:0:
274,231,237807,38,0,P|290:287|343:314,1,120,6|10,0:0|0:0,0:0:0:0:
376,229,238761,1,6,0:0:0:0:
376,229,239000,1,0,0:0:0:0:
376,229,239238,1,10,0:0:0:0:
403,136,239713,6,0,P|455:163|472:219,1,120,6|10,0:0|0:0,0:0:0:0:
466,323,240667,1,6,0:0:0:0:
466,323,240906,1,2,0:0:0:0:
466,323,241144,1,10,0:0:0:0:
370,327,241619,38,0,L|293:235,1,120,6|10,0:0|0:0,0:0:0:0:
197,235,242572,2,0,L|120:143,1,120,6|10,0:0|0:0,0:0:0:0:
137,48,243525,6,0,B|168:47|188:25|188:25|210:2|242:2,1,120,6|10,0:0|0:0,0:0:0:0:
338,24,244478,2,0,L|376:71,1,60,14|10,0:0|0:0,0:0:0:0:
378,118,244955,2,0,L|416:165,1,60,10|10,0:0|0:0,0:0:0:0:
408,212,245432,38,0,L|316:289,1,120,6|10,0:0|0:0,0:0:0:0:
229,313,246385,1,6,0:0:0:0:
229,313,246623,1,0,0:0:0:0:
229,313,246861,1,10,0:0:0:0:
195,223,247338,6,0,L|287:146,1,120,6|10,0:0|0:0,0:0:0:0:
297,99,248052,1,2,0:0:0:0:
307,52,248291,2,0,L|354:14,1,60,6|2,0:0|0:0,0:0:0:0:
420,85,249005,1,2,0:0:0:0:
454,121,249244,6,0,B|492:166|492:166|493:248,1,120,6|10,0:0|0:0,0:0:0:0:
411,272,250197,1,6,0:0:0:0:
411,272,250435,1,0,0:0:0:0:
411,272,250673,1,10,0:0:0:0:
327,225,251150,6,0,B|329:164|329:164|366:119,1,120,6|10,0:0|0:0,0:0:0:0:
399,84,251864,1,2,0:0:0:0:
432,49,252103,2,0,P|383:18|326:32,1,120,6|10,0:0|0:0,0:0:0:0:
230,32,253056,6,0,P|174:46|124:15,1,120,6|10,0:0|0:0,0:0:0:0:
91,50,253770,1,0,0:0:0:0:
58,84,254008,2,0,P|99:127|97:185,1,120,6|10,0:0|0:0,0:0:0:0:
190,199,254961,6,0,P|207:143|258:115,1,120,6|10,0:0|0:0,0:0:0:0:
287,207,255914,2,0,L|386:216,1,60,6|2,0:0|0:0,0:0:0:0:
400,292,256629,1,2,0:0:0:0:
395,340,256867,6,0,L|276:329,1,120,6|10,0:0|0:0,0:0:0:0:
211,272,257820,1,6,0:0:0:0:
211,272,258059,1,0,0:0:0:0:
211,272,258297,1,10,0:0:0:0:
140,206,258773,6,0,B|121:181|126:151|126:151|130:120|111:95,1,120,6|10,0:0|0:0,0:0:0:0:
30,146,259726,2,0,L|21:245,1,60,14|10,0:0|0:0,0:0:0:0:
18,301,260441,1,10,0:0:0:0:
66,307,260679,6,0,L|186:318,1,120,6|10,0:0|0:0,0:0:0:0:
271,270,261632,1,6,0:0:0:0:
271,270,261871,1,0,0:0:0:0:
271,270,262109,1,10,0:0:0:0:
339,204,262585,6,0,P|367:152|348:96,1,120,6|10,0:0|0:0,0:0:0:0:
296,17,263538,2,0,L|197:8,1,60,6|2,0:0|0:0,0:0:0:0:
161,72,264253,1,2,0:0:0:0:
114,68,264491,6,0,L|104:188,1,120,6|10,0:0|0:0,0:0:0:0:
22,230,265444,1,6,0:0:0:0:
22,230,265683,1,0,0:0:0:0:
22,230,265921,1,10,0:0:0:0:
93,294,266397,6,0,P|144:321|200:303,1,120,6|10,0:0|0:0,0:0:0:0:
253,223,267350,2,0,L|313:229,1,60,6|2,0:0|0:0,0:0:0:0:
367,149,268065,1,2,0:0:0:0:
394,110,268303,6,0,L|275:100,1,120,6|10,0:0|0:0,0:0:0:0:
211,42,269256,1,6,0:0:0:0:
211,42,269495,1,0,0:0:0:0:
211,42,269733,1,10,0:0:0:0:
126,88,270209,6,0,P|99:139|117:195,1,120,6|10,0:0|0:0,0:0:0:0:
201,148,271162,2,0,L|261:154,1,60,6|2,0:0|0:0,0:0:0:0:
338,96,271877,1,2,0:0:0:0:
386,101,272115,6,0,L|506:112,1,120,6|10,0:0|0:0,0:0:0:0:
502,215,273068,1,6,0:0:0:0:
502,215,273306,1,0,0:0:0:0:
502,215,273545,1,10,0:0:0:0:
482,308,274021,6,0,B|450:305|431:281|431:281|411:257|378:255,1,120,6|10,0:0|0:0,0:0:0:0:
329,255,274737,1,2,0:0:0:0:
281,255,274974,2,0,L|206:284,1,60,14|10,0:0|0:0,0:0:0:0:
186,188,275690,1,10,0:0:0:0:
230,170,275927,6,0,L|341:126,1,120,6|10,0:0|0:0,0:0:0:0:
436,174,276880,1,6,0:0:0:0:
436,174,277118,1,0,0:0:0:0:
436,174,277356,1,10,0:0:0:0:
397,262,277833,6,0,L|285:305,1,120,6|10,0:0|0:0,0:0:0:0:
241,287,278547,1,2,0:0:0:0:
198,267,278786,2,0,L|177:212,1,60,6|2,0:0|0:0,0:0:0:0:
91,168,279500,1,2,0:0:0:0:
70,125,279739,6,0,B|47:70|47:70|65:12,1,120,6|10,0:0|0:0,0:0:0:0:
152,74,280692,1,6,0:0:0:0:
152,74,280930,1,0,0:0:0:0:
152,74,281168,1,10,0:0:0:0:
223,138,281645,6,0,B|281:156|281:156|335:133,1,120,6|10,0:0|0:0,0:0:0:0:
378,112,282359,1,2,0:0:0:0:
422,90,282598,2,0,P|462:131|460:190,1,120,6|10,0:0|0:0,0:0:0:0:
405,269,283551,6,0,P|402:327|443:369,1,120,6|10,0:0|0:0,0:0:0:0:
470,329,284266,1,0,0:0:0:0:
499,290,284504,2,0,P|501:231|460:189,1,120,6|10,0:0|0:0,0:0:0:0:
405,270,285457,6,0,P|355:301|298:286,1,120,6|10,0:0|0:0,0:0:0:0:
237,215,286409,2,0,L|138:206,1,60,6|2,0:0|0:0,0:0:0:0:
131,124,287124,1,2,0:0:0:0:
136,76,287362,6,0,L|255:87,1,120,6|10,0:0|0:0,0:0:0:0:
326,167,288315,1,6,0:0:0:0:
326,167,288554,1,0,0:0:0:0:
326,167,288792,1,10,0:0:0:0:
232,184,289269,6,0,B|235:215|216:238|216:238|197:263|201:294,1,120,6|10,0:0|0:0,0:0:0:0:
135,366,290222,2,0,L|36:357,1,60,14|10,0:0|0:0,0:0:0:0:
24,281,290936,1,10,0:0:0:0:
29,234,291175,6,0,L|40:115,1,120,6|10,0:0|0:0,0:0:0:0:
121,61,292127,1,6,0:0:0:0:
121,61,292366,1,0,0:0:0:0:
121,61,292604,1,10,0:0:0:0:
177,139,293081,6,0,P|194:194|166:245,1,120,6|10,0:0|0:0,0:0:0:0:
93,185,294034,2,0,L|33:179,1,60,6|2,0:0|0:0,0:0:0:0:
14,86,294748,1,2,0:0:0:0:
62,91,294987,6,0,L|181:102,1,120,6|10,0:0|0:0,0:0:0:0:
248,184,295939,1,6,0:0:0:0:
248,184,296178,1,0,0:0:0:0:
248,184,296416,1,10,0:0:0:0:
311,255,296892,6,0,P|366:272|417:244,1,120,6|10,0:0|0:0,0:0:0:0:
458,157,297846,2,0,L|463:97,1,60,6|2,0:0|0:0,0:0:0:0:
392,31,298560,1,2,0:0:0:0:
345,26,298799,6,0,L|226:15,1,120,6|10,0:0|0:0,0:0:0:0:
156,79,299751,1,6,0:0:0:0:
156,79,299990,1,0,0:0:0:0:
156,79,300228,1,10,0:0:0:0:
89,150,300704,6,0,P|68:203|93:257,1,120,6|10,0:0|0:0,0:0:0:0:
158,330,301658,2,0,L|217:335,1,60,6|2,0:0|0:0,0:0:0:0:
288,271,302372,1,2,0:0:0:0:
322,237,302611,6,0,L|441:248,1,120,6|10,0:0|0:0,0:0:0:0:
501,172,303563,1,6,0:0:0:0:
501,172,303801,1,0,0:0:0:0:
501,172,304040,1,10,0:0:0:0:
451,89,304516,6,0,B|423:75|394:84|394:84|364:93|334:77,1,120,6|10,0:0|0:0,0:0:0:0:
215,63,305469,2,0,L|156:58,1,60,14|10,0:0|0:0,0:0:0:0:
115,103,305946,2,0,L|56:98,1,60,10|10,0:0|0:0,0:0:0:0:
15,142,306423,6,0,L|12:265,1,120,6|14,0:0|0:0,0:0:0:0:
