osu file format v14

[General]
AudioFilename: audio.mp3
AudioLeadIn: 0
PreviewTime: 80207
Countdown: 0
SampleSet: Drum
StackLeniency: 0.7
Mode: 0
LetterboxInBreaks: 0
WidescreenStoryboard: 1

[Editor]
DistanceSpacing: 1
BeatDivisor: 4
GridSize: 4
TimelineZoom: 1.6

[Metadata]
Title:Desenchantee
TitleUnicode:Désenchantée
Artist:Mylene Farmer
ArtistUnicode:Mylène Farmer
Creator:AnimeStyle
Version:Hard
Source:
Tags:french pop 1991 kate ryan europop new wave l'autre... qiyana dyl-byl français
BeatmapID:3051794
BeatmapSetID:1488666

[Difficulty]
HPDrainRate:5
CircleSize:4.5
OverallDifficulty:6
ApproachRate:7
SliderMultiplier:1.5
SliderTickRate:1

[Events]
//Background and Video events
0,0,"179502.jpg",0,0
//Break Periods
2,112213,113257
2,211324,228569
//Storyboard Layer 0 (Background)
//Storyboard Layer 1 (Fail)
//Storyboard Layer 2 (Pass)
//Storyboard Layer 3 (Foreground)
//Storyboard Layer 4 (Overlay)
//Storyboard Sound Samples

[TimingPoints]
1467.28997043348,476.493011435832,4,3,1,40,1,0
81041,-100,4,3,1,50,0,0
81518,-83.3333333333333,4,3,2,60,0,1
112013,-100,4,3,1,40,0,0
114157,-100,4,3,1,30,0,0
115825,-100,4,3,1,40,0,0
180152,-100,4,3,1,50,0,0
180628,-83.3333333333333,4,3,2,60,0,1
211124,-100,4,3,2,40,0,0
229469,-100,4,3,2,60,0,0
244478,-100,4,3,1,60,0,0
245431,-83.3333333333333,4,3,2,60,0,1
274974,-83.3333333333333,4,3,1,60,0,1
275450,-83.3333333333333,4,3,2,50,0,1
275569,-83.3333333333333,4,3,1,50,0,1
275808,-83.3333333333333,4,3,1,50,0,0
275927,-83.3333333333333,4,3,2,60,0,1
291175,-83.3333333333333,4,3,2,56,0,1
292128,-83.3333333333333,4,3,2,55,0,1
293081,-83.3333333333333,4,3,2,54,0,1
294033,-83.3333333333333,4,3,2,53,0,1
294986,-83.3333333333333,4,3,2,52,0,1
295939,-83.3333333333333,4,3,2,51,0,1
296892,-83.3333333333333,4,3,2,50,0,1
297845,-83.3333333333333,4,3,2,49,0,1
298798,-83.3333333333333,4,3,2,48,0,1
299751,-83.3333333333333,4,3,2,47,0,1
300704,-83.3333333333333,4,3,2,46,0,1
301657,-83.3333333333333,4,3,2,45,0,1
302610,-83.3333333333333,4,3,2,44,0,1
303563,-83.3333333333333,4,3,2,43,0,1
304516,-83.3333333333333,4,3,2,42,0,1
305469,-83.3333333333333,4,3,2,41,0,1
306422,-83.3333333333333,4,3,2,40,0,0

[Colours]
Combo1 : 191,191,191
Combo2 : 255,128,0
Combo3 : 89,89,89
Combo4 : 128,64,64

[HitObjects]
72,14,15762,6,0,L|106:28,3,37.5,2|2|2|2,0:0|0:0|0:0|0:0,0:0:0:0:
132,55,16238,2,0,L|166:69,3,37.5,10|2|2|2,0:0|0:0|0:0|0:0,0:0:0:0:
194,96,16715,6,0,L|361:61,1,150,4|8,0:0|0:0,0:0:0:0:
411,88,17429,1,0,0:0:0:0:
355,139,17668,2,0,P|320:204|234:235,1,150,4|8,0:0|0:0,0:0:0:0:
183,212,18382,1,0,0:0:0:0:
148,197,18501,1,0,0:0:0:0:
113,183,18621,6,0,P|146:117|213:86,1,150,4|8,0:0|0:0,0:0:0:0:
284,112,19335,1,0,0:0:0:0:
355,139,19574,2,0,L|425:165,1,75,4|0,0:0|0:0,0:0:0:0:
482,117,20050,2,0,L|440:48,1,75,8|0,0:0|0:0,0:0:0:0:
368,64,20527,5,4,0:0:0:0:
355,139,20765,1,0,0:0:0:0:
425,165,21003,2,0,L|441:271,1,75,8|0,0:0|0:0,0:0:0:0:
510,229,21479,2,0,L|338:255,1,150,4|8,0:0|0:0,0:0:0:0:
318,312,22194,1,0,0:0:0:0:
280,317,22313,1,0,0:0:0:0:
242,322,22432,6,0,L|70:348,1,150,4|8,0:0|0:0,0:0:0:0:
28,309,23147,1,0,0:0:0:0:
71,247,23385,2,0,L|59:172,1,75,4|0,0:0|0:0,0:0:0:0:
100,110,23862,2,0,L|144:48,1,75,8|0,0:0|0:0,0:0:0:0:
206,93,24338,6,0,L|378:67,1,150,4|8,0:0|0:0,0:0:0:0:
413,117,25053,1,0,0:0:0:0:
375,181,25291,2,0,L|203:207,1,150,4|8,0:0|0:0,0:0:0:0:
194,271,26006,1,0,0:0:0:0:
221,296,26125,1,0,0:0:0:0:
248,321,26244,6,0,L|420:295,1,150,4|8,0:0|0:0,0:0:0:0:
434,233,26959,1,0,0:0:0:0:
358,232,27197,2,0,P|311:177|335:110,1,150,4|8,0:0|0:0,0:0:0:0:
409,94,27912,1,0,0:0:0:0:
382,164,28150,6,0,P|309:176|264:122,1,150,4|8,0:0|0:0,0:0:0:0:
288,51,28865,1,0,0:0:0:0:
335,110,29103,2,0,P|310:177|240:190,1,150,4|8,0:0|0:0,0:0:0:0:
179,232,29818,1,0,0:0:0:0:
143,221,29937,1,0,0:0:0:0:
106,210,30056,6,0,P|35:222|10:289,1,150,4|8,0:0|0:0,0:0:0:0:
55,348,30771,1,0,0:0:0:0:
82,278,31009,2,0,L|140:298,3,37.5,6|2|2|2,0:0|0:0|0:0|0:0,0:0:0:0:
154,285,31486,2,0,L|212:305,3,37.5,10|2|2|2,0:0|0:0|0:0|0:0,0:0:0:0:
226,292,31962,6,0,L|275:151,1,150,4|8,0:0|0:0,0:0:0:0:
339,111,32677,1,0,0:0:0:0:
405,76,32915,2,0,B|474:100|474:100|517:176,1,150,4|8,0:0|0:0,0:0:0:0:
456,217,33630,1,0,0:0:0:0:
428,241,33749,1,0,0:0:0:0:
399,264,33868,6,0,B|327:239|327:239|286:163,1,150,4|8,0:0|0:0,0:0:0:0:
262,105,34583,1,0,0:0:0:0:
237,34,34821,2,0,L|157:6,1,75,4|0,0:0|0:0,0:0:0:0:
140,80,35298,2,0,L|115:150,1,75,8|0,0:0|0:0,0:0:0:0:
160,210,35774,5,4,0:0:0:0:
211,265,36013,1,0,0:0:0:0:
261,320,36251,2,0,L|331:344,1,75,8|0,0:0|0:0,0:0:0:0:
405,329,36727,2,0,B|434:290|422:251|422:251|411:211|440:173,1,150,4|8,0:0|0:0,0:0:0:0:
502,160,37442,1,0,0:0:0:0:
507,197,37561,1,0,0:0:0:0:
493,232,37680,6,0,B|457:265|417:258|417:258|376:250|341:284,1,150,4|8,0:0|0:0,0:0:0:0:
332,345,38395,1,0,0:0:0:0:
281,290,38633,2,0,P|283:249|318:206,1,75,4|0,0:0|0:0,0:0:0:0:
372,201,39110,2,0,P|390:168|390:131,1,75,8|0,0:0|0:0,0:0:0:0:
331,85,39586,6,0,B|366:52|406:59|406:59|447:67|469:44,1,150,4|8,0:0|0:0,0:0:0:0:
491,116,40301,1,0,0:0:0:0:
451,179,40539,2,0,B|415:211|375:204|375:204|334:196|312:219,1,150,4|8,0:0|0:0,0:0:0:0:
262,275,41254,1,0,0:0:0:0:
237,247,41373,1,0,0:0:0:0:
213,219,41492,6,0,B|191:196|150:204|150:204|110:211|75:179,1,150,4|8,0:0|0:0,0:0:0:0:
64,104,42207,1,0,0:0:0:0:
134,130,42445,2,0,L|171:287,1,150,4|8,0:0|0:0,0:0:0:0:
231,317,43160,1,0,0:0:0:0:
273,254,43398,6,0,L|430:217,1,150,4|8,0:0|0:0,0:0:0:0:
461,157,44113,1,0,0:0:0:0:
393,123,44351,2,0,L|236:160,1,150,4|8,0:0|0:0,0:0:0:0:
193,210,45066,1,0,0:0:0:0:
166,236,45185,1,0,0:0:0:0:
139,262,45304,6,0,L|104:115,1,150,4|8,0:0|0:0,0:0:0:0:
42,72,46019,1,0,0:0:0:0:
110,42,46257,2,0,L|170:28,3,37.5,6|2|2|10,0:0|0:0|0:0|0:0,0:0:0:0:
184,38,46734,2,0,L|244:24,3,37.5,10|2|2|2,0:0|0:0|0:0|0:0,0:0:0:0:
257,37,47210,5,6,0:0:0:0:
311,88,47448,1,0,0:0:0:0:
365,140,47687,2,0,L|381:213,1,75,8|0,0:0|0:0,0:0:0:0:
401,285,48163,2,0,L|329:263,1,75,4|0,0:0|0:0,0:0:0:0:
256,243,48640,2,0,L|310:191,1,75,8|0,0:0|0:0,0:0:0:0:
338,166,48997,1,0,0:0:0:0:
365,140,49116,5,4,0:0:0:0:
436,160,49354,1,0,0:0:0:0:
455,233,49593,2,0,L|471:306,1,75,8|0,0:0|0:0,0:0:0:0:
491,378,50069,2,0,L|419:356,1,75,4|0,0:0|0:0,0:0:0:0:
346,336,50546,2,0,L|400:284,1,75,8|0,0:0|0:0,0:0:0:0:
455,233,51022,6,0,L|471:306,2,75,4|0|8,0:0|0:0|0:0,0:0:0:0:
507,178,51737,1,0,0:0:0:0:
433,162,51975,2,0,P|360:171|300:241,1,150,4|8,0:0|0:0,0:0:0:0:
273,290,52690,1,0,0:0:0:0:
256,323,52809,1,0,0:0:0:0:
237,355,52928,6,0,P|164:339|116:283,1,150,4|8,0:0|0:0,0:0:0:0:
90,213,53643,1,0,0:0:0:0:
64,142,53881,2,0,L|41:70,1,75,4|0,0:0|0:0,0:0:0:0:
81,6,54358,1,8,0:0:0:0:
153,25,54596,1,0,0:0:0:0:
225,43,54835,5,4,0:0:0:0:
172,97,55072,1,0,0:0:0:0:
118,147,55311,2,0,P|117:188|150:232,1,75,8|0,0:0|0:0,0:0:0:0:
190,168,55787,2,0,P|225:147|248:96,1,75,4|0,0:0|0:0,0:0:0:0:
172,97,56263,2,0,P|140:77|103:74,1,75,8|0,0:0|0:0,0:0:0:0:
69,91,56621,1,0,0:0:0:0:
47,122,56740,5,4,0:0:0:0:
62,195,56978,1,0,0:0:0:0:
133,218,57216,2,0,P|132:259|165:303,1,75,8|0,0:0|0:0,0:0:0:0:
204,240,57693,2,0,P|239:219|262:168,1,75,4|0,0:0|0:0,0:0:0:0:
186,169,58169,2,0,P|154:149|117:146,1,75,8|0,0:0|0:0,0:0:0:0:
133,218,58646,6,0,P|132:259|165:303,2,75,4|0|8,0:0|0:0|0:0,0:0:0:0:
186,169,59361,1,0,0:0:0:0:
242,120,59599,2,0,L|406:186,1,150,4|8,0:0|0:0,0:0:0:0:
450,147,60314,1,0,0:0:0:0:
420,78,60552,6,0,L|280:21,1,150,4|8,0:0|0:0,0:0:0:0:
219,64,61267,1,0,0:0:0:0:
160,108,61505,2,0,P|138:143|143:198,1,75,4|0,0:0|0:0,0:0:0:0:
185,233,61981,1,8,0:0:0:0:
259,220,62220,1,0,0:0:0:0:
243,185,62339,1,0,0:0:0:0:
212,163,62458,6,0,L|69:116,1,150,4|8,0:0|0:0,0:0:0:0:
11,164,63173,1,0,0:0:0:0:
37,232,63411,2,0,P|96:277|170:277,1,150,4|8,0:0|0:0,0:0:0:0:
240,252,64126,1,0,0:0:0:0:
310,225,64364,6,0,P|383:224|442:269,1,150,4|8,0:0|0:0,0:0:0:0:
493,324,65079,1,0,0:0:0:0:
420,341,65317,2,0,P|346:341|287:296,1,150,4|8,0:0|0:0,0:0:0:0:
212,289,66032,1,0,0:0:0:0:
188,259,66151,1,0,0:0:0:0:
164,229,66270,6,0,P|132:203|76:200,2,75,4|0|8,0:0|0:0|0:0,0:0:0:0:
212,289,66985,1,0,0:0:0:0:
287,297,67223,2,0,P|360:284|410:230,1,150,4|8,0:0|0:0,0:0:0:0:
413,154,67938,1,0,0:0:0:0:
348,117,68176,6,0,P|338:152|346:189,1,75,4|0,0:0|0:0,0:0:0:0:
410,230,68652,1,8,0:0:0:0:
476,193,68891,1,0,0:0:0:0:
486,156,69010,1,0,0:0:0:0:
478,119,69129,2,0,P|452:91|417:79,1,75,4|0,0:0|0:0,0:0:0:0:
413,154,69605,1,8,0:0:0:0:
410,230,69844,1,8,0:0:0:0:
407,304,70082,6,0,L|224:300,1,150,6|10,0:0|0:0,0:0:0:0:
208,243,70797,1,0,0:0:0:0:
183,215,70916,1,0,0:0:0:0:
158,186,71035,2,0,L|56:184,2,75,6|0|10,0:0|0:0|0:0,0:0:0:0:
191,118,71750,1,0,0:0:0:0:
224,50,71988,6,0,B|300:51|300:51|340:124,1,150,6|10,0:0|0:0,0:0:0:0:
404,148,72702,1,0,0:0:0:0:
422,181,72822,1,0,0:0:0:0:
440,213,72941,2,0,L|476:278,1,75,6|0,0:0|0:0,0:0:0:0:
426,333,73417,2,0,L|389:267,1,75,10|0,0:0|0:0,0:0:0:0:
316,254,73894,6,0,L|250:290,2,75,6|0|10,0:0|0:0|0:0,0:0:0:0:
341,183,74608,1,0,0:0:0:0:
323,150,74728,1,0,0:0:0:0:
305,117,74847,2,0,L|370:80,2,75,6|0|10,0:0|0:0|0:0,0:0:0:0:
233,97,75561,1,0,0:0:0:0:
212,169,75800,6,0,B|99:231|99:231|150:249,1,150,6|10,0:0|0:0,0:0:0:0:
187,267,76514,1,0,0:0:0:0:
201,302,76634,1,0,0:0:0:0:
215,336,76753,2,0,L|280:299,1,75,6|0,0:0|0:0,0:0:0:0:
351,323,77229,2,0,L|416:286,1,75,10|0,0:0|0:0,0:0:0:0:
444,216,77706,6,0,P|431:144|378:93,1,150,4|8,0:0|0:0,0:0:0:0:
312,56,78420,1,0,0:0:0:0:
312,131,78659,2,0,P|243:154|172:133,1,150,4|8,0:0|0:0,0:0:0:0:
175,57,79373,1,0,0:0:0:0:
108,90,79612,6,0,B|86:133|104:169|104:169|122:207|107:234,1,150,4|8,0:0|0:0,0:0:0:0:
109,309,80326,1,8,0:0:0:0:
71,302,80446,1,8,0:0:0:0:
43,276,80565,2,0,P|32:239|38:203,1,75,12|8,0:0|0:0,0:0:0:0:
98,160,81041,2,0,L|70:136,2,37.5,12|8|10,0:0|0:0|0:0,0:0:0:0:
107,234,81518,38,0,P|148:216|174:166,2,89.9999972534181,4|0|10,0:0|0:0|0:0,0:0:0:0:
24,198,82232,1,0,0:0:0:0:
19,153,82351,1,0,0:0:0:0:
13,108,82471,2,0,L|5:5,2,89.9999972534181,4|0|8,0:0|0:0|0:0,0:0:0:0:
24,198,83185,1,0,0:0:0:0:
29,243,83304,1,0,0:0:0:0:
34,288,83424,6,0,P|82:359|168:356,1,179.999994506836,4|8,0:0|0:0,0:0:0:0:
212,277,84138,1,0,0:0:0:0:
167,268,84257,1,0,0:0:0:0:
123,281,84377,2,0,P|110:237|64:205,1,89.9999972534181,4|0,0:0|0:0,0:0:0:0:
52,123,84853,2,0,P|18:94|6:51,1,89.9999972534181,8|0,0:0|0:0,0:0:0:0:
47,33,85210,1,0,0:0:0:0:
89,17,85330,6,0,L|293:1,1,179.999994506836,4|8,0:0|0:0,0:0:0:0:
353,33,86044,1,0,0:0:0:0:
388,60,86163,1,0,0:0:0:0:
423,87,86283,2,0,L|526:79,2,89.9999972534181,4|0|8,0:0|0:0|0:0,0:0:0:0:
373,162,86997,1,0,0:0:0:0:
313,229,87236,6,0,L|223:235,1,89.9999972534181,4|0,0:0|0:0,0:0:0:0:
173,311,87712,1,8,0:0:0:0:
97,262,87950,1,0,0:0:0:0:
89,217,88069,1,0,0:0:0:0:
81,172,88189,2,0,P|29:103|59:22,1,179.999994506836,4|8,0:0|0:0,0:0:0:0:
117,90,88903,1,0,0:0:0:0:
173,158,89142,6,0,P|225:227|195:308,1,179.999994506836,4|8,0:0|0:0,0:0:0:0:
133,374,89856,1,0,0:0:0:0:
94,351,89975,1,0,0:0:0:0:
55,327,90094,2,0,P|4:258|33:177,1,179.999994506836,4|8,0:0|0:0,0:0:0:0:
97,112,90809,1,0,0:0:0:0:
135,135,90928,1,0,0:0:0:0:
173,158,91047,6,0,P|258:167|313:102,1,179.999994506836,4|8,0:0|0:0,0:0:0:0:
339,14,91762,1,0,0:0:0:0:
378,35,91881,1,0,0:0:0:0:
402,73,92000,2,0,P|406:117|386:156,1,89.9999972534181,4|0,0:0|0:0,0:0:0:0:
390,246,92477,2,0,P|368:286|374:330,1,89.9999972534181,8|0,0:0|0:0,0:0:0:0:
417,319,92834,1,0,0:0:0:0:
460,305,92953,6,0,L|253:265,1,179.999994506836,4|8,0:0|0:0,0:0:0:0:
201,309,93668,1,0,0:0:0:0:
156,300,93787,1,0,0:0:0:0:
111,291,93906,2,0,L|-3:269,2,89.9999972534181,4|0|8,0:0|0:0|0:0,0:0:0:0:
173,225,94621,1,0,0:0:0:0:
235,158,94859,6,0,B|274:185|263:237|263:237|251:290|291:317,1,179.999994506836,4|8,0:0|0:0,0:0:0:0:
355,254,95574,1,0,0:0:0:0:
385,222,95693,1,0,0:0:0:0:
416,189,95812,2,0,P|433:148|425:105,1,89.9999972534181,12|8,0:0|0:0,0:0:0:0:
342,138,96289,2,0,P|328:95|294:67,1,89.9999972534181,4|10,0:0|0:0,0:0:0:0:
249,60,96646,1,8,0:0:0:0:
204,56,96765,6,0,L|91:215,1,179.999994506836,4|10,0:0|0:0,0:0:0:0:
171,256,97480,1,0,0:0:0:0:
206,282,97599,1,0,0:0:0:0:
241,308,97718,2,0,L|178:397,2,89.9999972534181,4|0|8,0:0|0:0|0:0,0:0:0:0:
331,302,98433,1,0,0:0:0:0:
357,267,98552,1,0,0:0:0:0:
383,230,98671,6,0,P|393:185|378:144,1,89.9999972534181,4|0,0:0|0:0,0:0:0:0:
302,193,99148,1,8,0:0:0:0:
250,266,99386,1,0,0:0:0:0:
290,285,99505,1,0,0:0:0:0:
331,302,99624,2,0,P|371:320|415:314,1,89.9999972534181,4|0,0:0|0:0,0:0:0:0:
382,230,100101,2,0,P|425:217|455:184,1,89.9999972534181,8|0,0:0|0:0,0:0:0:0:
479,147,100458,1,0,0:0:0:0:
503,109,100577,6,0,L|344:-4,1,179.999994506836,4|8,0:0|0:0,0:0:0:0:
272,39,101292,1,0,0:0:0:0:
231,58,101411,1,0,0:0:0:0:
190,78,101530,2,0,L|101:15,2,89.9999972534181,4|0|8,0:0|0:0|0:0,0:0:0:0:
190,168,102245,1,0,0:0:0:0:
225,195,102364,1,0,0:0:0:0:
260,222,102483,6,0,P|303:232|345:220,1,89.9999972534181,4|0,0:0|0:0,0:0:0:0:
389,141,102960,1,8,0:0:0:0:
300,129,103198,1,0,0:0:0:0:
255,132,103317,1,0,0:0:0:0:
212,145,103436,2,0,P|179:175|168:218,1,89.9999972534181,4|0,0:0|0:0,0:0:0:0:
259,222,103913,2,0,P|255:266|274:306,1,89.9999972534181,8|0,0:0|0:0,0:0:0:0:
345,252,104389,6,0,L|135:180,1,179.999994506836,4|8,0:0|0:0,0:0:0:0:
199,107,105104,1,0,0:0:0:0:
157,93,105223,1,0,0:0:0:0:
113,78,105342,2,0,L|6:41,2,89.9999972534181,4|0|8,0:0|0:0|0:0,0:0:0:0:
199,107,106057,1,0,0:0:0:0:
243,122,106176,1,0,0:0:0:0:
284,137,106295,6,0,P|310:172|314:216,1,89.9999972534181,4|0,0:0|0:0,0:0:0:0:
261,288,106772,1,8,0:0:0:0:
171,274,107010,1,0,0:0:0:0:
146,236,107129,1,0,0:0:0:0:
142,189,107248,2,0,P|156:148|192:121,1,89.9999972534181,4|0,0:0|0:0,0:0:0:0:
230,203,107725,2,0,P|269:182|313:184,1,89.9999972534181,8|0,0:0|0:0,0:0:0:0:
355,200,108082,1,0,0:0:0:0:
396,216,108201,6,0,L|258:94,1,179.999994506836,4|8,0:0|0:0,0:0:0:0:
181,139,108916,1,0,0:0:0:0:
148,107,109035,1,0,0:0:0:0:
115,76,109154,2,0,L|37:5,2,89.9999972534181,4|0|8,0:0|0:0|0:0,0:0:0:0:
181,139,109869,1,0,0:0:0:0:
214,170,109988,1,0,0:0:0:0:
247,200,110107,6,0,P|270:237|272:281,1,89.9999972534181,4|0,0:0|0:0,0:0:0:0:
257,370,110584,1,8,0:0:0:0:
169,354,110822,1,0,0:0:0:0:
176,309,110941,1,0,0:0:0:0:
185,265,111060,2,0,P|160:227|158:182,1,89.9999972534181,4|8,0:0|0:0,0:0:0:0:
246,198,111537,2,0,P|251:153|278:117,1,89.9999972534181,8|0,0:0|0:0,0:0:0:0:
277,117,111894,1,0,0:0:0:0:
277,117,112013,5,6,0:0:0:0:
415,148,114157,5,2,0:0:0:0:
405,158,114634,1,2,0:0:0:0:
395,168,115110,1,2,0:0:0:0:
319,268,115825,38,0,L|152:303,1,150,4|4,0:0|0:0,0:0:0:0:
122,355,116540,1,0,0:0:0:0:
98,283,116778,2,0,P|64:217|78:144,1,150,4|4,0:0|0:0,0:0:0:0:
71,69,117493,1,0,0:0:0:0:
107,75,117612,1,0,0:0:0:0:
136,97,117731,6,0,P|209:92|264:42,1,150,4|4,0:0|0:0,0:0:0:0:
334,17,118446,1,0,0:0:0:0:
365,84,118684,2,0,L|435:110,1,75,4|0,0:0|0:0,0:0:0:0:
468,177,119161,2,0,L|501:244,1,75,4|0,0:0|0:0,0:0:0:0:
426,239,119637,5,4,0:0:0:0:
351,234,119875,1,0,0:0:0:0:
391,171,120114,2,0,L|437:108,1,75,4|0,0:0|0:0,0:0:0:0:
510,116,120590,2,0,L|362:89,1,150,4|4,0:0|0:0,0:0:0:0:
301,133,121305,1,0,0:0:0:0:
265,126,121424,1,0,0:0:0:0:
228,119,121543,6,0,L|80:92,1,150,4|4,0:0|0:0,0:0:0:0:
17,132,122258,1,0,0:0:0:0:
61,192,122496,2,0,L|44:284,1,75,4|0,0:0|0:0,0:0:0:0:
118,241,122973,2,0,L|210:258,1,75,4|0,0:0|0:0,0:0:0:0:
249,302,123449,6,0,L|275:154,1,150,4|4,0:0|0:0,0:0:0:0:
340,116,124164,1,0,0:0:0:0:
384,176,124402,2,0,L|357:323,1,150,4|4,0:0|0:0,0:0:0:0:
402,383,125117,1,0,0:0:0:0:
434,364,125236,1,0,0:0:0:0:
466,345,125355,6,0,L|493:198,1,150,4|4,0:0|0:0,0:0:0:0:
447,137,126070,1,0,0:0:0:0:
382,175,126308,2,0,P|311:163|285:96,1,150,4|4,0:0|0:0,0:0:0:0:
332,37,127023,1,0,0:0:0:0:
356,107,127261,6,0,P|307:163|238:150,1,150,4|4,0:0|0:0,0:0:0:0:
212,82,127976,1,0,0:0:0:0:
285,96,128214,2,0,P|308:163|263:218,1,150,4|4,0:0|0:0,0:0:0:0:
187,203,128929,1,0,0:0:0:0:
151,215,129048,1,0,0:0:0:0:
115,227,129167,6,0,P|68:282|92:349,1,150,4|4,0:0|0:0,0:0:0:0:
160,380,129882,1,0,0:0:0:0:
212,327,130120,2,0,L|248:317,3,37.5,6|2|2|2,0:0|0:0|0:0|0:0,0:0:0:0:
283,330,130596,2,0,L|319:320,3,37.5,10|2|2|2,0:0|0:0|0:0|0:0,0:0:0:0:
354,333,131073,6,0,L|499:296,1,150,4|8,0:0|0:0,0:0:0:0:
492,220,131788,1,0,0:0:0:0:
484,145,132026,2,0,B|492:71|492:71|443:0,1,150,4|8,0:0|0:0,0:0:0:0:
380,40,132741,1,0,0:0:0:0:
375,77,132860,1,0,0:0:0:0:
370,114,132979,6,0,B|361:187|361:187|410:258,1,150,4|8,0:0|0:0,0:0:0:0:
450,309,133694,1,0,0:0:0:0:
375,318,133932,2,0,L|313:361,1,75,4|0,0:0|0:0,0:0:0:0:
308,286,134408,2,0,L|265:224,1,75,8|0,0:0|0:0,0:0:0:0:
219,164,134885,5,4,0:0:0:0:
176,102,135123,1,0,0:0:0:0:
101,102,135361,2,0,L|39:145,1,75,8|0,0:0|0:0,0:0:0:0:
39,220,135838,2,0,B|69:258|109:256|109:256|151:256|180:294,1,150,4|8,0:0|0:0,0:0:0:0:
180,355,136553,1,0,0:0:0:0:
142,351,136672,1,0,0:0:0:0:
112,329,136791,6,0,B|88:286|105:248|105:248|122:211|98:168,1,150,4|8,0:0|0:0,0:0:0:0:
39,220,137506,1,0,0:0:0:0:
39,144,137744,2,0,P|69:116|124:110,1,75,4|0,0:0|0:0,0:0:0:0:
168,142,138220,2,0,P|203:131|230:106,1,75,8|0,0:0|0:0,0:0:0:0:
256,35,138697,6,0,B|298:58|303:98|303:98|308:139|337:153,1,150,4|8,0:0|0:0,0:0:0:0:
404,192,139412,1,0,0:0:0:0:
337,230,139650,2,0,B|308:244|303:285|303:285|298:325|256:349,1,150,4|8,0:0|0:0,0:0:0:0:
181,349,140365,1,0,0:0:0:0:
143,349,140484,1,0,0:0:0:0:
105,349,140603,6,0,B|62:325|57:285|57:285|52:244|23:230,1,150,4|8,0:0|0:0,0:0:0:0:
13,156,141317,1,0,0:0:0:0:
3,81,141556,2,0,L|149:46,1,150,4|8,0:0|0:0,0:0:0:0:
221,66,142270,1,0,0:0:0:0:
167,119,142509,6,0,L|204:276,1,150,4|8,0:0|0:0,0:0:0:0:
150,319,143223,1,0,0:0:0:0:
223,336,143462,2,0,L|380:299,1,150,4|8,0:0|0:0,0:0:0:0:
409,238,144176,1,0,0:0:0:0:
445,229,144296,1,0,0:0:0:0:
481,219,144415,6,0,L|446:73,1,150,4|8,0:0|0:0,0:0:0:0:
417,3,145129,1,0,0:0:0:0:
344,23,145368,2,0,L|358:83,3,37.5,6|2|2|10,0:0|0:0|0:0|0:0,0:0:0:0:
362,95,145844,2,0,L|398:86,3,37.5,10|2|2|2,0:0|0:0|0:0|0:0,0:0:0:0:
435,77,146321,5,6,0:0:0:0:
457,148,146559,1,0,0:0:0:0:
404,200,146797,2,0,L|301:224,1,75,8|0,0:0|0:0,0:0:0:0:
258,235,147274,2,0,L|288:133,1,75,4|0,0:0|0:0,0:0:0:0:
300,92,147750,2,0,L|372:169,1,75,8|0,0:0|0:0,0:0:0:0:
378,173,148108,1,0,0:0:0:0:
404,200,148227,5,4,0:0:0:0:
461,248,148465,1,0,0:0:0:0:
390,274,148703,2,0,L|312:346,1,75,8|0,0:0|0:0,0:0:0:0:
318,252,149180,2,0,L|294:149,1,75,4|0,0:0|0:0,0:0:0:0:
371,201,149656,2,0,L|443:223,1,75,8|0,0:0|0:0,0:0:0:0:
390,274,150133,6,0,L|312:346,2,75,4|0|8,0:0|0:0|0:0,0:0:0:0:
443,223,150847,1,0,0:0:0:0:
496,170,151086,2,0,P|503:96|448:22,1,150,4|8,0:0|0:0,0:0:0:0:
393,57,151800,1,0,0:0:0:0:
322,85,152039,6,0,P|254:116|182:100,1,150,4|8,0:0|0:0,0:0:0:0:
128,49,152753,1,0,0:0:0:0:
112,122,152992,2,0,L|57:173,1,75,4|0,0:0|0:0,0:0:0:0:
41,246,153468,1,8,0:0:0:0:
112,268,153706,1,0,0:0:0:0:
139,243,153825,1,0,0:0:0:0:
166,216,153945,5,4,0:0:0:0:
237,238,154183,1,0,0:0:0:0:
291,188,154421,2,0,P|292:147|259:103,1,75,8|0,0:0|0:0,0:0:0:0:
219,167,154898,2,0,P|184:188|161:239,1,75,4|0,0:0|0:0,0:0:0:0:
237,238,155374,2,0,P|269:258|306:261,1,75,8|0,0:0|0:0,0:0:0:0:
340,244,155731,1,0,0:0:0:0:
362,213,155851,5,4,0:0:0:0:
347,140,156089,1,0,0:0:0:0:
276,117,156327,2,0,P|277:76|244:32,1,75,8|0,0:0|0:0,0:0:0:0:
205,95,156804,2,0,P|170:116|147:167,1,75,4|0,0:0|0:0,0:0:0:0:
223,166,157280,2,0,P|255:186|292:189,1,75,8|0,0:0|0:0,0:0:0:0:
276,117,157756,6,0,P|277:76|244:32,2,75,4|0|8,0:0|0:0|0:0,0:0:0:0:
223,166,158471,1,0,0:0:0:0:
205,95,158709,2,0,L|31:61,1,150,4|8,0:0|0:0,0:0:0:0:
12,126,159424,1,0,0:0:0:0:
54,189,159662,6,0,L|202:218,1,150,4|8,0:0|0:0,0:0:0:0:
225,289,160377,1,0,0:0:0:0:
274,234,160615,2,0,P|272:196|253:165,1,75,4|8,0:0|0:0,0:0:0:0:
220,146,160973,1,8,0:0:0:0:
187,127,161092,1,8,0:0:0:0:
224,62,161330,1,8,0:0:0:0:
257,81,161449,1,8,0:0:0:0:
290,97,161568,6,0,L|437:39,1,150,4|8,0:0|0:0,0:0:0:0:
501,64,162283,1,0,0:0:0:0:
446,114,162521,2,0,P|444:188|487:248,1,150,4|8,0:0|0:0,0:0:0:0:
510,319,163236,1,0,0:0:0:0:
437,301,163474,6,0,P|363:304|306:351,1,150,4|8,0:0|0:0,0:0:0:0:
232,362,164189,1,0,0:0:0:0:
260,292,164427,2,0,P|278:220|250:151,1,150,4|8,0:0|0:0,0:0:0:0:
300,95,165142,1,0,0:0:0:0:
324,125,165261,1,0,0:0:0:0:
348,155,165380,6,0,P|380:181|436:184,2,75,4|0|8,0:0|0:0|0:0,0:0:0:0:
300,95,166095,1,0,0:0:0:0:
225,87,166333,2,0,P|152:100|102:154,1,150,4|8,0:0|0:0,0:0:0:0:
99,230,167048,1,0,0:0:0:0:
164,267,167286,6,0,P|174:232|166:195,1,75,4|0,0:0|0:0,0:0:0:0:
102,154,167763,1,8,0:0:0:0:
36,191,168001,1,0,0:0:0:0:
26,228,168120,1,0,0:0:0:0:
34,265,168239,2,0,P|60:293|95:305,1,75,4|0,0:0|0:0,0:0:0:0:
99,230,168716,1,8,0:0:0:0:
102,154,168954,1,8,0:0:0:0:
105,80,169192,6,0,L|288:84,1,150,6|10,0:0|0:0,0:0:0:0:
304,141,169907,1,0,0:0:0:0:
329,169,170026,1,0,0:0:0:0:
354,198,170145,2,0,L|456:200,2,75,6|0|10,0:0|0:0|0:0,0:0:0:0:
321,266,170860,1,0,0:0:0:0:
288,333,171098,6,0,L|105:329,1,150,6|10,0:0|0:0,0:0:0:0:
80,282,171813,1,0,0:0:0:0:
82,243,171932,1,0,0:0:0:0:
82,206,172051,2,0,L|83:131,1,75,6|0,0:0|0:0,0:0:0:0:
154,108,172528,2,0,L|153:183,1,75,10|0,0:0|0:0,0:0:0:0:
210,233,173004,6,0,L|285:234,2,75,6|0|10,0:0|0:0|0:0,0:0:0:0:
153,282,173719,1,0,0:0:0:0:
152,319,173838,1,0,0:0:0:0:
151,357,173957,2,0,L|76:356,2,75,6|0|10,0:0|0:0|0:0,0:0:0:0:
153,282,174672,1,0,0:0:0:0:
155,206,174910,6,0,L|338:210,1,150,6|10,0:0|0:0,0:0:0:0:
356,154,175625,1,0,0:0:0:0:
354,116,175744,1,0,0:0:0:0:
352,78,175863,2,0,L|277:76,1,75,6|0,0:0|0:0,0:0:0:0:
229,20,176340,2,0,L|154:18,1,75,10|0,0:0|0:0,0:0:0:0:
94,64,176816,6,0,P|68:132|87:203,1,150,4|8,0:0|0:0,0:0:0:0:
125,269,177531,1,0,0:0:0:0:
163,204,177769,2,0,P|232:221|281:278,1,150,4|8,0:0|0:0,0:0:0:0:
280,354,178484,1,0,0:0:0:0:
347,321,178722,6,0,B|366:276|346:241|346:241|326:204|340:177,1,150,4|8,0:0|0:0,0:0:0:0:
412,199,179437,1,8,0:0:0:0:
414,161,179556,1,8,0:0:0:0:
397,127,179675,2,0,P|364:107|327:103,1,75,12|8,0:0|0:0,0:0:0:0:
258,78,180152,2,0,L|254:116,2,37.5,12|8|8,0:0|0:0|0:0,0:0:0:0:
274,8,180628,38,0,P|229:11|188:49,2,89.9999972534181,6|0|10,0:0|0:0|0:0,0:0:0:0:
312,88,181343,1,0,0:0:0:0:
331,129,181462,1,0,0:0:0:0:
350,170,181581,2,0,L|438:133,2,89.9999972534181,6|0|10,0:0|0:0|0:0,0:0:0:0:
329,257,182296,1,0,0:0:0:0:
287,275,182415,1,0,0:0:0:0:
246,294,182534,6,0,P|160:290|117:216,1,179.999994506836,6|10,0:0|0:0,0:0:0:0:
100,126,183249,1,2,0:0:0:0:
142,108,183368,1,2,0:0:0:0:
184,92,183487,2,0,P|229:94|271:132,1,89.9999972534181,6|2,0:0|0:0,0:0:0:0:
352,126,183964,2,0,P|387:152|431:154,1,89.9999972534181,10|2,0:0|0:0,0:0:0:0:
425,110,184321,1,2,0:0:0:0:
418,65,184440,6,0,L|360:252,1,179.999994506836,6|10,0:0|0:0,0:0:0:0:
278,211,185155,1,0,0:0:0:0:
264,253,185274,1,0,0:0:0:0:
250,295,185393,2,0,L|222:385,2,89.9999972534181,6|0|10,0:0|0:0|0:0,0:0:0:0:
278,211,186108,1,0,0:0:0:0:
361,178,186346,6,0,L|387:92,1,89.9999972534181,6|2,0:0|0:0,0:0:0:0:
330,22,186823,1,10,0:0:0:0:
247,57,187061,1,2,0:0:0:0:
235,99,187180,1,2,0:0:0:0:
224,143,187299,2,0,P|166:207|189:290,1,179.999994506836,6|10,0:0|0:0,0:0:0:0:
244,361,188014,1,2,0:0:0:0:
324,325,188252,6,0,P|382:261|360:177,1,179.999994506836,6|10,0:0|0:0,0:0:0:0:
295,240,188967,1,0,0:0:0:0:
253,221,189086,1,0,0:0:0:0:
211,202,189205,2,0,P|151:139|171:54,1,179.999994506836,6|10,0:0|0:0,0:0:0:0:
237,116,189920,1,0,0:0:0:0:
275,93,190039,1,0,0:0:0:0:
312,70,190158,6,0,P|398:61|453:128,1,179.999994506836,6|10,0:0|0:0,0:0:0:0:
419,211,190873,1,2,0:0:0:0:
382,185,190992,1,2,0:0:0:0:
364,144,191111,2,0,P|323:161|280:154,1,89.9999972534181,6|2,0:0|0:0,0:0:0:0:
206,207,191588,2,0,P|163:200|122:218,1,89.9999972534181,10|2,0:0|0:0,0:0:0:0:
98,256,191945,1,2,0:0:0:0:
73,293,192064,6,0,L|244:352,1,179.999994506836,6|10,0:0|0:0,0:0:0:0:
323,307,192779,1,0,0:0:0:0:
365,322,192898,1,0,0:0:0:0:
407,337,193017,2,0,L|513:373,2,89.9999972534181,6|0|10,0:0|0:0|0:0,0:0:0:0:
323,307,193732,1,0,0:0:0:0:
239,272,193970,6,0,B|195:252|196:199|196:199|198:145|153:126,1,179.999994506836,6|10,0:0|0:0,0:0:0:0:
100,199,194685,1,2,0:0:0:0:
71,164,194804,1,2,0:0:0:0:
63,120,194923,2,0,P|74:77|108:47,1,89.9999972534181,14|10,0:0|0:0,0:0:0:0:
198,47,195399,2,0,P|231:75|244:118,1,89.9999972534181,6|10,0:0|0:0,0:0:0:0:
199,123,195757,1,10,0:0:0:0:
153,126,195876,6,0,L|305:31,1,179.999994506836,6|10,0:0|0:0,0:0:0:0:
356,105,196591,1,0,0:0:0:0:
394,81,196710,1,0,0:0:0:0:
432,57,196829,2,0,L|527:-1,2,89.9999972534181,6|0|10,0:0|0:0|0:0,0:0:0:0:
356,105,197544,1,0,0:0:0:0:
318,130,197663,1,0,0:0:0:0:
280,154,197782,6,0,P|258:194|262:238,1,89.9999972534181,6|2,0:0|0:0,0:0:0:0:
325,300,198258,1,10,0:0:0:0:
349,213,198497,1,2,0:0:0:0:
369,172,198616,1,2,0:0:0:0:
367,127,198735,2,0,P|344:88|305:66,1,89.9999972534181,6|2,0:0|0:0,0:0:0:0:
280,153,199211,2,0,P|238:139|194:147,1,89.9999972534181,10|2,0:0|0:0,0:0:0:0:
155,170,199569,1,2,0:0:0:0:
116,193,199688,6,0,L|262:297,1,179.999994506836,6|10,0:0|0:0,0:0:0:0:
345,260,200403,1,0,0:0:0:0:
386,241,200522,1,0,0:0:0:0:
427,221,200641,2,0,L|516:284,2,89.9999972534181,6|0|10,0:0|0:0|0:0,0:0:0:0:
450,133,201356,1,0,0:0:0:0:
415,106,201475,1,0,0:0:0:0:
380,79,201594,6,0,P|336:69|293:81,1,89.9999972534181,6|2,0:0|0:0,0:0:0:0:
240,153,202070,1,10,0:0:0:0:
186,225,202309,1,2,0:0:0:0:
159,260,202428,1,2,0:0:0:0:
132,296,202547,2,0,P|89:308|45:298,1,89.9999972534181,6|2,0:0|0:0,0:0:0:0:
87,218,203023,2,0,P|46:200|19:164,1,89.9999972534181,10|2,0:0|0:0,0:0:0:0:
102,130,203500,6,0,L|312:58,1,179.999994506836,6|10,0:0|0:0,0:0:0:0:
340,130,204215,1,0,0:0:0:0:
382,116,204334,1,0,0:0:0:0:
426,101,204453,2,0,L|533:64,2,89.9999972534181,6|0|10,0:0|0:0|0:0,0:0:0:0:
412,190,205168,1,0,0:0:0:0:
368,205,205287,1,0,0:0:0:0:
327,220,205406,6,0,P|301:255|297:299,1,89.9999972534181,6|2,0:0|0:0,0:0:0:0:
350,372,205882,1,8,0:0:0:0:
385,289,206121,1,2,0:0:0:0:
426,274,206240,1,2,0:0:0:0:
470,259,206359,2,0,P|497:223|500:178,1,89.9999972534181,6|2,0:0|0:0,0:0:0:0:
412,190,206835,2,0,P|409:146|383:110,1,89.9999972534181,10|2,0:0|0:0,0:0:0:0:
341,92,207193,1,2,0:0:0:0:
299,75,207312,6,0,L|152:179,1,179.999994506836,6|10,0:0|0:0,0:0:0:0:
81,235,208027,1,0,0:0:0:0:
80,279,208146,1,0,0:0:0:0:
79,323,208265,2,0,L|-8:383,2,89.9999972534181,6|0|10,0:0|0:0|0:0,0:0:0:0:
165,346,208979,1,0,0:0:0:0:
203,321,209099,1,0,0:0:0:0:
238,295,209218,6,0,P|281:280|324:289,1,89.9999972534181,6|2,0:0|0:0,0:0:0:0:
391,350,209694,1,10,0:0:0:0:
410,262,209932,1,2,0:0:0:0:
413,216,210052,1,2,0:0:0:0:
416,171,210171,2,0,P|413:126|388:89,1,89.9999972534181,6|10,0:0|0:0,0:0:0:0:
326,159,210647,2,0,P|294:126|251:114,1,89.9999972534181,10|2,0:0|0:0,0:0:0:0:
252,114,211005,1,2,0:0:0:0:
252,114,211124,5,6,0:0:0:0:
407,42,229469,5,8,0:0:0:0:
407,42,229588,1,8,0:0:0:0:
407,42,229707,1,12,0:0:0:0:
407,42,230183,38,0,P|345:4|279:33,1,150,6|10,0:0|0:0,0:0:0:0:
340,77,230898,1,0,0:0:0:0:
336,113,231017,1,0,0:0:0:0:
333,149,231136,2,0,P|344:183|370:209,1,75,6|0,0:0|0:0,0:0:0:0:
446,208,231613,1,10,0:0:0:0:
411,153,231851,1,0,0:0:0:0:
411,153,231970,1,0,0:0:0:0:
411,153,232089,6,0,P|380:87|309:76,1,150,6|10,0:0|0:0,0:0:0:0:
333,149,232804,1,2,0:0:0:0:
318,182,232923,1,2,0:0:0:0:
302,215,233042,2,0,P|294:250|305:287,1,75,6|2,0:0|0:0,0:0:0:0:
371,324,233519,1,10,0:0:0:0:
433,282,233757,1,2,0:0:0:0:
405,257,233876,1,2,0:0:0:0:
368,250,233995,37,6,0:0:0:0:
302,215,234234,1,0,0:0:0:0:
279,144,234472,1,10,0:0:0:0:
314,77,234710,1,0,0:0:0:0:
386,55,234948,1,6,0:0:0:0:
452,89,235187,1,0,0:0:0:0:
475,161,235425,1,10,0:0:0:0:
440,227,235663,1,0,0:0:0:0:
368,250,235901,6,0,L|353:194,3,37.5,6|2|2|2,0:0|0:0|0:0|0:0,0:0:0:0:
327,192,236378,2,0,L|271:207,3,37.5,10|2|2|2,0:0|0:0|0:0|0:0,0:0:0:0:
254,211,236854,2,0,L|239:155,3,37.5,6|2|2|2,0:0|0:0|0:0|0:0,0:0:0:0:
232,139,237331,2,0,L|288:124,3,37.5,10|2|2|2,0:0|0:0|0:0|0:0,0:0:0:0:
304,116,237807,38,0,P|308:44|371:8,1,150,6|10,0:0|0:0,0:0:0:0:
371,83,238522,1,0,0:0:0:0:
402,103,238641,1,0,0:0:0:0:
434,122,238760,2,0,P|462:145|475:180,1,75,6|0,0:0|0:0,0:0:0:0:
486,254,239237,1,10,0:0:0:0:
499,335,239475,1,0,0:0:0:0:
499,335,239594,1,0,0:0:0:0:
499,335,239713,6,0,P|427:345|378:291,1,150,6|10,0:0|0:0,0:0:0:0:
454,275,240428,1,2,0:0:0:0:
443,239,240547,1,2,0:0:0:0:
437,202,240666,2,0,P|437:164|455:132,1,75,6|2,0:0|0:0,0:0:0:0:
510,185,241143,1,10,0:0:0:0:
487,257,241381,1,2,0:0:0:0:
454,275,241500,1,2,0:0:0:0:
421,292,241619,37,6,0:0:0:0:
349,269,241858,1,0,0:0:0:0:
314,202,242096,1,14,0:0:0:0:
337,131,242334,1,0,0:0:0:0:
403,96,242572,1,6,0:0:0:0:
475,119,242811,1,0,0:0:0:0:
510,185,243049,1,14,0:0:0:0:
487,257,243287,1,0,0:0:0:0:
421,292,243525,6,0,L|412:252,3,37.5,6|2|10|10,0:0|0:0|0:0|0:0,0:0:0:0:
378,239,244002,2,0,L|338:248,3,37.5,6|2|10|10,0:0|0:0|0:0|0:0,0:0:0:0:
305,236,244478,2,0,L|296:196,3,37.5,14|2|10|10,0:0|0:0|0:0|0:0,0:0:0:0:
323,171,244955,2,0,L|363:162,3,37.5,14|10|10|10,0:0|0:0|0:0|0:0,0:0:0:0:
404,150,245431,38,0,P|387:110|349:86,2,89.9999972534181,6|0|10,0:0|0:0|0:0,0:0:0:0:
488,186,246146,1,0,0:0:0:0:
493,231,246265,1,0,0:0:0:0:
499,276,246384,2,0,L|507:379,2,89.9999972534181,6|0|10,0:0|0:0|0:0,0:0:0:0:
488,186,247099,1,0,0:0:0:0:
483,141,247218,1,0,0:0:0:0:
478,96,247337,6,0,P|430:25|344:28,1,179.999994506836,6|10,0:0|0:0,0:0:0:0:
300,107,248052,1,2,0:0:0:0:
345,116,248171,1,2,0:0:0:0:
389,103,248290,2,0,P|402:147|448:179,1,89.9999972534181,6|2,0:0|0:0,0:0:0:0:
460,261,248767,2,0,P|494:290|506:333,1,89.9999972534181,10|2,0:0|0:0,0:0:0:0:
465,351,249124,1,2,0:0:0:0:
423,367,249243,6,0,L|219:383,1,179.999994506836,6|10,0:0|0:0,0:0:0:0:
159,351,249958,1,0,0:0:0:0:
124,324,250077,1,0,0:0:0:0:
89,297,250196,2,0,L|-14:305,2,89.9999972534181,6|0|10,0:0|0:0|0:0,0:0:0:0:
139,222,250911,1,0,0:0:0:0:
189,147,251149,6,0,L|278:140,1,89.9999972534181,6|2,0:0|0:0,0:0:0:0:
339,73,251626,1,10,0:0:0:0:
415,122,251864,1,2,0:0:0:0:
423,167,251983,1,2,0:0:0:0:
431,212,252102,2,0,P|483:281|453:362,1,179.999994506836,6|10,0:0|0:0,0:0:0:0:
395,294,252817,1,2,0:0:0:0:
339,226,253055,6,0,P|287:157|317:76,1,179.999994506836,6|10,0:0|0:0,0:0:0:0:
379,10,253770,1,0,0:0:0:0:
418,33,253889,1,0,0:0:0:0:
457,57,254008,2,0,P|508:126|479:207,1,179.999994506836,6|10,0:0|0:0,0:0:0:0:
415,272,254723,1,0,0:0:0:0:
377,249,254842,1,0,0:0:0:0:
339,226,254961,6,0,P|254:217|199:282,1,179.999994506836,6|10,0:0|0:0,0:0:0:0:
173,370,255676,1,2,0:0:0:0:
134,349,255795,1,2,0:0:0:0:
110,311,255914,2,0,P|106:267|126:228,1,89.9999972534181,6|2,0:0|0:0,0:0:0:0:
122,138,256391,2,0,P|144:98|138:54,1,89.9999972534181,10|2,0:0|0:0,0:0:0:0:
95,65,256748,1,2,0:0:0:0:
52,79,256867,6,0,L|259:119,1,179.999994506836,6|10,0:0|0:0,0:0:0:0:
311,75,257582,1,0,0:0:0:0:
356,84,257701,1,0,0:0:0:0:
401,93,257820,2,0,L|515:115,2,89.9999972534181,6|0|10,0:0|0:0|0:0,0:0:0:0:
339,159,258535,1,0,0:0:0:0:
277,226,258773,6,0,B|238:199|249:147|249:147|261:94|221:67,1,179.999994506836,6|10,0:0|0:0,0:0:0:0:
157,130,259488,1,2,0:0:0:0:
127,162,259607,1,2,0:0:0:0:
96,195,259726,2,0,P|79:236|87:279,1,89.9999972534181,14|10,0:0|0:0,0:0:0:0:
170,246,260202,2,0,P|184:289|218:317,1,89.9999972534181,6|10,0:0|0:0,0:0:0:0:
263,324,260560,1,10,0:0:0:0:
308,328,260679,6,0,L|421:169,1,179.999994506836,6|10,0:0|0:0,0:0:0:0:
341,128,261394,1,0,0:0:0:0:
306,102,261513,1,0,0:0:0:0:
271,76,261632,2,0,L|334:-13,2,89.9999972534181,6|0|10,0:0|0:0|0:0,0:0:0:0:
181,82,262347,1,0,0:0:0:0:
155,117,262466,1,0,0:0:0:0:
129,154,262585,6,0,P|119:199|134:240,1,89.9999972534181,6|2,0:0|0:0,0:0:0:0:
210,191,263061,1,10,0:0:0:0:
262,118,263300,1,2,0:0:0:0:
222,99,263419,1,2,0:0:0:0:
181,82,263538,2,0,P|141:64|97:70,1,89.9999972534181,6|2,0:0|0:0,0:0:0:0:
130,154,264014,2,0,P|87:167|57:200,1,89.9999972534181,10|2,0:0|0:0,0:0:0:0:
33,237,264372,1,2,0:0:0:0:
9,275,264491,6,0,L|168:388,1,179.999994506836,6|10,0:0|0:0,0:0:0:0:
240,345,265206,1,0,0:0:0:0:
281,326,265325,1,0,0:0:0:0:
322,306,265444,2,0,L|411:369,2,89.9999972534181,6|0|10,0:0|0:0|0:0,0:0:0:0:
322,216,266159,1,0,0:0:0:0:
287,189,266278,1,0,0:0:0:0:
252,162,266397,6,0,P|209:152|167:164,1,89.9999972534181,6|2,0:0|0:0,0:0:0:0:
123,243,266873,1,10,0:0:0:0:
212,255,267112,1,2,0:0:0:0:
257,252,267231,1,2,0:0:0:0:
300,239,267350,2,0,P|333:209|344:166,1,89.9999972534181,6|2,0:0|0:0,0:0:0:0:
253,162,267826,2,0,P|257:118|238:78,1,89.9999972534181,10|2,0:0|0:0,0:0:0:0:
167,132,268303,6,0,L|377:204,1,179.999994506836,6|10,0:0|0:0,0:0:0:0:
313,277,269018,1,0,0:0:0:0:
355,291,269137,1,0,0:0:0:0:
399,306,269256,2,0,L|506:343,2,89.9999972534181,6|0|10,0:0|0:0|0:0,0:0:0:0:
313,277,269971,1,0,0:0:0:0:
269,262,270090,1,0,0:0:0:0:
228,247,270209,6,0,P|202:212|198:168,1,89.9999972534181,6|2,0:0|0:0,0:0:0:0:
251,96,270685,1,8,0:0:0:0:
341,110,270924,1,2,0:0:0:0:
366,148,271043,1,2,0:0:0:0:
370,194,271162,2,0,P|355:236|319:263,1,89.9999972534181,6|2,0:0|0:0,0:0:0:0:
282,181,271638,2,0,P|243:202|199:200,1,89.9999972534181,10|2,0:0|0:0,0:0:0:0:
157,184,271996,1,2,0:0:0:0:
116,168,272115,6,0,L|254:290,1,179.999994506836,6|10,0:0|0:0,0:0:0:0:
331,245,272830,1,0,0:0:0:0:
364,277,272949,1,0,0:0:0:0:
397,308,273068,2,0,L|475:379,2,89.9999972534181,6|0|10,0:0|0:0|0:0,0:0:0:0:
331,245,273783,1,0,0:0:0:0:
298,214,273902,1,0,0:0:0:0:
265,181,274021,6,0,B|226:154|237:102|237:102|249:49|209:22,1,179.999994506836,6|10,0:0|0:0,0:0:0:0:
146,86,274736,1,2,0:0:0:0:
115,119,274855,1,2,0:0:0:0:
84,151,274974,2,0,P|67:192|75:235,1,89.9999972534181,14|10,0:0|0:0,0:0:0:0:
93,276,275331,1,10,0:0:0:0:
112,316,275450,1,6,0:0:0:0:
200,296,275689,1,10,0:0:0:0:
219,336,275808,1,10,0:0:0:0:
238,376,275927,6,0,P|283:373|324:335,2,89.9999972534181,6|0|10,0:0|0:0|0:0,0:0:0:0:
200,296,276642,1,0,0:0:0:0:
181,255,276761,1,0,0:0:0:0:
162,214,276880,2,0,L|74:251,2,89.9999972534181,6|0|10,0:0|0:0|0:0,0:0:0:0:
183,127,277595,1,0,0:0:0:0:
225,109,277714,1,0,0:0:0:0:
266,90,277833,6,0,P|352:94|395:168,1,179.999994506836,6|10,0:0|0:0,0:0:0:0:
412,258,278548,1,2,0:0:0:0:
370,276,278667,1,2,0:0:0:0:
328,292,278786,2,0,P|283:290|241:252,1,89.9999972534181,6|2,0:0|0:0,0:0:0:0:
160,258,279263,2,0,P|125:232|81:230,1,89.9999972534181,10|2,0:0|0:0,0:0:0:0:
87,274,279620,1,2,0:0:0:0:
94,319,279739,6,0,L|152:132,1,179.999994506836,6|10,0:0|0:0,0:0:0:0:
234,173,280454,1,0,0:0:0:0:
248,131,280573,1,0,0:0:0:0:
262,89,280692,2,0,L|290:-1,2,89.9999972534181,6|0|10,0:0|0:0|0:0,0:0:0:0:
234,173,281407,1,0,0:0:0:0:
151,206,281645,6,0,L|125:292,1,89.9999972534181,6|2,0:0|0:0,0:0:0:0:
182,362,282122,1,10,0:0:0:0:
265,327,282360,1,2,0:0:0:0:
277,285,282479,1,2,0:0:0:0:
288,241,282598,2,0,P|346:177|323:94,1,179.999994506836,6|10,0:0|0:0,0:0:0:0:
268,23,283313,1,2,0:0:0:0:
188,59,283551,6,0,P|130:123|152:207,1,179.999994506836,6|10,0:0|0:0,0:0:0:0:
217,144,284266,1,0,0:0:0:0:
259,163,284385,1,0,0:0:0:0:
301,182,284504,2,0,P|361:245|341:330,1,179.999994506836,6|10,0:0|0:0,0:0:0:0:
275,268,285219,1,0,0:0:0:0:
237,291,285338,1,0,0:0:0:0:
200,314,285457,6,0,P|114:323|59:256,1,179.999994506836,6|10,0:0|0:0,0:0:0:0:
93,173,286172,1,2,0:0:0:0:
130,199,286291,1,2,0:0:0:0:
148,240,286410,2,0,P|189:223|232:230,1,89.9999972534181,6|2,0:0|0:0,0:0:0:0:
306,177,286887,2,0,P|349:184|390:166,1,89.9999972534181,10|2,0:0|0:0,0:0:0:0:
414,128,287244,1,2,0:0:0:0:
439,91,287363,6,0,L|268:32,1,179.999994506836,6|10,0:0|0:0,0:0:0:0:
189,77,288078,1,0,0:0:0:0:
147,62,288197,1,0,0:0:0:0:
105,47,288316,2,0,L|-1:11,2,89.9999972534181,6|0|10,0:0|0:0|0:0,0:0:0:0:
189,77,289031,1,0,0:0:0:0:
273,112,289269,6,0,B|317:132|316:185|316:185|314:239|359:258,1,179.999994506836,6|10,0:0|0:0,0:0:0:0:
412,185,289984,1,2,0:0:0:0:
441,220,290103,1,2,0:0:0:0:
449,264,290222,2,0,P|438:307|404:337,1,89.9999972534181,14|10,0:0|0:0,0:0:0:0:
314,337,290698,2,0,P|281:309|268:266,1,89.9999972534181,6|10,0:0|0:0,0:0:0:0:
313,261,291056,1,10,0:0:0:0:
359,258,291175,6,0,L|207:353,1,179.999994506836,6|10,0:0|0:0,0:0:0:0:
156,279,291890,1,0,0:0:0:0:
118,303,292009,1,0,0:0:0:0:
80,327,292128,2,0,L|-15:385,2,89.9999972534181,6|0|10,0:0|0:0|0:0,0:0:0:0:
156,279,292843,1,0,0:0:0:0:
194,254,292962,1,0,0:0:0:0:
232,230,293081,6,0,P|254:190|250:146,1,89.9999972534181,6|2,0:0|0:0,0:0:0:0:
187,84,293557,1,10,0:0:0:0:
163,171,293796,1,2,0:0:0:0:
143,212,293915,1,2,0:0:0:0:
145,257,294034,2,0,P|167:295|206:317,1,89.9999972534181,6|2,0:0|0:0,0:0:0:0:
232,230,294510,2,0,P|273:244|317:236,1,89.9999972534181,10|2,0:0|0:0,0:0:0:0:
357,214,294868,1,2,0:0:0:0:
396,191,294987,6,0,L|249:86,1,179.999994506836,6|10,0:0|0:0,0:0:0:0:
167,124,295702,1,0,0:0:0:0:
126,143,295821,1,0,0:0:0:0:
85,163,295940,2,0,L|-4:100,2,89.9999972534181,6|0|10,0:0|0:0|0:0,0:0:0:0:
62,251,296655,1,0,0:0:0:0:
97,278,296774,1,0,0:0:0:0:
131,304,296893,6,0,P|175:314|218:302,1,89.9999972534181,6|2,0:0|0:0,0:0:0:0:
272,231,297369,1,10,0:0:0:0:
326,159,297608,1,2,0:0:0:0:
353,124,297727,1,2,0:0:0:0:
380,88,297846,2,0,P|422:75|466:85,1,89.9999972534181,6|2,0:0|0:0,0:0:0:0:
425,166,298322,2,0,P|465:183|492:219,1,89.9999972534181,10|2,0:0|0:0,0:0:0:0:
410,254,298799,6,0,L|200:326,1,179.999994506836,6|10,0:0|0:0,0:0:0:0:
172,254,299514,1,0,0:0:0:0:
130,268,299633,1,0,0:0:0:0:
86,283,299752,2,0,L|-21:320,2,89.9999972534181,6|0|10,0:0|0:0|0:0,0:0:0:0:
100,194,300467,1,0,0:0:0:0:
144,179,300586,1,0,0:0:0:0:
185,164,300705,6,0,P|211:129|215:85,1,89.9999972534181,6|2,0:0|0:0,0:0:0:0:
162,12,301181,1,8,0:0:0:0:
127,95,301419,1,2,0:0:0:0:
86,110,301538,1,2,0:0:0:0:
42,125,301657,2,0,P|15:161|12:206,1,89.9999972534181,6|2,0:0|0:0,0:0:0:0:
100,194,302133,2,0,P|103:238|129:274,1,89.9999972534181,10|2,0:0|0:0,0:0:0:0:
171,292,302491,1,2,0:0:0:0:
213,309,302610,6,0,L|360:205,1,179.999994506836,6|10,0:0|0:0,0:0:0:0:
431,149,303325,1,0,0:0:0:0:
432,105,303444,1,0,0:0:0:0:
433,61,303563,2,0,L|520:1,2,89.9999972534181,6|0|8,0:0|0:0|0:0,0:0:0:0:
355,15,304277,1,0,0:0:0:0:
296,83,304516,5,14,0:0:0:0:
258,108,304635,1,10,0:0:0:0:
224,191,304874,1,10,0:0:0:0:
186,216,304993,1,10,0:0:0:0:
150,298,305231,1,2,0:0:0:0:
112,323,305350,1,2,0:0:0:0:
74,347,305469,2,0,L|31:377,2,44.999998626709,14|10|10,0:0|0:0|0:0,0:0:0:0:
50,259,305946,2,0,L|-1:185,1,89.9999972534181,10|10,0:0|0:0,0:0:0:0:
26,149,306303,1,2,0:0:0:0:
53,113,306422,6,0,L|2:39,2,89.9999972534181,6|0|14,0:0|0:0|0:0,0:0:0:0:
