osu file format v14

[General]
AudioFilename: audio.mp3
AudioLeadIn: 0
PreviewTime: 80207
Countdown: 0
SampleSet: Drum
StackLeniency: 0.7
Mode: 0
LetterboxInBreaks: 0
WidescreenStoryboard: 1

[Editor]
Bookmarks: 15762,31962,47448,55072,62458,70082,75800,81518,89142,96765,104389,114157,131073,146559,154183,161568,169192,174910,180628,188252,195876,203500,229469,237807,245431
DistanceSpacing: 1
BeatDivisor: 4
GridSize: 4
TimelineZoom: 1

[Metadata]
Title:Desenchantee
TitleUnicode:Désenchantée
Artist:Mylene Farmer
ArtistUnicode:Mylène Farmer
Creator:AnimeStyle
Version:Collab Advanced
Source:
Tags:french pop 1991 kate ryan europop new wave l'autre... qiyana dyl-byl français
BeatmapID:3098622
BeatmapSetID:1488666

[Difficulty]
HPDrainRate:4
CircleSize:3.5
OverallDifficulty:4.5
ApproachRate:5.5
SliderMultiplier:1.35
SliderTickRate:1

[Events]
//Background and Video events
0,0,"179502.jpg",0,0
//Break Periods
2,112213,113032
2,211324,228344
//Storyboard Layer 0 (Background)
//Storyboard Layer 1 (Fail)
//Storyboard Layer 2 (Pass)
//Storyboard Layer 3 (Foreground)
//Storyboard Layer 4 (Overlay)
//Storyboard Sound Samples

[TimingPoints]
1467.28997043348,476.493011435832,4,3,1,40,1,0
81041,-100,4,3,1,50,0,0
81518,-100,4,3,2,60,0,1
112013,-100,4,3,1,40,0,0
114157,-100,4,3,1,30,0,0
115825,-100,4,3,1,40,0,0
180152,-100,4,3,1,50,0,0
180628,-100,4,3,2,60,0,1
211124,-100,4,3,2,40,0,0
229469,-100,4,3,2,60,0,0
244478,-100,4,3,1,60,0,0
245431,-100,4,3,2,60,0,1
274974,-100,4,3,1,60,0,1
275450,-100,4,3,2,50,0,1
275569,-100,4,3,1,50,0,1
275808,-100,4,3,1,50,0,0
275927,-100,4,3,2,60,0,1
291174,-100,4,3,2,56,0,1
292128,-100,4,3,2,55,0,1
293081,-100,4,3,2,54,0,1
294033,-100,4,3,2,53,0,1
294986,-100,4,3,2,52,0,1
295939,-100,4,3,2,51,0,1
296892,-100,4,3,2,50,0,1
297845,-100,4,3,2,49,0,1
298798,-100,4,3,2,48,0,1
299751,-100,4,3,2,47,0,1
300704,-100,4,3,2,46,0,1
301657,-100,4,3,2,45,0,1
302610,-100,4,3,2,44,0,1
303563,-100,4,3,2,43,0,1
304516,-100,4,3,2,42,0,1
305469,-100,4,3,2,41,0,1
306422,-100,4,3,2,40,0,0

[Colours]
Combo1 : 191,191,191
Combo2 : 255,128,0
Combo3 : 89,89,89
Combo4 : 128,64,64

[HitObjects]
446,336,15762,6,0,L|504:361,6,33.75,2|2|2|2|10|2|2,0:0|0:0|0:0|0:0|0:0|0:0|0:0,0:0:0:0:
369,308,16715,5,4,0:0:0:0:
346,147,17191,1,8,0:0:0:0:
269,119,17429,1,0,0:0:0:0:
261,37,17668,2,0,P|203:68|188:132,1,135,4|8,0:0|0:0,0:0:0:0:
239,195,18382,1,0,0:0:0:0:
288,257,18621,6,0,P|274:321|216:352,1,135,4|8,0:0|0:0,0:0:0:0:
133,212,19574,2,0,L|56:184,1,67.5,4|0,0:0|0:0,0:0:0:0:
75,108,20050,2,0,L|152:136,1,67.5,8|0,0:0|0:0,0:0:0:0:
206,175,20527,5,4,0:0:0:0:
228,335,21003,2,0,L|305:363,1,67.5,8|0,0:0|0:0,0:0:0:0:
364,323,21479,2,0,L|519:379,1,135,4|8,0:0|0:0,0:0:0:0:
492,287,22194,1,0,0:0:0:0:
415,260,22432,6,0,L|260:204,1,135,4|8,0:0|0:0,0:0:0:0:
229,62,23385,2,0,L|165:38,1,67.5,4|0,0:0|0:0,0:0:0:0:
161,120,23861,2,0,L|224:143,1,67.5,8|0,0:0|0:0,0:0:0:0:
219,224,24338,6,0,L|163:379,1,135,4|8,0:0|0:0,0:0:0:0:
11,359,25291,2,0,L|67:204,1,135,4|8,0:0|0:0,0:0:0:0:
21,158,26006,1,0,0:0:0:0:
96,128,26244,6,0,L|251:184,1,135,4|8,0:0|0:0,0:0:0:0:
341,284,27197,2,0,P|387:237|382:172,1,135,4|8,0:0|0:0,0:0:0:0:
312,130,27912,1,0,0:0:0:0:
232,117,28150,6,0,P|185:163|190:228,1,135,4|8,0:0|0:0,0:0:0:0:
340,284,29103,2,0,P|387:330|452:325,1,135,4|8,0:0|0:0,0:0:0:0:
496,257,29818,1,0,0:0:0:0:
506,176,30056,6,0,P|443:194|416:254,1,135,4|8,0:0|0:0,0:0:0:0:
266,318,31009,2,0,L|259:366,6,33.75,6|2|2|2|10|2|2,0:0|0:0|0:0|0:0|0:0|0:0|0:0,0:0:0:0:
276,237,31962,5,4,0:0:0:0:
119,196,32439,1,8,0:0:0:0:
132,116,32677,1,0,0:0:0:0:
82,51,32915,2,0,P|146:34|201:71,1,135,4|8,0:0|0:0,0:0:0:0:
249,136,33630,1,0,0:0:0:0:
299,199,33868,6,0,P|353:235|417:219,1,135,4|8,0:0|0:0,0:0:0:0:
459,62,34821,2,0,L|374:66,1,67.5,4|0,0:0|0:0,0:0:0:0:
310,69,35298,2,0,L|225:73,1,67.5,8|0,0:0|0:0,0:0:0:0:
161,77,35774,5,4,0:0:0:0:
4,85,36251,2,0,L|8:169,1,67.5,8|0,0:0|0:0,0:0:0:0:
59,213,36727,2,0,B|113:227|113:227|191:206,1,135,4|8,0:0|0:0,0:0:0:0:
264,174,37442,1,0,0:0:0:0:
335,212,37680,6,0,P|339:146|291:98,1,135,4|8,0:0|0:0,0:0:0:0:
261,258,38633,2,0,P|281:284|316:297,1,67.5,4|0,0:0|0:0,0:0:0:0:
374,349,39110,2,0,P|407:344|435:320,1,67.5,8|0,0:0|0:0,0:0:0:0:
488,264,39586,6,0,L|485:122,1,135,4|8,0:0|0:0,0:0:0:0:
342,52,40539,2,0,L|339:186,1,135,4|8,0:0|0:0,0:0:0:0:
271,231,41254,1,0,0:0:0:0:
212,175,41492,6,0,B|175:154|140:176|151:179|118:198|80:177,1,135,4|8,0:0|0:0,0:0:0:0:
10,323,42445,2,0,B|46:302|81:324|70:327|103:346|141:325,1,135,4|8,0:0|0:0,0:0:0:0:
202,276,43160,1,0,0:0:0:0:
268,321,43398,6,0,P|280:256|239:205,1,135,4|8,0:0|0:0,0:0:0:0:
98,125,44351,2,0,P|84:60|125:9,1,135,4|8,0:0|0:0,0:0:0:0:
165,80,45066,1,0,0:0:0:0:
242,55,45304,6,0,L|392:69,1,135,4|8,0:0|0:0,0:0:0:0:
453,210,46257,2,0,L|518:216,6,33.75,6|2|2|10|10|2|2,0:0|0:0|0:0|0:0|0:0|0:0|0:0,0:0:0:0:
384,253,47210,5,6,0:0:0:0:
315,295,47448,2,0,L|180:282,1,135,0|0,0:0|0:0,0:0:0:0:
183,201,48163,2,0,L|233:129,1,67.5,4|0,0:0|0:0,0:0:0:0:
302,154,48640,2,0,L|338:233,1,67.5,8|0,0:0|0:0,0:0:0:0:
457,314,49354,6,0,L|469:179,1,135,0|0,0:0|0:0,0:0:0:0:
392,155,50069,2,0,L|312:191,1,67.5,4|0,0:0|0:0,0:0:0:0:
322,264,50546,2,0,L|393:314,1,67.5,8|0,0:0|0:0,0:0:0:0:
457,314,51022,6,0,L|464:227,2,67.5,4|0|8,0:0|0:0|0:0,0:0:0:0:
299,351,51975,2,0,P|234:365|183:324,1,135,4|8,0:0|0:0,0:0:0:0:
124,268,52690,1,0,0:0:0:0:
78,201,52928,6,0,P|143:187|194:228,1,135,4|8,0:0|0:0,0:0:0:0:
299,351,53881,2,0,L|366:357,1,67.5,4|0,0:0|0:0,0:0:0:0:
416,293,54358,1,8,0:0:0:0:
466,229,54596,1,0,0:0:0:0:
453,67,55072,6,0,P|387:57|335:97,1,135,0|0,0:0|0:0,0:0:0:0:
278,153,55787,2,0,L|189:149,1,67.5,4|0,0:0|0:0,0:0:0:0:
159,87,56263,2,0,L|163:-2,1,67.5,8|0,0:0|0:0,0:0:0:0:
13,84,56978,6,0,L|19:218,1,135,0|0,0:0|0:0,0:0:0:0:
79,275,57693,2,0,B|111:281|111:281|142:268,1,67.5,4|0,0:0|0:0,0:0:0:0:
215,233,58169,2,0,B|247:226|247:226|278:239,1,67.5,8|0,0:0|0:0,0:0:0:0:
356,213,58646,6,0,P|362:245|352:278,2,67.5,4|0|8,0:0|0:0|0:0,0:0:0:0:
281,68,59599,2,0,L|415:85,1,135,4|8,0:0|0:0,0:0:0:0:
456,154,60314,1,0,0:0:0:0:
503,219,60552,6,0,B|527:261|527:261|499:354,1,135,4|8,0:0|0:0,0:0:0:0:
331,334,61505,2,0,P|305:353|272:355,1,67.5,4|0,0:0|0:0,0:0:0:0:
205,310,61981,1,8,0:0:0:0:
138,263,62220,1,0,0:0:0:0:
70,216,62458,6,0,P|58:280|96:333,1,135,4|8,0:0|0:0,0:0:0:0:
138,263,63173,1,0,0:0:0:0:
144,182,63411,2,0,P|157:117|119:64,1,135,4|8,0:0|0:0,0:0:0:0:
79,135,64126,1,0,0:0:0:0:
70,215,64364,6,0,P|118:259|184:254,1,135,4|8,0:0|0:0,0:0:0:0:
321,168,65317,2,0,P|386:162|435:206,1,135,4|8,0:0|0:0,0:0:0:0:
426,287,66032,1,0,0:0:0:0:
345,300,66270,6,0,P|345:267|361:238,2,67.5,4|0|8,0:0|0:0|0:0,0:0:0:0:
189,347,67223,2,0,P|124:352|75:308,1,135,4|8,0:0|0:0,0:0:0:0:
150,277,67938,1,0,0:0:0:0:
229,278,68176,6,0,P|256:298|268:329,1,67.5,4|0,0:0|0:0,0:0:0:0:
189,347,68652,1,8,0:0:0:0:
80,226,69129,2,0,P|53:205|41:174,1,67.5,4|0,0:0|0:0,0:0:0:0:
66,96,69605,1,8,0:0:0:0:
145,80,69844,1,8,0:0:0:0:
121,157,70082,6,0,L|130:299,1,135,6|10,0:0|0:0,0:0:0:0:
289,317,71035,2,0,L|284:384,2,67.5,6|0|10,0:0|0:0|0:0,0:0:0:0:
328,246,71750,1,0,0:0:0:0:
401,210,71988,6,0,P|350:167|285:175,1,135,6|10,0:0|0:0,0:0:0:0:
183,300,72941,2,0,L|105:299,1,67.5,6|0,0:0|0:0,0:0:0:0:
74,230,73417,2,0,L|75:152,1,67.5,10|0,0:0|0:0,0:0:0:0:
114,91,73894,6,0,L|113:13,2,67.5,6|0|10,0:0|0:0|0:0,0:0:0:0:
258,165,74847,2,0,P|319:184|380:119,1,135,6|10,0:0|0:0,0:0:0:0:
422,79,75561,1,0,0:0:0:0:
452,153,75800,6,0,P|491:206|473:268,1,135,6|10,0:0|0:0,0:0:0:0:
314,236,76753,2,0,L|249:273,1,67.5,6|0,0:0|0:0,0:0:0:0:
218,341,77229,2,0,L|153:378,1,67.5,10|0,0:0|0:0,0:0:0:0:
82,348,77706,6,0,L|5:213,1,135,4|8,0:0|0:0,0:0:0:0:
73,79,78659,2,0,L|208:2,1,135,4|8,0:0|0:0,0:0:0:0:
348,36,79612,6,0,B|378:57|380:93|380:93|382:128|412:150,1,135,4|8,0:0|0:0,0:0:0:0:
459,216,80326,1,0,0:0:0:0:
493,142,80565,2,0,P|483:109|461:85,1,67.5,12|8,0:0|0:0,0:0:0:0:
412,150,81041,2,0,L|374:196,2,33.75,8|8|10,0:0|0:0|0:0,0:0:0:0:
379,75,81518,38,0,P|388:44|416:17,2,67.5,4|0|10,0:0|0:0|0:0,0:0:0:0:
238,155,82471,2,0,P|261:178|271:210,1,67.5,4|0,0:0|0:0,0:0:0:0:
234,283,82947,2,0,P|201:291|169:283,1,67.5,8|0,0:0|0:0,0:0:0:0:
113,343,83424,6,0,P|87:280|114:221,1,135,4|8,0:0|0:0,0:0:0:0:
61,69,84377,2,0,P|105:69|138:92,1,67.5,4|0,0:0|0:0,0:0:0:0:
193,122,84853,2,0,P|237:121|270:98,1,67.5,8|0,0:0|0:0,0:0:0:0:
323,64,85330,6,0,L|481:69,1,135,4|8,0:0|0:0,0:0:0:0:
435,228,86283,2,0,L|502:225,2,67.5,4|0|8,0:0|0:0|0:0,0:0:0:0:
368,273,86997,1,0,0:0:0:0:
299,316,87236,6,0,L|211:319,1,67.5,4|0,0:0|0:0,0:0:0:0:
82,254,87950,1,0,0:0:0:0:
7,222,88189,2,0,P|5:287|54:330,1,135,4|8,0:0|0:0,0:0:0:0:
134,318,88903,1,0,0:0:0:0:
162,241,89142,6,0,L|160:97,1,135,4|8,0:0|0:0,0:0:0:0:
213,45,89856,1,0,0:0:0:0:
283,85,90094,2,0,P|348:122|415:93,1,135,4|8,0:0|0:0,0:0:0:0:
468,59,90809,1,0,0:0:0:0:
475,138,91047,6,0,P|511:193|496:257,1,135,4|8,0:0|0:0,0:0:0:0:
337,225,92000,2,0,P|309:244|276:249,1,67.5,4|0,0:0|0:0,0:0:0:0:
208,206,92477,2,0,P|174:211|147:230,1,67.5,8|0,0:0|0:0,0:0:0:0:
206,286,92953,6,0,L|293:148,1,135,4|8,0:0|0:0,0:0:0:0:
432,123,93906,2,0,L|474:56,2,67.5,4|0|8,0:0|0:0|0:0,0:0:0:0:
354,147,94621,1,0,0:0:0:0:
414,200,94859,6,0,B|417:236|447:256|447:256|476:275|480:312,1,135,4|8,0:0|0:0,0:0:0:0:
327,364,95812,2,0,P|296:377|262:375,1,67.5,12|8,0:0|0:0,0:0:0:0:
281,296,96289,2,0,P|251:280|231:253,1,67.5,4|10,0:0|0:0,0:0:0:0:
200,178,96765,6,0,L|209:39,1,135,4|10,0:0|0:0,0:0:0:0:
50,78,97718,2,0,L|45:145,1,67.5,4|0,0:0|0:0,0:0:0:0:
13,220,98195,2,0,L|17:287,1,67.5,8|0,0:0|0:0,0:0:0:0:
26,367,98671,5,4,0:0:0:0:
153,266,99148,1,8,0:0:0:0:
284,359,99624,2,0,P|324:377|363:370,1,67.5,4|0,0:0|0:0,0:0:0:0:
405,319,100101,2,0,P|448:306|470:280,1,67.5,8|0,0:0|0:0,0:0:0:0:
510,224,100577,6,0,L|508:83,1,135,4|8,0:0|0:0,0:0:0:0:
347,66,101530,2,0,L|348:-4,2,67.5,4|0|8,0:0|0:0|0:0,0:0:0:0:
281,113,102245,1,0,0:0:0:0:
218,61,102483,6,0,P|175:51|137:62,1,67.5,4|0,0:0|0:0,0:0:0:0:
60,188,103198,1,0,0:0:0:0:
124,237,103436,2,0,P|167:247|205:236,1,67.5,4|0,0:0|0:0,0:0:0:0:
245,300,103913,2,0,P|240:333|249:365,1,67.5,8|0,0:0|0:0,0:0:0:0:
321,329,104389,6,0,L|454:273,1,135,4|8,0:0|0:0,0:0:0:0:
449,114,105342,2,0,L|527:81,2,67.5,4|0|8,0:0|0:0|0:0,0:0:0:0:
373,84,106057,1,0,0:0:0:0:
296,54,106295,6,0,P|291:87|300:119,1,67.5,4|0,0:0|0:0,0:0:0:0:
407,241,107010,1,0,0:0:0:0:
475,282,107248,2,0,P|452:306|421:319,1,67.5,4|0,0:0|0:0,0:0:0:0:
345,292,107725,2,0,P|329:262|327:228,1,67.5,8|0,0:0|0:0,0:0:0:0:
407,241,108201,6,0,L|306:150,1,135,4|8,0:0|0:0,0:0:0:0:
144,148,109154,2,0,L|73:84,2,67.5,4|0|8,0:0|0:0|0:0,0:0:0:0:
146,229,109869,1,0,0:0:0:0:
148,309,110107,6,0,L|198:354,1,67.5,4|0,0:0|0:0,0:0:0:0:
356,321,110822,1,0,0:0:0:0:
432,300,111060,2,0,P|416:270|390:249,1,67.5,4|8,0:0|0:0,0:0:0:0:
310,255,111537,2,0,P|286:279|275:311,1,67.5,8|0,0:0|0:0,0:0:0:0:
356,321,112013,5,6,0:0:0:0:
170,32,114157,5,2,0:0:0:0:
247,174,114634,1,2,0:0:0:0:
179,321,115110,1,2,0:0:0:0:
36,122,115825,37,4,0:0:0:0:
170,32,116301,1,4,0:0:0:0:
242,68,116539,1,0,0:0:0:0:
297,9,116778,2,0,P|324:68|295:129,1,135,4|4,0:0|0:0,0:0:0:0:
236,182,117492,1,0,0:0:0:0:
312,210,117731,6,0,L|451:205,1,135,4|4,0:0|0:0,0:0:0:0:
511,353,118684,2,0,L|440:355,1,67.5,4|0,0:0|0:0,0:0:0:0:
366,330,119160,2,0,L|298:324,1,67.5,4|0,0:0|0:0,0:0:0:0:
218,309,119637,5,4,0:0:0:0:
75,231,120113,2,0,P|78:195|93:167,1,67.5,4|0,0:0|0:0,0:0:0:0:
32,113,120590,2,0,P|95:85|163:124,1,135,4|4,0:0|0:0,0:0:0:0:
214,163,121304,1,0,0:0:0:0:
272,220,121543,6,0,P|332:244|391:216,1,135,4|4,0:0|0:0,0:0:0:0:
449,65,122495,2,0,L|371:66,1,67.5,4|0,0:0|0:0,0:0:0:0:
300,64,122972,2,0,L|229:64,1,67.5,4|0,0:0|0:0,0:0:0:0:
175,6,123448,6,0,P|149:62|179:127,1,135,4|4,0:0|0:0,0:0:0:0:
293,237,124401,2,0,P|319:298|292:356,1,135,4|4,0:0|0:0,0:0:0:0:
237,296,125116,1,0,0:0:0:0:
180,237,125354,6,0,L|31:246,1,135,4|4,0:0|0:0,0:0:0:0:
1,89,126307,2,0,L|147:80,1,135,4|4,0:0|0:0,0:0:0:0:
210,112,127022,1,0,0:0:0:0:
278,155,127260,6,0,P|342:159|346:93,1,135,4|4,0:0|0:0,0:0:0:0:
501,38,128213,2,0,L|497:181,1,135,4|4,0:0|0:0,0:0:0:0:
441,232,128928,1,0,0:0:0:0:
468,308,129166,6,0,P|419:310|361:240,1,135,4|4,0:0|0:0,0:0:0:0:
347,89,130120,2,0,L|382:53,6,33.75,6|2|2|2|10|2|2,0:0|0:0|0:0|0:0|0:0|0:0|0:0,0:0:0:0:
291,147,131072,5,4,0:0:0:0:
129,131,131549,1,8,0:0:0:0:
73,189,131787,1,0,0:0:0:0:
17,247,132025,2,0,B|77:278|77:278|134:242,1,135,4|8,0:0|0:0,0:0:0:0:
215,246,132740,1,0,0:0:0:0:
296,248,132979,6,0,B|353:212|353:212|413:243,1,135,4|8,0:0|0:0,0:0:0:0:
511,114,133932,2,0,L|450:83,1,67.5,4|0,0:0|0:0,0:0:0:0:
371,100,134408,2,0,L|310:69,1,67.5,8|0,0:0|0:0,0:0:0:0:
231,88,134884,5,4,0:0:0:0:
74,131,135361,2,0,L|43:191,1,67.5,8|0,0:0|0:0,0:0:0:0:
55,271,135838,2,0,B|175:331,1,135,4|8,0:0|0:0,0:0:0:0:
246,291,136552,1,0,0:0:0:0:
316,251,136791,6,0,B|448:317,1,135,4|8,0:0|0:0,0:0:0:0:
504,164,137743,2,0,P|515:132|511:98,1,67.5,4|0,0:0|0:0,0:0:0:0:
433,123,138220,2,0,P|411:97|380:84,1,67.5,8|0,0:0|0:0,0:0:0:0:
362,163,138697,6,0,B|249:237,1,135,4|8,0:0|0:0,0:0:0:0:
95,183,139650,2,0,B|208:109,1,135,4|8,0:0|0:0,0:0:0:0:
285,135,140364,1,0,0:0:0:0:
362,163,140603,6,0,B|436:275,1,135,4|8,0:0|0:0,0:0:0:0:
426,113,141556,2,0,P|385:84|299:111,1,135,4|8,0:0|0:0,0:0:0:0:
252,163,142270,1,0,0:0:0:0:
198,224,142509,6,0,P|157:252|71:225,1,135,4|8,0:0|0:0,0:0:0:0:
214,145,143462,2,0,P|267:182|275:247,1,135,4|8,0:0|0:0,0:0:0:0:
198,224,144176,1,0,0:0:0:0:
137,170,144415,6,0,P|142:104|195:65,1,135,4|8,0:0|0:0,0:0:0:0:
353,96,145368,2,0,L|356:49,6,33.75,6|2|2|10|10|2|2,0:0|0:0|0:0|0:0|0:0|0:0|0:0,0:0:0:0:
390,168,146321,5,6,0:0:0:0:
435,235,146559,2,0,L|429:386,1,135,0|0,0:0|0:0,0:0:0:0:
350,353,147273,2,0,P|318:328|278:331,1,67.5,4|0,0:0|0:0,0:0:0:0:
215,352,147750,2,0,P|183:377|143:374,1,67.5,8|0,0:0|0:0,0:0:0:0:
26,283,148465,6,0,L|30:136,1,135,0|0,0:0|0:0,0:0:0:0:
79,84,149179,2,0,L|76:16,2,67.5,4|0|8,0:0|0:0|0:0,0:0:0:0:
147,127,149894,1,0,0:0:0:0:
206,72,150132,6,0,P|253:42|329:61,1,135,4|8,0:0|0:0,0:0:0:0:
416,194,151086,2,0,P|358:225|295:207,1,135,4|8,0:0|0:0,0:0:0:0:
224,166,151800,1,0,0:0:0:0:
152,205,152039,6,0,L|155:346,1,135,4|8,0:0|0:0,0:0:0:0:
314,364,152991,2,0,B|346:373|346:373|385:359,1,67.5,4|0,0:0|0:0,0:0:0:0:
424,294,153468,1,8,0:0:0:0:
343,289,153706,1,0,0:0:0:0:
196,218,154183,6,0,L|53:208,1,135,0|0,0:0|0:0,0:0:0:0:
0,154,154898,2,0,L|7:56,1,67.5,4|0,0:0|0:0,0:0:0:0:
68,36,155374,2,0,L|166:43,1,67.5,8|0,0:0|0:0,0:0:0:0:
269,132,156089,6,0,L|412:142,1,135,0|0,0:0|0:0,0:0:0:0:
465,196,156804,2,0,L|458:294,1,67.5,4|0,0:0|0:0,0:0:0:0:
397,314,157280,2,0,L|299:307,1,67.5,8|0,0:0|0:0,0:0:0:0:
270,364,157756,6,0,L|172:357,2,67.5,4|0|8,0:0|0:0|0:0,0:0:0:0:
368,234,158709,2,0,P|409:183|403:118,1,135,4|8,0:0|0:0,0:0:0:0:
337,71,159425,1,0,0:0:0:0:
256,71,159662,6,0,P|214:122|220:187,1,135,4|8,0:0|0:0,0:0:0:0:
331,305,160615,2,0,L|398:309,1,67.5,4|8,0:0|0:0,0:0:0:0:
433,236,161093,1,8,0:0:0:0:
467,162,161331,1,0,0:0:0:0:
500,88,161568,6,0,L|365:78,1,135,4|8,0:0|0:0,0:0:0:0:
284,72,162283,1,0,0:0:0:0:
232,9,162521,2,0,P|202:69|227:130,1,135,4|8,0:0|0:0,0:0:0:0:
284,186,163236,1,0,0:0:0:0:
347,235,163474,6,0,L|482:245,1,135,4|8,0:0|0:0,0:0:0:0:
400,384,164427,2,0,L|265:374,1,135,4|8,0:0|0:0,0:0:0:0:
204,320,165142,1,0,0:0:0:0:
143,265,165380,6,0,P|111:239|55:236,2,67.5,4|0|8,0:0|0:0|0:0,0:0:0:0:
305,261,166333,2,0,P|368:239|394:178,1,135,4|8,0:0|0:0,0:0:0:0:
380,100,167048,1,0,0:0:0:0:
301,79,167286,6,0,P|237:100|211:161,1,135,4|8,0:0|0:0,0:0:0:0:
184,318,168239,2,0,P|150:314|124:294,1,67.5,4|0,0:0|0:0,0:0:0:0:
78,227,168715,1,8,0:0:0:0:
73,145,168954,1,0,0:0:0:0:
111,73,169192,6,0,L|260:37,1,135,6|10,0:0|0:0,0:0:0:0:
402,63,170145,2,0,L|467:47,2,67.5,6|0|10,0:0|0:0|0:0,0:0:0:0:
380,141,170860,1,0,0:0:0:0:
358,219,171098,6,0,B|291:235|291:235|268:307,1,135,6|10,0:0|0:0,0:0:0:0:
112,335,172051,2,0,L|46:350,1,67.5,6|0,0:0|0:0,0:0:0:0:
61,271,172528,2,0,L|14:222,1,67.5,10|0,0:0|0:0,0:0:0:0:
91,196,173004,6,0,L|110:131,2,67.5,6|0|10,0:0|0:0|0:0,0:0:0:0:
199,316,173957,2,0,L|179:380,2,67.5,6|0|10,0:0|0:0|0:0,0:0:0:0:
298,188,174910,6,0,B|344:32,1,135,6|10,0:0|0:0,0:0:0:0:
496,33,175863,2,0,L|476:97,1,67.5,6|0,0:0|0:0,0:0:0:0:
501,174,176340,2,0,L|481:238,1,67.5,10|0,0:0|0:0,0:0:0:0:
451,313,176816,6,0,P|448:241|384:200,1,135,4|8,0:0|0:0,0:0:0:0:
416,42,177769,2,0,P|419:114|483:155,1,135,4|8,0:0|0:0,0:0:0:0:
451,313,178722,6,0,B|421:335|386:325|386:325|352:316|322:338,1,135,4|8,0:0|0:0,0:0:0:0:
255,382,179436,1,0,0:0:0:0:
182,338,179675,2,0,P|171:301|177:265,1,67.5,12|8,0:0|0:0,0:0:0:0:
234,218,180151,2,0,L|279:202,2,33.75,8|8|8,0:0|0:0|0:0,0:0:0:0:
156,193,180628,38,0,P|134:162|127:127,2,67.5,6|0|10,0:0|0:0|0:0,0:0:0:0:
266,313,181581,2,0,P|289:345|296:380,2,67.5,6|0|10,0:0|0:0|0:0,0:0:0:0:
247,234,182295,1,0,0:0:0:0:
324,258,182534,6,0,L|472:253,1,135,6|10,0:0|0:0,0:0:0:0:
511,99,183487,2,0,B|519:68|519:68|509:34,1,67.5,6|2,0:0|0:0,0:0:0:0:
431,11,183963,2,0,P|395:38|364:38,1,67.5,10|2,0:0|0:0,0:0:0:0:
295,18,184440,6,0,L|147:23,1,135,6|10,0:0|0:0,0:0:0:0:
67,155,185393,2,0,L|-16:153,2,67.5,6|0|10,0:0|0:0|0:0,0:0:0:0:
119,216,186107,1,0,0:0:0:0:
50,259,186346,6,0,P|96:294|176:273,1,135,6|10,0:0|0:0,0:0:0:0:
231,228,187060,1,2,0:0:0:0:
291,173,187299,2,0,B|367:154|339:207|428:184,1,135,6|10,0:0|0:0,0:0:0:0:
391,110,188013,1,2,0:0:0:0:
471,123,188252,6,0,B|486:156|469:189|469:189|453:220|468:254,1,135,6|10,0:0|0:0,0:0:0:0:
421,318,188966,1,0,0:0:0:0:
372,382,189205,2,0,B|356:348|373:315|373:315|389:284|374:251,1,135,6|10,0:0|0:0,0:0:0:0:
422,186,189919,1,0,0:0:0:0:
469,119,190158,6,0,B|431:112|404:138|404:138|379:162|344:157,1,135,6|10,0:0|0:0,0:0:0:0:
183,132,191111,2,0,P|178:165|188:197,1,67.5,6|2,0:0|0:0,0:0:0:0:
264,225,191588,2,0,P|269:191|259:159,1,67.5,10|2,0:0|0:0,0:0:0:0:
247,80,192063,6,0,L|99:94,1,135,6|10,0:0|0:0,0:0:0:0:
66,248,193016,2,0,L|-29:257,2,67.5,6|0|10,0:0|0:0|0:0,0:0:0:0:
136,288,193731,1,0,0:0:0:0:
206,328,193970,6,0,B|226:296|213:261|213:261|201:228|219:198,1,135,6|10,0:0|0:0,0:0:0:0:
364,127,194923,2,0,P|374:95|369:61,1,67.5,14|10,0:0|0:0,0:0:0:0:
292,88,195399,2,0,P|276:58|249:38,1,67.5,6|10,0:0|0:0,0:0:0:0:
215,111,195875,6,0,L|65:108,1,135,6|10,0:0|0:0,0:0:0:0:
66,269,196828,2,0,L|-4:271,2,67.5,6|0|10,0:0|0:0|0:0,0:0:0:0:
138,304,197543,1,0,0:0:0:0:
207,345,197781,6,0,L|278:348,1,67.5,6|2,0:0|0:0,0:0:0:0:
436,356,198496,1,2,0:0:0:0:
497,302,198734,2,0,P|500:266|471:228,1,67.5,6|2,0:0|0:0,0:0:0:0:
434,175,199211,2,0,P|418:145|422:112,1,67.5,10|2,0:0|0:0,0:0:0:0:
491,70,199687,6,0,P|426:31|364:54,1,135,6|10,0:0|0:0,0:0:0:0:
236,133,200640,2,0,L|163:126,2,67.5,6|0|10,0:0|0:0|0:0,0:0:0:0:
285,197,201355,1,0,0:0:0:0:
232,258,201593,6,0,L|225:332,1,67.5,6|2,0:0|0:0,0:0:0:0:
66,357,202308,1,2,0:0:0:0:
17,292,202546,2,0,P|7:260|16:227,1,67.5,6|2,0:0|0:0,0:0:0:0:
54,156,203023,2,0,P|63:124|54:91,1,67.5,10|2,0:0|0:0,0:0:0:0:
26,15,203499,6,0,L|140:88,1,135,6|10,0:0|0:0,0:0:0:0:
214,232,204453,2,0,L|275:271,2,67.5,6|0|10,0:0|0:0|0:0,0:0:0:0:
177,159,205167,1,0,0:0:0:0:
140,88,205406,6,0,L|176:31,1,67.5,6|2,0:0|0:0,0:0:0:0:
338,32,206120,1,2,0:0:0:0:
417,44,206359,2,0,P|407:75|383:98,1,67.5,6|2,0:0|0:0,0:0:0:0:
302,103,206835,2,0,P|277:126|266:158,1,67.5,10|2,0:0|0:0,0:0:0:0:
347,170,207312,6,0,L|223:226,1,135,6|10,0:0|0:0,0:0:0:0:
126,356,208265,2,0,L|64:384,2,67.5,6|0|10,0:0|0:0|0:0,0:0:0:0:
178,293,208979,1,0,0:0:0:0:
225,227,209218,6,0,L|285:197,1,67.5,6|2,0:0|0:0,0:0:0:0:
383,68,209932,1,2,0:0:0:0:
436,6,210171,2,0,P|457:31|465:63,1,67.5,6|10,0:0|0:0,0:0:0:0:
429,136,210647,2,0,P|436:168|458:193,1,67.5,10|2,0:0|0:0,0:0:0:0:
511,132,211124,5,6,0:0:0:0:
204,112,229469,6,0,L|164:112,2,33.75,8|8|12,0:0|0:0|0:0,0:0:0:0:
350,42,230183,38,0,L|494:47,1,135,6|10,0:0|0:0,0:0:0:0:
386,175,231136,2,0,P|376:212|391:246,1,67.5,6|0,0:0|0:0,0:0:0:0:
438,300,231613,1,10,0:0:0:0:
396,369,231851,1,0,0:0:0:0:
317,351,232089,6,0,B|238:338|262:383|182:358,1,135,6|10,0:0|0:0,0:0:0:0:
48,272,233042,2,0,P|40:241|53:200,1,67.5,6|0,0:0|0:0,0:0:0:0:
114,159,233519,1,10,0:0:0:0:
188,190,233757,1,2,0:0:0:0:
124,240,233995,37,6,0:0:0:0:
26,110,234472,1,10,0:0:0:0:
156,12,234948,1,6,0:0:0:0:
254,142,235425,1,10,0:0:0:0:
380,41,235901,6,0,L|431:47,6,33.75,6|2|2|2|10|2|2,0:0|0:0|0:0|0:0|0:0|0:0|0:0,0:0:0:0:
325,100,236854,2,0,L|281:105,6,33.75,6|2|2|2|10|2|2,0:0|0:0|0:0|0:0|0:0|0:0|0:0,0:0:0:0:
392,144,237807,38,0,P|458:143|501:193,1,135,6|10,0:0|0:0,0:0:0:0:
385,307,238760,2,0,P|357:325|324:327,1,67.5,6|0,0:0|0:0,0:0:0:0:
250,296,239237,1,10,0:0:0:0:
176,265,239475,1,0,0:0:0:0:
102,233,239713,6,0,P|81:171|113:115,1,135,6|10,0:0|0:0,0:0:0:0:
176,265,240666,2,0,P|191:294|191:327,1,67.5,6|0,0:0|0:0,0:0:0:0:
112,314,241143,1,10,0:0:0:0:
38,283,241381,1,2,0:0:0:0:
102,234,241619,37,6,0:0:0:0:
225,129,242096,1,14,0:0:0:0:
341,241,242572,1,6,0:0:0:0:
219,345,243049,1,14,0:0:0:0:
102,234,243525,6,0,L|103:193,6,33.75,6|2|10|10|6|2|10,0:0|0:0|0:0|0:0|0:0|0:0|0:0,0:0:0:0:
53,299,244478,2,0,L|12:297,6,33.75,14|2|10|10|14|10|10,0:0|0:0|0:0|0:0|0:0|0:0|0:0,0:0:0:0:
133,308,245431,38,0,P|123:341|99:364,2,67.5,6|0|10,0:0|0:0|0:0,0:0:0:0:
274,229,246384,2,0,P|251:206|241:174,1,67.5,6|0,0:0|0:0,0:0:0:0:
278,101,246860,2,0,P|311:93|343:101,1,67.5,10|0,0:0|0:0,0:0:0:0:
399,41,247337,6,0,P|425:104|398:163,1,135,6|10,0:0|0:0,0:0:0:0:
451,315,248290,2,0,P|407:315|374:292,1,67.5,6|2,0:0|0:0,0:0:0:0:
319,262,248766,2,0,P|275:263|242:286,1,67.5,10|2,0:0|0:0,0:0:0:0:
189,320,249243,6,0,L|31:315,1,135,6|10,0:0|0:0,0:0:0:0:
77,156,250196,2,0,L|10:159,2,67.5,6|0|10,0:0|0:0|0:0,0:0:0:0:
144,111,250910,1,0,0:0:0:0:
213,68,251149,6,0,L|301:65,1,67.5,6|2,0:0|0:0,0:0:0:0:
430,130,251863,1,2,0:0:0:0:
505,162,252102,2,0,P|507:97|458:54,1,135,6|10,0:0|0:0,0:0:0:0:
378,66,252816,1,2,0:0:0:0:
350,143,253055,6,0,L|352:287,1,135,6|10,0:0|0:0,0:0:0:0:
299,339,253769,1,0,0:0:0:0:
229,299,254008,2,0,P|164:262|97:291,1,135,6|10,0:0|0:0,0:0:0:0:
44,325,254722,1,0,0:0:0:0:
37,246,254961,6,0,P|1:191|16:127,1,135,6|10,0:0|0:0,0:0:0:0:
175,159,255913,2,0,P|203:140|236:135,1,67.5,6|2,0:0|0:0,0:0:0:0:
304,178,256390,2,0,P|338:173|365:154,1,67.5,10|2,0:0|0:0,0:0:0:0:
306,98,256867,6,0,L|219:236,1,135,6|10,0:0|0:0,0:0:0:0:
80,261,257820,2,0,L|38:328,2,67.5,6|0|10,0:0|0:0|0:0,0:0:0:0:
158,237,258534,1,0,0:0:0:0:
98,184,258773,6,0,B|95:148|65:128|65:128|36:109|32:72,1,135,6|10,0:0|0:0,0:0:0:0:
185,20,259725,2,0,P|216:7|250:9,1,67.5,14|2,0:0|0:0,0:0:0:0:
231,88,260202,2,0,P|261:104|281:131,1,67.5,10|2,0:0|0:0,0:0:0:0:
312,206,260678,6,0,L|303:345,1,135,6|10,0:0|0:0,0:0:0:0:
462,306,261631,2,0,L|467:239,1,67.5,6|0,0:0|0:0,0:0:0:0:
499,164,262108,2,0,L|495:97,1,67.5,10|0,0:0|0:0,0:0:0:0:
486,17,262584,5,6,0:0:0:0:
359,118,263061,1,10,0:0:0:0:
228,25,263537,2,0,P|188:7|149:14,1,67.5,6|2,0:0|0:0,0:0:0:0:
107,65,264014,2,0,P|64:78|42:104,1,67.5,10|2,0:0|0:0,0:0:0:0:
2,160,264490,6,0,L|4:301,1,135,6|10,0:0|0:0,0:0:0:0:
165,318,265443,2,0,L|164:388,2,67.5,6|0|10,0:0|0:0|0:0,0:0:0:0:
231,271,266158,1,0,0:0:0:0:
294,323,266396,6,0,P|337:333|375:322,1,67.5,6|2,0:0|0:0,0:0:0:0:
452,196,267111,1,2,0:0:0:0:
388,147,267349,2,0,P|345:137|307:148,1,67.5,6|2,0:0|0:0,0:0:0:0:
267,84,267826,2,0,P|272:51|263:19,1,67.5,10|2,0:0|0:0,0:0:0:0:
191,55,268302,6,0,L|58:111,1,135,6|10,0:0|0:0,0:0:0:0:
63,270,269255,2,0,L|-15:303,2,67.5,6|0|10,0:0|0:0|0:0,0:0:0:0:
139,300,269970,1,0,0:0:0:0:
216,330,270208,6,0,P|221:297|212:265,1,67.5,6|2,0:0|0:0,0:0:0:0:
105,143,270923,1,2,0:0:0:0:
37,102,271161,2,0,P|60:78|91:65,1,67.5,6|2,0:0|0:0,0:0:0:0:
167,92,271638,2,0,P|183:122|185:156,1,67.5,10|2,0:0|0:0,0:0:0:0:
105,143,272114,6,0,L|206:234,1,135,6|10,0:0|0:0,0:0:0:0:
368,236,273068,2,0,L|439:300,2,67.5,6|0|10,0:0|0:0|0:0,0:0:0:0:
366,155,273782,1,0,0:0:0:0:
364,73,274021,6,0,B|339:44|303:46|303:46|268:47|243:19,1,135,6|10,0:0|0:0,0:0:0:0:
163,18,274736,1,2,0:0:0:0:
201,88,274974,2,0,P|206:126|227:156,1,67.5,14|10,0:0|0:0,0:0:0:0:
277,209,275450,1,6,0:0:0:0:
300,131,275689,1,10,0:0:0:0:
356,191,275927,6,0,P|378:222|385:257,2,67.5,6|0|10,0:0|0:0|0:0,0:0:0:0:
246,71,276880,2,0,P|223:39|216:4,2,67.5,6|0|10,0:0|0:0|0:0,0:0:0:0:
265,150,277594,1,0,0:0:0:0:
188,126,277833,6,0,L|40:131,1,135,6|10,0:0|0:0,0:0:0:0:
1,285,278786,2,0,B|-7:316|-7:316|3:350,1,67.5,6|2,0:0|0:0,0:0:0:0:
81,373,279262,2,0,P|117:346|148:346,1,67.5,10|2,0:0|0:0,0:0:0:0:
217,366,279739,6,0,L|365:361,1,135,6|10,0:0|0:0,0:0:0:0:
445,229,280692,2,0,L|528:231,2,67.5,6|0|10,0:0|0:0|0:0,0:0:0:0:
393,168,281406,1,0,0:0:0:0:
462,125,281645,6,0,P|416:90|336:111,1,135,6|10,0:0|0:0,0:0:0:0:
281,156,282359,1,2,0:0:0:0:
221,211,282598,2,0,B|145:230|173:177|84:200,1,135,6|10,0:0|0:0,0:0:0:0:
121,274,283312,1,2,0:0:0:0:
41,261,283551,6,0,B|26:228|43:195|43:195|59:164|44:130,1,135,6|10,0:0|0:0,0:0:0:0:
91,66,284265,1,0,0:0:0:0:
140,2,284504,2,0,B|156:36|139:69|139:69|123:100|138:133,1,135,6|10,0:0|0:0,0:0:0:0:
90,198,285218,1,0,0:0:0:0:
43,265,285457,6,0,B|81:272|108:246|108:246|133:222|168:227,1,135,6|10,0:0|0:0,0:0:0:0:
329,252,286410,2,0,P|334:219|324:187,1,67.5,6|2,0:0|0:0,0:0:0:0:
248,159,286887,2,0,P|243:193|253:225,1,67.5,10|2,0:0|0:0,0:0:0:0:
265,304,287362,6,0,L|413:290,1,135,6|10,0:0|0:0,0:0:0:0:
446,136,288315,2,0,L|541:127,2,67.5,6|0|10,0:0|0:0|0:0,0:0:0:0:
376,96,289030,1,0,0:0:0:0:
306,56,289269,6,0,B|286:88|299:123|299:123|311:156|293:186,1,135,6|10,0:0|0:0,0:0:0:0:
148,257,290222,2,0,P|138:289|143:323,1,67.5,14|10,0:0|0:0,0:0:0:0:
220,296,290698,2,0,P|236:326|263:346,1,67.5,6|10,0:0|0:0,0:0:0:0:
297,273,291174,6,0,L|447:276,1,135,6|10,0:0|0:0,0:0:0:0:
446,115,292127,2,0,L|516:113,2,67.5,6|0|10,0:0|0:0|0:0,0:0:0:0:
374,80,292842,1,0,0:0:0:0:
305,39,293080,6,0,L|148:32,1,135,6|10,0:0|0:0,0:0:0:0:
15,82,294033,2,0,P|12:118|41:156,1,67.5,6|2,0:0|0:0,0:0:0:0:
78,209,294510,2,0,P|94:239|90:272,1,67.5,10|2,0:0|0:0,0:0:0:0:
21,314,294986,6,0,P|86:353|148:330,1,135,6|10,0:0|0:0,0:0:0:0:
276,251,295939,2,0,L|349:258,2,67.5,6|0|10,0:0|0:0|0:0,0:0:0:0:
227,187,296654,1,0,0:0:0:0:
280,126,296892,6,0,L|287:52,1,67.5,6|2,0:0|0:0,0:0:0:0:
446,27,297607,1,2,0:0:0:0:
495,92,297845,2,0,P|505:124|496:157,1,67.5,6|2,0:0|0:0,0:0:0:0:
458,228,298322,2,0,P|449:260|458:293,1,67.5,10|2,0:0|0:0,0:0:0:0:
486,369,298798,6,0,L|372:296,1,135,6|10,0:0|0:0,0:0:0:0:
298,152,299752,2,0,L|237:113,2,67.5,6|0|10,0:0|0:0|0:0,0:0:0:0:
335,225,300466,1,0,0:0:0:0:
372,296,300705,6,0,L|336:353,1,67.5,6|2,0:0|0:0,0:0:0:0:
174,352,301419,1,2,0:0:0:0:
95,340,301658,2,0,P|105:309|129:286,1,67.5,6|2,0:0|0:0,0:0:0:0:
209,280,302134,2,0,P|234:257|245:225,1,67.5,10|2,0:0|0:0,0:0:0:0:
164,213,302610,6,0,L|287:156,1,135,6|10,0:0|0:0,0:0:0:0:
386,28,303564,2,0,L|447:0,2,67.5,6|0|10,0:0|0:0|0:0,0:0:0:0:
334,91,304278,1,0,0:0:0:0:
287,156,304516,6,0,L|243:177,1,33.75,14|10,0:0|0:0,0:0:0:0:
247,251,304874,2,0,L|216:265,1,33.75,10|10,0:0|0:0,0:0:0:0:
55,276,305469,2,0,L|24:290,2,33.75,14|10|10,0:0|0:0|0:0,0:0:0:0:
80,198,305946,2,0,L|141:170,1,67.5,10|10,0:0|0:0,0:0:0:0:
165,92,306422,6,0,L|226:64,2,67.5,6|0|14,0:0|0:0|0:0,0:0:0:0:
