osu file format v14

[General]
AudioFilename: audio.mp3
AudioLeadIn: 0
PreviewTime: 44378
Countdown: 0
SampleSet: Soft
StackLeniency: 0.7
Mode: 0
LetterboxInBreaks: 0
WidescreenStoryboard: 0

[Editor]
DistanceSpacing: 0.4
BeatDivisor: 4
GridSize: 4
TimelineZoom: 2.1

[Metadata]
Title:Nothing In The Story
TitleUnicode:Nothing In The Story
Artist:My First Story
ArtistUnicode:My First Story
Creator:Shelfdon
Version:Story
Source:
Tags:
BeatmapID:1095356
BeatmapSetID:515830

[Difficulty]
HPDrainRate:6
CircleSize:4
OverallDifficulty:8.8
ApproachRate:9.4
SliderMultiplier:1.8
SliderTickRate:1

[Events]
//Background and Video events
0,0,"They deleted my previous bg.jpg",0,0
//Break Periods
2,143809,147992
//Storyboard Layer 0 (Background)
//Storyboard Layer 1 (Fail)
//Storyboard Layer 2 (Pass)
//Storyboard Layer 3 (Foreground)
//Storyboard Sound Samples

[TimingPoints]
71,307.692307692308,4,2,1,65,1,0
71,-100,4,2,1,65,0,0
14917,-100,4,2,1,5,0,0
14994,-100,4,2,1,65,0,0
15224,-100,4,2,1,5,0,0
15301,-100,4,2,1,65,0,0
19378,-100,4,2,1,65,0,0
19378,-100,4,2,1,65,0,0
20686,-125,4,2,1,55,0,0
30071,-100,4,2,1,65,0,0
31840,-100,4,2,1,5,0,0
31917,-100,4,2,1,65,0,0
40378,-166.666666666667,4,2,1,45,0,0
42763,-166.666666666667,4,2,1,5,0,0
42840,-100,4,2,1,65,0,0
45147,-76.9230769230769,4,2,1,75,0,1
65071,-76.9230769230769,4,2,1,5,0,0
65147,-100,4,2,1,65,0,0
74224,-125,4,2,1,55,0,0
77378,-125,4,2,1,5,0,0
77455,-125,4,2,1,55,0,0
84378,-100,4,2,1,65,0,0
85994,-100,4,2,1,5,0,0
86071,-100,4,2,1,65,0,0
94532,-76.9230769230769,4,2,1,75,0,0
103147,-76.9230769230769,4,2,1,75,0,0
104224,-76.9230769230769,4,2,1,75,0,1
124071,-111.111111111111,4,2,2,60,0,0
124455,-111.111111111111,4,2,2,5,0,0
124532,-111.111111111111,4,2,2,60,0,0
124917,-111.111111111111,4,2,2,5,0,0
124994,-111.111111111111,4,2,2,60,0,0
125224,-111.111111111111,4,2,2,5,0,0
125301,-111.111111111111,4,2,1,60,0,0
126532,-111.111111111111,4,2,2,60,0,0
126917,-111.111111111111,4,2,2,5,0,0
126994,-111.111111111111,4,2,2,60,0,0
127378,-111.111111111111,4,2,2,5,0,0
127455,-111.111111111111,4,2,2,60,0,0
127686,-111.111111111111,4,2,2,5,0,0
127763,-111.111111111111,4,2,1,60,0,0
128994,-111.111111111111,4,2,2,60,0,0
129378,-111.111111111111,4,2,2,5,0,0
129455,-111.111111111111,4,2,2,60,0,0
129840,-111.111111111111,4,2,2,5,0,0
129917,-111.111111111111,4,2,2,60,0,0
130147,-111.111111111111,4,2,2,5,0,0
130224,-111.111111111111,4,2,1,60,0,0
131455,-111.111111111111,4,2,2,60,0,0
131840,-111.111111111111,4,2,2,5,0,0
131917,-111.111111111111,4,2,2,60,0,0
132301,-111.111111111111,4,2,2,5,0,0
132378,-111.111111111111,4,2,2,60,0,0
132609,-111.111111111111,4,2,2,5,0,0
132686,-111.111111111111,4,2,1,60,0,0
133917,-76.9230769230769,4,2,1,75,0,0
148532,-111.111111111111,4,2,1,60,0,0
153378,-111.111111111111,4,2,1,5,0,0
153455,-111.111111111111,4,2,1,60,0,0
157147,-111.111111111111,4,2,1,50,0,0
157763,-111.111111111111,4,2,1,60,0,0
159763,-76.9230769230769,4,2,1,75,0,0
164378,-111.111111111111,4,2,1,60,0,0
172532,-76.9230769230769,4,2,1,75,0,1
197763,-76.9230769230769,4,2,1,75,0,0

[HitObjects]
176,148,224,5,0,0:0:0:0:
176,148,301,1,0,0:0:0:0:
176,148,378,1,4,0:3:0:0:
292,64,840,6,0,B|420:40|420:40|364:88,1,180,4|0,0:0|0:0,0:0:0:0:
240,184,1301,1,8,0:2:0:0:
172,312,1455,1,0,0:0:0:0:
364,148,1609,1,0,0:0:0:0:
288,304,1763,1,0,0:0:0:0:
229,97,1917,2,0,P|245:153|229:205,1,90,8|0,0:0|0:0,0:0:0:0:
124,232,2224,1,0,0:0:0:0:
208,72,2378,2,0,P|260:68|300:80,1,90,0|8,0:0|0:0,0:0:0:0:
124,232,2686,6,0,P|64:216|36:172,1,90,0|0,0:0|0:0,0:0:0:0:
440,244,2994,2,0,P|414:280|373:297,1,90,0|8,0:0|0:0,0:0:0:0:
260,148,3301,2,0,P|348:112|448:152,1,180,4|0,0:0|0:0,0:0:0:0:
228,220,3763,2,0,B|176:232|176:232|124:224,1,90,8|0,0:0|0:0,0:0:0:0:
352,324,4071,2,0,P|400:224|392:120,1,180,0|8,0:0|0:0,0:0:0:0:
176,160,4532,1,0,0:0:0:0:
208,192,4609,1,0,0:0:0:0:
252,200,4686,1,8,0:0:0:0:
180,36,4840,2,0,L|68:48,1,90,4|0,0:0|0:0,0:0:0:0:
168,212,5147,6,0,L|176:324,1,90,4|0,0:0|0:0,0:0:0:0:
280,100,5455,1,0,0:0:0:0:
284,32,5609,2,0,L|280:144,1,90,8|4,0:0|0:0,0:0:0:0:
364,264,5917,2,0,P|420:296|456:292,1,90
464,200,6224,5,8,0:0:0:0:
380,348,6378,1,0,0:0:0:0:
240,100,6532,1,0,0:0:0:0:
320,260,6686,1,0,0:0:0:0:
376,32,6840,2,0,P|400:88|392:140,1,90,8|0,0:0|0:0,0:0:0:0:
80,56,7147,1,0,0:0:0:0:
264,92,7301,1,0,0:0:0:0:
336,176,7455,5,8,0:0:0:0:
52,224,7609,1,0,0:0:0:0:
96,120,7763,1,0,0:0:0:0:
268,332,7917,1,0,0:0:0:0:
181,105,8071,1,8,0:0:0:0:
181,105,8224,2,0,B|193:133|193:133|181:163|181:163|194:191|194:191|177:211|177:211|204:264,1,180,4|0,0:0|0:0,0:0:0:0:
284,176,8686,5,8,0:0:0:0:
116,320,8840,1,0,0:0:0:0:
296,292,8994,2,0,B|348:288|348:288|392:308,1,90
480,364,9301,1,8,0:0:0:0:
344,216,9455,2,0,P|316:104|344:40,1,180
440,128,9917,5,8,0:0:0:0:
236,240,10071,1,0,0:0:0:0:
216,256,10147,1,0,0:0:0:0:
192,244,10224,2,0,P|184:288|220:348,1,90,0|0,1:2|0:0,0:0:0:0:
92,140,10532,1,8,0:0:0:0:
364,80,10686,2,0,B|324:80|308:112|308:112|268:68|192:80,1,180,4|0,0:0|0:0,0:0:0:0:
192,244,11147,5,8,0:0:0:0:
344,304,11301,2,0,P|408:312|436:296,1,90,0|0,0:0|0:0,0:0:0:0:
280,168,11609,1,0,0:0:0:0:
176,336,11763,1,8,0:0:0:0:
24,136,11917,2,0,P|72:192|120:200,1,90,0|0,0:0|0:0,0:0:0:0:
216,236,12224,1,0,0:0:0:0:
348,76,12378,6,0,L|344:184,1,90,8|0,0:0|0:0,0:0:0:0:
280,276,12686,1,0,0:0:0:0:
124,168,12840,1,0,0:0:0:0:
412,164,12994,1,8,0:0:0:0:
156,372,13147,2,0,P|140:328|148:280,1,90,4|0,0:0|0:0,0:0:0:0:
240,40,13455,2,0,B|256:88|256:88|248:144,1,90
164,220,13763,5,0,0:0:0:0:
88,120,13917,1,0,0:0:0:0:
160,364,14071,1,0,0:0:0:0:
404,180,14224,2,0,P|332:148|312:152,1,90,8|0,0:0|0:0,0:0:0:0:
304,152,14455,1,0,0:0:0:0:
292,168,14532,1,0,1:0:0:0:
428,346,14686,2,0,P|476:288|468:204,1,135,4|0,0:0|0:0,0:0:0:0:
460,188,14994,6,0,B|400:152|400:152|328:152,1,135,4|0,0:0|0:0,0:0:0:0:
296,164,15301,1,0,0:0:0:0:
380,256,15455,1,8,0:0:0:0:
216,348,15609,2,0,L|200:244,1,90,0|0,0:0|0:0,0:0:0:0:
376,68,15917,2,0,L|272:44,1,90,0|8,0:0|0:0,0:0:0:0:
168,84,16224,5,0,0:0:0:0:
268,200,16378,1,0,0:0:0:0:
452,72,16532,1,0,0:0:0:0:
268,200,16686,2,0,L|152:152,1,90,8|0,0:0|0:0,0:0:0:0:
368,120,16994,1,0,0:0:0:0:
224,304,17147,1,0,0:0:0:0:
64,76,17301,6,0,P|72:132|124:164,1,90,8|0,0:0|0:0,0:0:0:0:
212,200,17609,1,0,0:0:0:0:
372,172,17763,1,0,0:0:0:0:
144,284,17917,1,8,0:0:0:0:
448,44,18071,2,0,L|464:144,1,90,4|0,0:0|0:0,0:0:0:0:
376,320,18378,2,0,L|372:196,1,90,0|8,0:0|0:0,0:0:0:0:
228,248,18686,5,0,0:0:0:0:
92,292,18840,1,0,0:0:0:0:
292,336,18994,1,0,0:0:0:0:
220,48,19147,1,8,0:0:0:0:
140,180,19301,1,0,0:0:0:0:
416,100,19455,5,8,0:0:0:0:
382,114,19532,1,8,0:0:0:0:
347,103,19609,1,0,1:0:0:0:
315,85,19686,1,0,1:0:0:0:
283,102,19763,1,0,0:0:0:0:
247,93,19840,1,0,0:0:0:0:
213,106,19917,2,0,L|173:154,1,45,0|0,1:0|1:0,0:0:0:0:
227,260,20071,6,0,L|327:273,1,90,4|0,0:3|0:0,0:0:0:0:
444,144,20378,2,0,L|376:68,1,90,8|0,0:0|3:0,0:0:0:0:
344,60,20609,1,0,3:0:0:0:
344,60,20686,1,4,3:2:0:0:
208,116,20840,1,0,0:0:0:0:
356,288,20994,6,0,B|304:316|244:284|244:284|204:304,1,144,10|0,0:0|0:0,0:0:0:0:
92,204,21455,1,0,0:0:0:0:
216,164,21609,2,0,L|304:160,1,72,8|0,0:0|0:0,0:0:0:0:
164,32,21917,2,0,P|120:72|112:108,1,72,0|0,0:0|0:0,0:0:0:0:
40,352,22224,6,0,L|68:252,1,72,8|0,0:0|0:0,0:0:0:0:
188,168,22532,1,0,0:0:0:0:
312,220,22686,1,0,0:0:0:0:
184,336,22840,2,0,L|180:240,1,72,8|0,0:0|0:0,0:0:0:0:
20,96,23147,2,0,L|24:188,1,72,0|0,0:0|0:0,0:0:0:0:
364,60,23455,6,0,B|308:40|308:40|192:56,1,144,8|0,0:0|0:0,0:0:0:0:
128,100,23917,1,0,0:0:0:0:
260,288,24071,1,8,0:0:0:0:
279,258,24147,1,0,0:0:0:0:
278,221,24224,1,0,0:0:0:0:
76,237,24378,2,0,L|153:235,1,72,0|0,0:0|0:0,0:0:0:0:
431,168,24686,6,0,L|357:186,1,72,8|0,0:0|0:0,0:0:0:0:
133,141,24994,1,0,0:0:0:0:
282,226,25147,1,0,0:0:0:0:
186,303,25301,1,8,0:0:0:0:
368,346,25455,1,0,0:0:0:0:
368,346,25532,1,0,0:0:0:0:
368,346,25609,2,0,L|366:263,1,72,0|0,0:0|0:0,0:0:0:0:
211,43,25917,6,0,B|224:100|224:100|193:190,1,144,8|0,0:0|0:0,0:0:0:0:
114,98,26378,1,0,0:0:0:0:
384,280,26532,2,0,P|326:318|253:330,1,144,8|0,0:0|0:0,0:0:0:0:
188,136,26994,1,0,0:0:0:0:
72,216,27147,2,0,P|32:176|92:160,1,144,8|0,0:0|0:0,0:0:0:0:
212,260,27609,1,0,0:0:0:0:
328,48,27763,2,0,B|324:120|324:120|352:208,1,144,8|0,0:0|0:0,0:0:0:0:
436,116,28224,1,0,0:0:0:0:
236,204,28378,5,8,0:0:0:0:
436,224,28532,1,0,0:0:0:0:
144,136,28686,1,0,0:0:0:0:
308,160,28840,1,0,0:0:0:0:
44,264,28994,1,8,0:0:0:0:
144,136,29147,1,0,0:0:0:0:
284,184,29301,1,0,0:0:0:0:
156,60,29455,1,0,0:0:0:0:
304,300,29609,6,0,P|348:260|344:224,1,72,8|0,0:0|0:0,0:0:0:0:
248,84,29917,1,0,0:0:0:0:
141,232,30071,1,0,3:0:0:0:
154,271,30147,1,0,3:0:0:0:
186,299,30224,1,0,3:0:0:0:
224,278,30301,1,0,3:0:0:0:
193,246,30378,1,0,3:0:0:0:
186,299,30455,1,0,3:0:0:0:
214,345,30532,1,4,3:2:0:0:
280,244,30686,1,0,0:0:0:0:
146,159,30840,6,0,P|76:147|51:159,1,90,8|0,0:0|0:0,0:0:0:0:
348,332,31147,2,0,P|360:262|348:237,1,90
274,125,31455,1,8,0:0:0:0:
103,310,31609,2,0,L|253:284,1,135
203,248,31917,1,0,0:0:0:0:
420,212,32071,6,0,P|464:190|482:152,1,90,8|0,0:0|0:0,0:0:0:0:
336,80,32378,1,0,0:0:0:0:
256,252,32532,1,0,0:0:0:0:
440,124,32686,2,0,L|340:148,1,90,8|0,0:0|0:0,0:0:0:0:
264,224,32994,1,0,0:0:0:0:
464,340,33147,1,0,0:0:0:0:
212,324,33301,6,0,P|324:320|380:272,1,180,8|0,0:0|0:0,0:0:0:0:
412,168,33763,1,0,0:0:0:0:
236,88,33917,2,0,B|176:56|96:80|96:80|140:112,1,180,8|0,0:0|0:0,0:0:0:0:
360,72,34378,1,0,0:0:0:0:
480,24,34532,5,8,0:0:0:0:
360,224,34686,1,0,0:0:0:0:
360,224,34763,1,0,0:0:0:0:
360,224,34840,1,0,0:0:0:0:
236,136,34994,1,0,0:0:0:0:
156,256,35147,2,0,L|256:288,1,90,8|0,0:0|0:0,0:0:0:0:
248,192,35455,1,4,0:2:0:0:
32,284,35609,1,0,0:0:0:0:
44,48,35763,6,0,P|44:116|68:160,1,90,8|0,0:0|0:0,0:0:0:0:
140,224,36071,1,0,0:0:0:0:
32,356,36224,1,0,0:0:0:0:
328,228,36378,2,0,P|304:156|276:148,1,90,8|0,0:0|0:0,0:0:0:0:
200,284,36686,1,0,0:0:0:0:
396,352,36840,1,0,0:0:0:0:
336,152,36994,6,0,P|370:86|355:157,1,180,8|0,0:0|0:0,0:0:0:0:
268,260,37455,1,0,0:0:0:0:
228,288,37532,1,0,0:0:0:0:
180,288,37609,2,0,P|136:276|96:232,1,90,8|0,0:0|0:0,0:0:0:0:
60,116,37917,1,4,0:0:0:0:
264,344,38071,1,0,0:0:0:0:
420,84,38224,6,0,P|320:60|232:120,1,180,8|0,0:0|0:0,0:0:0:0:
168,196,38686,1,0,0:0:0:0:
380,292,38840,2,0,L|252:264,1,90,8|0,0:0|0:0,0:0:0:0:
372,152,39147,1,0,0:0:0:0:
492,324,39301,1,8,0:0:0:0:
264,272,39455,5,0,0:0:0:0:
476,176,39609,1,0,3:0:0:0:
476,176,39686,1,0,3:0:0:0:
476,176,39763,1,0,3:0:0:0:
360,292,39917,1,0,0:0:0:0:
292,188,40071,1,0,0:0:0:0:
196,268,40224,1,0,0:0:0:0:
172,144,40378,6,0,P|226:76|304:58,1,161.999995056153,0|8,0:0|0:0,0:0:0:0:
372,216,41301,6,0,B|264:216|264:216|216:264,1,161.999995056153,0|8,0:0|0:0,0:0:0:0:
468,116,42071,1,0,3:0:0:0:
456,76,42148,1,0,3:0:0:0:
428,48,42225,1,0,3:0:0:0:
336,264,42378,1,0,0:0:0:0:
268,96,42532,2,0,L|360:60,1,80.9999975280763,8|0,0:0|0:0,0:0:0:0:
344,240,42840,6,0,L|220:244,1,90,6|2,0:1|3:1,0:0:0:0:
236,240,43071,1,0,3:0:0:0:
220,228,43147,1,0,3:0:0:0:
44,132,43301,2,0,L|16:240,1,90,2|0,0:1|0:0,0:0:0:0:
284,364,43609,2,0,L|400:340,1,90,2|0,0:1|0:0,0:0:0:0:
364,20,43917,2,0,P|268:100|196:112,1,180,6|0,0:1|3:0,0:0:0:0:
177,94,44301,1,0,3:0:0:0:
177,94,44378,5,0,3:0:0:0:
240,260,44532,1,0,0:0:0:0:
448,176,44686,2,0,L|353:163,1,90,0|0,3:0|0:0,0:0:0:0:
132,308,45147,2,0,P|88:212|156:96,1,233.999989288331,12|0,0:1|0:0,0:0:0:0:
320,24,45609,6,0,L|456:52,1,116.999994644165,8|0,0:0|0:0,0:0:0:0:
224,120,45917,1,0,0:0:0:0:
420,196,46071,1,0,0:0:0:0:
140,248,46224,1,8,0:0:0:0:
380,308,46378,2,0,P|424:212|356:96,1,233.999989288331,8|0,0:1|0:0,0:0:0:0:
76,156,46840,6,0,B|52:212|52:212|64:276,1,116.999994644165,8|0,0:0|0:0,0:0:0:0:
332,188,47147,1,0,0:0:0:0:
176,332,47301,2,0,L|188:208,1,116.999994644165,0|8,0:0|0:0,0:0:0:0:
384,48,47609,2,0,B|496:100|496:100|516:140|408:160,1,233.999989288331,8|0,0:1|0:0,0:0:0:0:
124,28,48071,6,0,P|228:32|264:56,1,116.999994644165,8|0,0:0|0:0,0:0:0:0:
412,272,48378,1,0,0:0:0:0:
208,304,48532,1,0,0:0:0:0:
448,136,48686,1,8,0:0:0:0:
232,80,48840,2,0,B|193:68|143:125|143:125|145:73|145:73|78:111,1,233.999989288331,8|0,0:1|0:0,0:0:0:0:
293,232,49301,6,0,P|365:235|420:204,1,116.999994644165,8|0,0:0|0:0,0:0:0:0:
335,108,49609,1,0,0:0:0:0:
172,320,49763,1,0,0:0:0:0:
460,280,49917,1,8,0:0:0:0:
200,168,50071,2,0,P|156:152|8:248,1,233.999989288331,12|0,0:1|0:0,0:0:0:0:
204,48,50532,6,0,P|264:56|320:40,1,116.999994644165,8|0,0:0|0:0,0:0:0:0:
376,144,50840,1,0,0:0:0:0:
280,184,50994,1,0,0:0:0:0:
424,320,51147,1,8,0:0:0:0:
112,272,51301,2,0,B|88:184|88:184|144:48,1,233.999989288331,8|0,0:1|0:0,0:0:0:0:
276,244,51763,6,0,L|288:372,1,116.999994644165,8|0,0:0|0:0,0:0:0:0:
384,144,52071,1,0,0:0:0:0:
168,188,52224,1,0,0:0:0:0:
127,193,52301,1,0,0:0:0:0:
94,168,52378,1,8,0:0:0:0:
296,292,52532,2,0,B|356:312|356:312|416:284|416:284|464:320|464:320|456:272,1,233.999989288331,12|0,0:1|0:0,0:0:0:0:
348,44,52994,6,0,P|272:60|248:96,1,116.999994644165,8|0,0:0|0:0,0:0:0:0:
204,196,53301,1,0,0:0:0:0:
344,216,53455,1,0,0:0:0:0:
52,304,53609,1,8,0:0:0:0:
250,88,53763,2,0,P|358:112|482:72,1,233.999989288331,8|0,0:1|0:0,0:0:0:0:
304,296,54224,6,0,P|216:268|200:224,1,116.999994644165,8|0,0:0|0:0,0:0:0:0:
152,72,54532,1,0,0:0:0:0:
404,120,54686,1,8,0:0:0:0:
400,154,54763,1,0,0:0:0:0:
376,180,54840,1,8,0:0:0:0:
120,340,54994,2,0,B|99:258|190:216|190:216|111:232,1,233.999989288331,12|0,0:1|0:0,0:0:0:0:
312,300,55455,6,0,B|376:316|376:316|456:296,1,116.999994644165,8|0,0:0|0:0,0:0:0:0:
388,120,55763,1,0,0:0:0:0:
268,212,55917,1,0,0:0:0:0:
396,32,56071,1,8,0:0:0:0:
92,156,56224,2,0,P|144:88|296:104,1,233.999989288331,8|0,0:1|0:0,0:0:0:0:
428,240,56686,6,0,L|288:292,1,116.999994644165,8|0,0:0|0:0,0:0:0:0:
80,104,56994,1,0,0:0:0:0:
160,216,57147,1,0,0:0:0:0:
380,180,57301,1,8,0:0:0:0:
208,40,57455,2,0,B|124:56|176:104|176:104|120:152|208:160|224:92,1,233.999989288331,8|0,0:1|0:0,0:0:0:0:
40,208,57917,6,0,B|8:276|40:332,1,116.999994644165,8|0,0:0|0:0,0:0:0:0:
316,132,58224,1,0,0:0:0:0:
276,244,58378,1,0,0:0:0:0:
120,140,58532,1,8,0:0:0:0:
428,208,58686,1,0,0:0:0:0:
178,309,58840,1,8,0:0:0:0:
165,270,58917,1,8,0:0:0:0:
182,232,58994,1,0,1:0:0:0:
214,207,59071,1,0,1:0:0:0:
252,219,59147,5,0,0:0:0:0:
223,248,59224,1,0,0:0:0:0:
182,232,59301,1,0,0:0:0:0:
163,195,59378,1,0,0:0:0:0:
183,159,59455,1,4,0:3:0:0:
423,156,59609,2,0,L|346:171,1,58.4999973220826,0|0,0:0|0:0,0:0:0:0:
185,81,59763,1,8,0:0:0:0:
340,271,59917,2,0,P|310:331|306:243,1,233.999989288331,12|0,0:1|0:0,0:0:0:0:
344,52,60378,6,0,L|368:184,1,116.999994644165,8|0,0:0|0:0,0:0:0:0:
232,128,60686,1,0,0:0:0:0:
96,300,60840,2,0,P|140:252|192:248,1,116.999994644165,0|8,0:0|0:0,0:0:0:0:
360,216,61147,2,0,P|352:156|288:120,1,116.999994644165
92,44,61455,2,0,L|138:151,1,116.999994644165,0|8,0:0|0:0,0:0:0:0:
400,328,61763,2,0,L|248:268,1,116.999994644165,0|0,0:0|0:0,0:0:0:0:
376,136,62071,2,0,L|476:56,1,116.999994644165,0|8,0:0|0:0,0:0:0:0:
224,320,62378,2,0,P|152:292|108:120,1,233.999989288331,12|0,0:1|0:0,0:0:0:0:
316,40,62840,5,8,0:0:0:0:
288,176,62994,1,0,0:0:0:0:
408,136,63147,1,8,0:0:0:0:
260,272,63301,1,0,0:0:0:0:
456,244,63455,1,8,0:0:0:0:
188,184,63609,1,0,3:0:0:0:
188,184,63686,1,0,3:0:0:0:
188,184,63763,1,0,3:0:0:0:
112,288,63917,1,0,0:0:0:0:
408,136,64071,5,0,0:0:0:0:
116,68,64224,1,0,0:0:0:0:
103,106,64301,1,0,0:0:0:0:
119,143,64378,1,4,0:3:0:0:
344,304,64532,2,0,P|361:232|335:185,1,116.999994644165,0|0,0:0|0:0,0:0:0:0:
200,28,64840,2,0,P|183:100|252:224,1,175.499991966248,4|0,0:0|0:0,0:0:0:0:
252,204,65147,1,0,0:0:0:0:
340,80,65301,5,8,0:0:0:0:
80,188,65455,1,0,0:0:0:0:
320,332,65609,2,0,P|316:244|288:220,1,90
164,128,65917,2,0,P|208:152|264:136,1,90,8|0,0:0|0:0,0:0:0:0:
372,100,66224,1,0,0:0:0:0:
84,76,66378,1,0,0:0:0:0:
192,312,66532,6,0,L|276:236,1,90,8|0,0:0|0:0,0:0:0:0:
372,196,66840,1,0,0:0:0:0:
488,296,66994,1,0,0:0:0:0:
124,248,67147,1,8,0:0:0:0:
408,40,67301,2,0,P|280:84|224:64,1,180,4|0,0:0|0:0,0:0:0:0:
72,252,67763,5,8,0:0:0:0:
264,308,67917,1,0,0:0:0:0:
152,204,68071,1,0,0:0:0:0:
376,136,68224,1,0,0:0:0:0:
32,32,68378,1,8,0:0:0:0:
218,254,68532,1,0,0:0:0:0:
170,263,68609,1,0,0:0:0:0:
124,243,68686,1,0,1:0:0:0:
320,132,68840,2,0,P|387:164|418:193,1,90,4|0,0:0|0:0,0:0:0:0:
140,148,69147,6,0,P|88:140|32:160,1,90,4|0,0:0|0:0,0:0:0:0:
224,48,69455,1,0,0:0:0:0:
304,188,69609,2,0,P|316:248|300:284,1,90,8|0,0:0|0:0,0:0:0:0:
168,340,69917,2,0,B|129:347|129:347|81:331,1,90
176,126,70224,5,8,0:0:0:0:
348,319,70378,1,0,0:0:0:0:
388,134,70532,1,0,0:0:0:0:
304,346,70686,1,0,0:0:0:0:
132,196,70840,1,8,0:0:0:0:
212,324,70994,1,0,0:0:0:0:
388,134,71147,1,0,0:0:0:0:
234,95,71301,1,0,0:0:0:0:
427,258,71455,5,8,0:0:0:0:
132,196,71609,1,0,0:0:0:0:
317,297,71763,1,0,0:0:0:0:
454,95,71917,1,0,0:0:0:0:
159,324,72071,1,8,0:0:0:0:
328,96,72224,2,0,P|385:162|355:267,1,180,4|0,0:0|0:0,0:0:0:0:
272,256,72686,5,12,0:0:0:0:
472,116,72840,1,0,0:0:0:0:
196,156,72994,1,12,0:0:0:0:
420,336,73147,1,0,0:0:0:0:
128,276,73301,1,12,0:0:0:0:
336,28,73455,1,0,0:0:0:0:
332,208,73609,1,8,0:0:0:0:
124,152,73763,1,0,0:0:0:0:
108,144,73917,5,0,0:0:0:0:
92,136,74071,1,0,0:0:0:0:
200,40,74224,1,8,0:0:0:0:
248,184,74378,2,0,P|272:228|296:240,1,72,0|8,0:0|0:0,0:0:0:0:
44,304,74686,2,0,P|116:248|184:256,1,144,4|0,0:0|0:0,0:0:0:0:
352,300,75147,2,0,L|312:368,1,72,8|0,0:0|0:0,0:0:0:0:
232,144,75455,2,0,L|272:220,1,72
404,32,75763,2,0,L|368:132,1,72,8|0,0:0|0:0,0:0:0:0:
180,104,76071,1,0,0:0:0:0:
264,248,76224,1,0,0:0:0:0:
468,184,76378,6,0,P|332:144|164:196,1,288,8|8,0:0|0:0,0:0:0:0:
76,332,77147,2,0,P|176:352|208:344,1,108,4|0,0:1|0:0,0:0:0:0:
248,248,77455,1,0,0:0:0:0:
96,236,77609,6,0,P|36:152|180:132,1,288,8|8,0:0|0:0,0:0:0:0:
304,292,78378,1,0,3:0:0:0:
344,308,78455,1,0,3:0:0:0:
380,288,78532,1,0,3:0:0:0:
336,168,78686,1,0,0:0:0:0:
144,332,78840,5,0,0:0:0:0:
384,216,78994,1,0,0:0:0:0:
116,152,79147,1,2,0:1:0:0:
116,152,79301,1,2,0:1:0:0:
32,276,79609,2,0,P|40:332|116:352,1,144,4|0,0:0|0:0,0:0:0:0:
368,236,80071,6,0,L|276:204,1,72,8|0,0:0|0:0,0:0:0:0:
228,120,80378,1,0,0:0:0:0:
340,340,80532,1,0,0:0:0:0:
484,168,80686,2,0,P|460:108|432:92,1,72,8|0,0:0|0:0,0:0:0:0:
224,48,80994,1,0,0:0:0:0:
300,140,81147,1,0,0:0:0:0:
120,264,81301,6,0,P|120:212|152:184,1,72,8|0,0:0|0:0,0:0:0:0:
260,304,81609,2,0,P|236:340|200:352,1,72
224,152,81917,1,8,0:0:0:0:
476,256,82071,2,0,B|412:292|412:292|328:248,1,144,4|0,0:0|0:0,0:0:0:0:
96,152,82532,6,0,L|136:72,1,72,8|0,0:0|0:0,0:0:0:0:
224,232,82840,1,0,0:0:0:0:
44,244,82994,1,0,0:0:0:0:
380,120,83147,2,0,L|368:216,1,72,8|0,0:0|0:0,0:0:0:0:
197,101,83455,1,0,0:0:0:0:
308,296,83609,1,0,3:0:0:0:
353,308,83686,1,0,3:0:0:0:
392,283,83763,5,0,3:0:0:0:
465,154,83917,1,0,0:0:0:0:
237,194,84071,1,8,0:0:0:0:
442,38,84224,1,0,0:0:0:0:
176,52,84378,1,8,0:0:0:0:
364,212,84532,2,0,P|296:288|220:280,1,180
104,124,84994,6,0,B|56:156|56:156|32:216,1,90,12|0,0:0|0:0,0:0:0:0:
272,168,85301,2,0,P|328:120|328:76,1,90
444,164,85609,1,8,0:0:0:0:
240,272,85763,2,0,P|292:328|376:324,1,135
328,292,86071,1,0,0:0:0:0:
108,328,86224,5,8,0:0:0:0:
108,328,86378,1,8,0:0:0:0:
280,152,86532,2,0,P|324:192|320:232,1,90
108,140,86840,1,8,0:0:0:0:
304,340,86994,2,0,P|296:252|216:212,1,180,4|0,0:0|0:0,0:0:0:0:
440,168,87455,5,0,3:0:0:0:
469,128,87532,1,0,3:0:0:0:
448,82,87609,1,0,3:0:0:0:
409,50,87686,1,0,3:0:0:0:
448,82,87763,1,0,1:0:0:0:
469,128,87840,1,0,1:0:0:0:
440,168,87917,1,0,0:0:0:0:
396,190,87994,1,0,0:0:0:0:
351,168,88071,5,0,0:0:0:0:
361,120,88147,1,0,0:0:0:0:
408,132,88224,1,0,0:0:0:0:
440,168,88301,1,0,0:0:0:0:
445,217,88378,1,10,0:0:0:0:
410,252,88455,1,0,0:0:0:0:
362,267,88532,1,0,0:0:0:0:
317,244,88609,1,0,0:0:0:0:
286,205,88686,5,0,0:0:0:0:
240,184,88763,1,0,0:0:0:0:
190,182,88840,1,0,0:0:0:0:
164,224,88917,1,0,0:0:0:0:
184,264,88994,2,0,P|240:247|268:220,1,90,2|2,0:1|0:1,0:0:0:0:
60,44,89455,2,0,P|36:120|100:216,1,180,4|0,0:0|0:0,0:0:0:0:
436,100,89917,6,0,P|376:88|312:100,1,90,2|0,0:0|0:0,0:0:0:0:
140,232,90224,1,0,0:0:0:0:
304,184,90378,1,0,0:0:0:0:
472,348,90532,2,0,P|408:352|360:328,1,90,8|0,0:0|0:0,0:0:0:0:
268,256,90840,1,0,0:0:0:0:
436,192,90994,1,0,0:0:0:0:
244,48,91147,6,0,P|160:44|124:72,1,90,8|0,0:0|0:0,0:0:0:0:
176,300,91455,1,0,0:0:0:0:
260,116,91609,1,0,0:0:0:0:
308,232,91763,1,8,0:0:0:0:
36,207,91917,2,0,P|149:168|211:205,1,180,4|0,0:0|0:0,0:0:0:0:
324,335,92378,5,8,0:0:0:0:
123,279,92532,1,0,0:0:0:0:
420,128,92686,1,8,0:0:0:0:
140,148,92840,1,0,0:0:0:0:
432,288,92994,1,8,0:0:0:0:
464,32,93147,1,0,0:0:0:0:
360,332,93301,1,8,0:0:0:0:
288,100,93455,1,0,0:0:0:0:
140,272,93609,5,8,0:0:0:0:
424,132,93763,1,0,0:0:0:0:
292,336,93917,1,8,0:0:0:0:
240,318,93994,1,0,0:0:0:0:
208,273,94071,1,0,0:0:0:0:
206,219,94147,1,0,0:0:0:0:
226,169,94224,1,0,0:0:0:0:
275,147,94301,1,0,0:0:0:0:
314,110,94378,1,0,0:0:0:0:
261,95,94455,1,0,0:0:0:0:
275,147,94532,2,0,P|336:182|384:156,1,116.999994644165,8|0,0:0|0:0,0:0:0:0:
175,63,94840,5,0,0:0:0:0:
327,299,94994,2,0,P|368:249|359:187,1,116.999994644165,8|0,0:0|0:0,0:0:0:0:
275,147,95301,1,0,0:0:0:0:
440,360,95455,2,0,P|481:310|472:248,1,116.999994644165,8|0,0:0|0:0,0:0:0:0:
365,199,95763,1,0,0:0:0:0:
284,212,95917,2,0,L|399:192,1,116.999994644165,8|0,0:0|0:0,0:0:0:0:
132,124,96224,5,0,0:0:0:0:
108,208,96378,2,0,L|148:72,1,116.999994644165,8|0,0:0|0:0,0:0:0:0:
24,32,96686,1,8,0:0:0:0:
252,232,96840,1,0,0:0:0:0:
212,196,96917,1,0,0:0:0:0:
160,196,96994,1,8,0:0:0:0:
40,244,97147,1,0,0:0:0:0:
252,344,97301,5,0,0:0:0:0:
284,48,97455,2,0,B|304:108|304:108|276:176,1,116.999994644165,8|0,0:0|0:0,0:0:0:0:
188,104,97763,1,0,0:0:0:0:
480,268,97917,2,0,B|420:288|420:288|352:260,1,116.999994644165,8|0,0:0|0:0,0:0:0:0:
488,172,98224,1,0,0:0:0:0:
292,340,98378,2,0,P|260:276|280:224,1,116.999994644165,8|0,0:0|0:0,0:0:0:0:
348,144,98686,5,0,0:0:0:0:
220,40,98840,2,0,B|164:28|164:28|104:48,1,116.999994644165,8|0,0:0|0:0,0:0:0:0:
148,228,99147,1,8,0:0:0:0:
48,84,99301,1,0,0:0:0:0:
36,64,99378,1,0,0:0:0:0:
24,44,99455,1,8,0:0:0:0:
68,308,99609,1,0,0:0:0:0:
224,88,99763,5,0,0:0:0:0:
376,252,99917,2,0,P|304:304|240:296,1,116.999994644165,8|0,0:0|0:0,0:0:0:0:
80,108,100224,1,0,0:0:0:0:
264,192,100378,2,0,B|312:212|312:212|280:136,1,116.999994644165,8|0,0:0|0:0,0:0:0:0:
300,340,100686,1,0,0:0:0:0:
480,212,100840,2,0,L|460:332,1,116.999994644165,8|0,0:0|0:0,0:0:0:0:
348,124,101147,5,0,0:0:0:0:
208,248,101301,2,0,L|64:260,1,116.999994644165,8|0,0:0|0:0,0:0:0:0:
330,302,101609,1,8,0:0:0:0:
367,322,101686,1,0,0:0:0:0:
397,292,101763,1,0,0:0:0:0:
434,304,101840,1,0,0:0:0:0:
459,270,101917,1,8,0:0:0:0:
348,124,102071,1,0,0:0:0:0:
464,32,102224,6,0,L|496:164,1,116.999994644165,8|0,0:0|0:0,0:0:0:0:
224,244,102532,1,8,0:0:0:0:
280,140,102686,1,0,0:0:0:0:
76,316,102840,2,0,P|32:256|52:192,1,116.999994644165,8|0,0:0|0:0,0:0:0:0:
32,92,103147,2,0,L|20:4,6,58.4999973220826,0|0|0|0|0|0|0,1:0|3:0|3:0|3:0|3:0|3:0|1:0,0:0:0:0:
128,212,103763,5,0,3:0:0:0:
172,240,103840,1,0,3:0:0:0:
224,233,103917,1,0,3:0:0:0:
263,198,103994,1,0,3:0:0:0:
268,145,104071,1,0,3:0:0:0:
227,111,104147,1,0,3:0:0:0:
176,124,104224,2,0,P|240:156|396:128,1,233.999989288331,12|0,0:1|0:0,0:0:0:0:
276,32,104686,6,0,L|289:180,1,116.999994644165,8|0,0:0|0:0,0:0:0:0:
304,336,104994,1,0,0:0:0:0:
424,208,105147,1,0,0:0:0:0:
104,280,105301,1,8,0:0:0:0:
324,72,105455,2,0,P|336:138|476:209,1,233.999989288331,8|0,0:1|0:0,0:0:0:0:
460,92,105917,6,0,L|316:188,1,116.999994644165,8|0,0:0|0:0,0:0:0:0:
36,244,106224,1,0,0:0:0:0:
340,228,106378,1,0,0:0:0:0:
160,340,106532,1,8,0:0:0:0:
280,40,106686,2,0,B|145:83|145:83|57:55,1,233.999989288331,12|0,0:1|0:0,0:0:0:0:
480,56,107147,6,0,L|468:184,1,116.999994644165,8|0,0:0|0:0,0:0:0:0:
372,260,107455,1,0,0:0:0:0:
280,152,107609,1,0,0:0:0:0:
68,252,107763,1,8,0:0:0:0:
448,348,107917,2,0,P|468:232|400:108,1,233.999989288331,8|0,0:1|0:0,0:0:0:0:
204,176,108378,6,0,L|232:56,1,116.999994644165,8|0,0:0|0:0,0:0:0:0:
340,200,108686,1,0,0:0:0:0:
108,312,108840,2,0,L|256:332,1,116.999994644165,0|8,0:0|0:0,0:0:0:0:
108,20,109147,2,0,B|96:72|40:60|40:60|80:120|80:120|12:100,1,233.999989288331,8|0,0:1|0:0,0:0:0:0:
168,240,109609,6,0,B|220:280|328:240,1,116.999994644165,8|0,0:0|0:0,0:0:0:0:
356,148,109917,1,0,0:0:0:0:
228,344,110071,1,0,0:0:0:0:
112,128,110224,1,8,0:0:0:0:
408,44,110378,2,0,P|464:128|408:248,1,233.999989288331,8|0,0:1|0:0,0:0:0:0:
204,300,110840,6,0,P|144:256|152:192,1,116.999994644165,8|0,0:0|0:0,0:0:0:0:
188,112,111147,1,0,0:0:0:0:
416,242,111301,1,0,0:0:0:0:
400,284,111378,1,0,0:0:0:0:
356,304,111455,1,8,0:0:0:0:
160,52,111609,2,0,B|219:48|219:48|255:84|255:84|315:76|315:76|295:136,1,233.999989288331,12|0,0:1|0:0,0:0:0:0:
60,340,112071,6,0,L|20:216,1,116.999994644165,8|0,0:0|0:0,0:0:0:0:
424,136,112378,1,0,0:0:0:0:
332,340,112532,1,0,0:0:0:0:
156,64,112686,1,8,0:0:0:0:
392,228,112840,2,0,P|268:232|180:296,1,233.999989288331,8|0,0:1|0:0,0:0:0:0:
372,56,113301,6,0,L|232:104,1,116.999994644165,8|0,0:0|0:0,0:0:0:0:
108,152,113609,1,8,0:0:0:0:
312,328,113763,1,0,3:0:0:0:
340,298,113840,1,0,3:0:0:0:
338,257,113917,1,0,3:0:0:0:
471,47,114071,2,0,B|489:118|489:118|456:290,1,233.999989288331,12|0,0:1|0:0,0:0:0:0:
326,93,114532,6,0,L|182:71,1,116.999994644165,8|0,0:0|0:0,0:0:0:0:
28,32,114840,1,0,0:0:0:0:
164,280,114994,2,0,L|144:156,1,116.999994644165,0|8,0:0|0:0,0:0:0:0:
464,248,115301,2,0,B|412:280|404:240|404:240|352:344|276:248,1,233.999989288331,8|0,0:1|0:0,0:0:0:0:
144,124,115763,6,0,P|64:120|0:168,1,116.999994644165,8|0,0:0|0:0,0:0:0:0:
152,280,116071,1,0,0:0:0:0:
280,88,116224,1,0,0:0:0:0:
124,40,116378,1,8,0:0:0:0:
348,264,116532,2,0,P|416:236|384:92,1,233.999989288331,8|0,0:1|0:0,0:0:0:0:
144,224,116994,6,0,P|136:304|176:360,1,116.999994644165,8|0,0:0|0:0,0:0:0:0:
280,168,117301,1,0,0:0:0:0:
412,116,117455,1,0,0:0:0:0:
230,274,117609,1,8,0:0:0:0:
164,48,117763,1,0,0:0:0:0:
319,203,117917,1,8,0:0:0:0:
316,238,117994,1,8,0:0:0:0:
281,245,118071,1,0,1:0:0:0:
266,213,118147,1,0,1:0:0:0:
289,186,118224,5,0,0:0:0:0:
319,203,118301,1,0,0:0:0:0:
354,203,118378,1,0,1:0:0:0:
379,178,118455,1,0,1:0:0:0:
368,144,118532,2,0,P|324:182|316:238,1,116.999994644165,4|0,0:3|0:0,0:0:0:0:
400,336,118840,1,8,0:0:0:0:
132,176,118994,2,0,B|100:156|100:156|216:132|304:196,1,233.999989288331,12|0,1:0|0:0,0:0:0:0:
80,316,119455,6,0,P|40:260|40:188,1,116.999994644165,8|0,0:0|0:0,0:0:0:0:
244,244,119763,1,0,0:0:0:0:
160,284,119917,1,0,0:0:0:0:
348,128,120071,2,0,L|328:248,1,116.999994644165,8|0,0:0|0:0,0:0:0:0:
380,324,120378,1,0,0:0:0:0:
440,252,120532,1,0,0:0:0:0:
216,148,120686,6,0,B|160:132|160:132|48:148,1,116.999994644165,8|0,0:0|0:0,0:0:0:0:
24,228,120994,1,0,0:0:0:0:
124,288,121147,1,0,0:0:0:0:
380,144,121301,1,8,0:0:0:0:
344,340,121455,2,0,P|256:352|216:200,1,233.999989288331,12|0,1:0|0:0,0:0:0:0:
240,100,121917,5,8,0:0:0:0:
460,284,122071,1,0,0:0:0:0:
328,236,122224,1,8,0:0:0:0:
472,24,122378,1,0,0:0:0:0:
356,104,122532,1,8,0:0:0:0:
460,284,122686,1,0,3:0:0:0:
414,296,122763,1,0,3:0:0:0:
373,272,122840,1,0,3:0:0:0:
240,100,122994,1,0,0:0:0:0:
436,120,123147,5,0,0:0:0:0:
292,288,123301,2,0,P|224:304|184:272,2,116.999994644165,0|0|0,0:0|0:0|1:0,0:0:0:0:
436,120,123763,1,0,0:0:0:0:
240,100,123917,1,0,0:0:0:0:
448,272,124071,2,0,L|244:244,1,202.499993820191,4|0,0:0|0:0,0:0:0:0:
276,216,124532,6,0,L|476:243,1,202.499993820191,4|0,0:0|0:0,0:0:0:0:
452,208,124994,2,0,L|300:188,1,121.499996292114,4|0,0:0|0:0,0:0:0:0:
248,256,125301,1,0,0:0:0:0:
120,276,125455,1,0,0:0:0:0:
260,48,125609,5,0,0:0:0:0:
256,152,125763,1,0,0:0:0:0:
248,256,125917,1,0,0:0:0:0:
380,160,126071,1,0,0:0:0:0:
256,152,126224,2,0,P|208:144|184:112,1,80.9999975280763,8|0,0:0|0:0,0:0:0:0:
476,112,126532,2,0,L|448:316,1,202.499993820191,4|0,0:0|0:0,0:0:0:0:
420,284,126993,6,0,L|447:84,1,202.499993820191,4|0,0:0|0:0,0:0:0:0:
412,108,127455,2,0,L|392:260,1,121.499996292114,4|0,0:0|0:0,0:0:0:0:
244,272,127763,2,0,P|180:256|152:224,1,80.9999975280763,8|0,0:0|0:0,0:0:0:0:
280,72,128071,5,0,0:0:0:0:
384,280,128224,1,8,0:1:0:0:
180,160,128378,1,0,0:0:0:0:
380,160,128532,1,0,0:0:0:0:
176,280,128686,2,0,L|276:280,1,80.9999975280763,4|0,0:3|0:0,0:0:0:0:
24,228,128994,2,0,L|51:27,1,202.499993820191,4|0,0:0|0:0,0:0:0:0:
80,56,129455,6,0,L|53:256,1,202.499993820191,4|0,0:0|0:0,0:0:0:0:
88,232,129917,2,0,L|103:111,1,121.499996292114,4|0,0:0|0:0,0:0:0:0:
276,152,130224,2,0,L|352:144,1,53.9999983520508,0|0,1:0|1:0,0:0:0:0:
404,264,130429,2,0,L|336:288,3,53.9999983520508,8|8|0|0,0:0|0:0|0:0|0:0,0:0:0:0:
432,96,130840,2,0,L|392:172,1,53.9999983520508,8|0,0:0|0:0,0:0:0:0:
152,144,131045,2,0,L|240:120,1,53.9999983520508,8|0,0:0|0:0,0:0:0:0:
304,204,131250,2,0,L|380:192,1,53.9999983520508
424,304,131455,2,0,L|223:276,1,202.499993820191,4|0,0:0|0:0,0:0:0:0:
252,248,131916,6,0,L|452:275,1,202.499993820191,4|0,0:0|0:0,0:0:0:0:
428,240,132378,2,0,L|307:224,1,121.499996292114,4|0,0:0|0:0,0:0:0:0:
200,176,132686,1,0,0:0:0:0:
420,340,132840,1,4,0:3:0:0:
360,80,132994,5,10,0:0:0:0:
428,240,133147,1,10,0:0:0:0:
200,176,133301,1,10,0:0:0:0:
128,88,133455,1,0,0:0:0:0:
128,88,133532,1,0,0:0:0:0:
128,88,133609,1,4,0:3:0:0:
320,32,133763,1,0,0:0:0:0:
320,260,133917,2,0,L|320:132,1,116.999994644165,8|0,0:0|0:0,0:0:0:0:
208,196,134224,5,0,0:0:0:0:
436,196,134378,2,0,L|308:196,1,116.999994644165,8|0,0:0|0:0,0:0:0:0:
40,336,134686,1,0,0:0:0:0:
151,336,134840,2,0,L|268:336,1,116.999994644165,8|0,0:0|0:0,0:0:0:0:
32,120,135147,1,0,0:0:0:0:
32,200,135301,2,0,L|32:56,1,116.999994644165,8|0,0:0|0:0,0:0:0:0:
400,136,135609,5,0,0:0:0:0:
400,136,135763,2,0,B|428:192|428:192|420:252,1,116.999994644165,8|0,0:0|0:0,0:0:0:0:
328,344,136071,1,8,0:0:0:0:
196,152,136224,1,0,0:0:0:0:
246,135,136301,1,0,0:0:0:0:
294,156,136378,1,8,0:0:0:0:
163,321,136532,1,0,0:0:0:0:
81,64,136686,5,0,0:0:0:0:
384,32,136840,1,8,0:0:0:0:
239,252,136994,1,0,0:0:0:0:
412,184,137147,1,0,0:0:0:0:
188,80,137301,2,0,P|144:144|148:184,1,116.999994644165,8|0,0:0|0:0,0:0:0:0:
208,280,137609,1,0,0:0:0:0:
456,144,137763,2,0,P|372:124|312:156,1,116.999994644165,8|0,0:0|0:0,0:0:0:0:
248,200,138071,5,0,0:0:0:0:
452,352,138224,2,0,L|452:224,1,116.999994644165,8|0,0:0|0:0,0:0:0:0:
260,292,138532,1,8,0:0:0:0:
208,301,138609,1,0,0:0:0:0:
159,279,138686,1,0,0:0:0:0:
126,237,138763,1,0,0:0:0:0:
135,185,138840,2,0,B|180:168|264:208,1,116.999994644165,8|0,0:0|0:0,0:0:0:0:
380,248,139147,5,0,0:0:0:0:
212,352,139301,2,0,P|128:348|88:328,1,116.999994644165,8|0,0:0|0:0,0:0:0:0:
20,248,139609,1,0,0:0:0:0:
320,112,139763,1,8,0:0:0:0:
264,240,139917,1,0,0:0:0:0:
80,76,140071,1,0,0:0:0:0:
212,36,140224,2,0,B|272:24|272:24|352:40,1,116.999994644165,8|0,0:0|0:0,0:0:0:0:
424,120,140532,5,0,0:0:0:0:
207,244,140686,1,8,0:0:0:0:
170,214,140763,1,0,0:0:0:0:
173,167,140840,1,0,0:0:0:0:
214,145,140917,1,0,0:0:0:0:
258,159,140994,1,12,0:3:0:0:
285,196,141070,1,0,0:0:0:0:
328,213,141147,1,0,0:0:0:0:
374,204,141224,1,0,0:0:0:0:
408,172,141301,1,12,0:0:0:0:
120,272,141455,1,0,0:0:0:0:
335,128,141609,5,12,0:0:0:0:
32,163,141763,1,0,0:0:0:0:
359,251,141917,1,12,0:0:0:0:
164,212,142071,1,0,0:0:0:0:
466,116,142224,1,12,0:0:0:0:
310,336,142378,1,0,0:0:0:0:
188,84,142532,1,8,0:1:0:0:
392,132,142686,1,8,0:1:0:0:
152,72,142840,5,8,0:1:0:0:
408,44,142994,1,8,0:1:0:0:
124,96,143147,1,8,0:1:0:0:
360,304,143301,1,8,0:1:0:0:
208,40,143455,1,8,0:1:0:0:
112,328,143609,1,6,0:0:0:0:
88,156,148532,5,6,0:0:0:0:
464,220,152224,5,2,0:0:0:0:
216,268,152378,1,8,0:0:0:0:
352,84,152532,1,8,0:0:0:0:
377,129,152609,1,0,0:0:0:0:
366,180,152686,1,0,0:0:0:0:
204,48,152840,1,0,0:0:0:0:
256,272,152994,1,8,0:0:0:0:
377,129,153147,2,0,P|304:120|236:140,1,121.499996292114
108,196,153455,2,0,P|188:232|288:228,1,161.999995056153,4|0,0:1|0:0,0:0:0:0:
180,344,153917,6,0,P|128:356|64:352,1,80.9999975280763
352,212,154224,2,0,L|460:252,1,80.9999975280763,12|0,0:0|0:0,0:0:0:0:
184,268,154686,2,0,L|272:284,1,80.9999975280763
404,112,155147,2,0,L|380:208,1,80.9999975280763
204,128,155455,2,0,L|164:208,1,80.9999975280763,8|0,0:0|0:0,0:0:0:0:
384,20,155917,2,0,L|288:168,1,161.999995056153,4|0,0:1|0:0,0:0:0:0:
112,308,156378,6,0,L|140:220,1,80.9999975280763
284,304,156686,2,0,L|396:296,1,80.9999975280763,12|0,0:0|0:0,0:0:0:0:
432,176,156994,1,0,0:0:0:0:
276,76,157147,1,0,3:0:0:0:
276,76,157224,1,0,3:0:0:0:
276,76,157301,1,0,3:0:0:0:
160,204,157455,1,0,3:0:0:0:
336,336,157609,6,0,P|344:268|324:232,1,80.9999975280763,0|0,3:0|0:0,0:0:0:0:
276,104,157917,2,0,L|216:200,1,80.9999975280763,8|0,0:0|0:0,0:0:0:0:
148,72,158378,1,4,0:1:0:0:
160,92,158686,1,0,0:0:0:0:
236,200,158840,2,0,L|324:220,2,80.9999975280763,8|0|0,0:0|0:0|0:0,0:0:0:0:
76,308,159301,2,0,P|132:336|164:344,1,80.9999975280763,8|0,0:0|0:0,0:0:0:0:
296,328,159609,1,0,0:0:0:0:
476,244,159763,2,0,P|416:216|336:224,1,116.999994644165,8|0,0:0|0:0,0:0:0:0:
184,48,160071,6,0,P|264:36|316:52,1,116.999994644165,8|0,0:0|0:0,0:0:0:0:
400,124,160378,1,8,0:0:0:0:
148,172,160532,1,0,0:0:0:0:
296,340,160686,2,0,P|312:276|296:228,1,116.999994644165,8|0,0:0|0:0,0:0:0:0:
228,144,160917,1,0,0:0:0:0:
228,144,160994,2,0,L|376:136,1,116.999994644165,8|0,0:0|0:0,0:0:0:0:
108,40,161301,5,8,0:0:0:0:
280,72,161455,1,0,0:0:0:0:
80,136,161609,1,8,0:0:0:0:
316,208,161763,1,0,0:0:0:0:
104,332,161917,2,0,L|128:208,1,116.999994644165,8|0,0:0|0:0,0:0:0:0:
224,76,162224,1,0,1:0:0:0:
238,66,162301,1,0,3:0:0:0:
254,60,162378,1,0,3:0:0:0:
271,57,162455,1,0,3:0:0:0:
287,64,162532,5,0,1:0:0:0:
298,77,162609,1,0,3:0:0:0:
303,93,162686,1,0,3:0:0:0:
296,109,162763,1,0,3:0:0:0:
288,125,162840,1,0,1:0:0:0:
277,139,162917,1,0,3:0:0:0:
268,154,162994,1,0,3:0:0:0:
264,171,163071,1,0,3:0:0:0:
264,188,163147,1,0,1:0:0:0:
270,204,163224,1,0,3:0:0:0:
280,218,163301,1,0,3:0:0:0:
289,232,163378,1,0,3:0:0:0:
295,248,163455,1,4,1:0:0:0:
88,160,164378,5,2,0:3:0:0:
464,220,164686,1,8,0:0:0:0:
32,16,165147,5,0,0:0:0:0:
320,212,165609,1,0,0:0:0:0:
44,240,165917,1,4,0:1:0:0:
320,108,168224,5,0,0:0:0:0:
216,192,168532,1,0,0:0:0:0:
416,272,168686,2,0,P|372:260|332:280,1,80.9999975280763
156,240,168994,1,0,0:0:0:0:
308,148,169147,2,0,P|356:140|408:152,1,80.9999975280763
260,60,169455,1,0,0:0:0:0:
356,216,169763,1,0,0:0:0:0:
260,344,169917,6,0,P|216:344|180:331,1,80.9999975280763
84,256,170224,1,0,0:0:0:0:
292,152,170378,2,0,P|352:144|388:152,1,80.9999975280763
180,264,170686,2,0,P|140:204|164:112,1,161.999995056153
412,216,171147,6,0,L|320:212,1,80.9999975280763
476,108,171455,1,0,0:0:0:0:
476,256,171609,2,0,L|476:352,1,80.9999975280763
296,272,171917,2,0,P|253:207|277:115,1,161.999995056153
429,175,172532,5,0,0:0:0:0:
391,199,172609,1,0,0:0:0:0:
348,186,172686,1,8,0:0:0:0:
472,352,172840,1,8,0:0:0:0:
232,72,173147,2,0,P|244:72|424:220,1,263.249987949372,4|0,0:1|0:0,0:0:0:0:
212,248,173609,6,0,L|76:200,1,116.999994644165,8|0,0:0|0:0,0:0:0:0:
75,184,173840,1,0,0:0:0:0:
61,151,173917,2,0,L|108:91,3,58.4999973220826,0|0|0|0,1:0|0:0|0:0|0:0,0:0:0:0:
239,186,174224,1,0,1:0:0:0:
272,219,174301,1,0,0:0:0:0:
277,265,174378,1,0,0:0:0:0:
250,303,174455,1,0,0:0:0:0:
204,314,174532,2,0,L|180:224,3,58.4999973220826,8|0|0|0,0:0|0:0|0:0|0:0,0:0:0:0:
288,96,174840,5,0,1:0:0:0:
322,87,174917,1,0,0:0:0:0:
351,105,174994,1,0,0:0:0:0:
358,139,175071,1,0,0:0:0:0:
337,166,175147,1,0,1:0:0:0:
303,175,175224,1,0,0:0:0:0:
274,157,175301,1,0,0:0:0:0:
267,123,175378,1,0,0:0:0:0:
313,129,175455,1,0,1:0:0:0:
337,166,175532,1,0,0:0:0:0:
336,212,175609,1,0,0:0:0:0:
308,250,175686,1,0,0:0:0:0:
261,257,175763,2,0,L|181:228,3,58.4999973220826,8|0|0|0,0:0|0:0|0:0|0:0,0:0:0:0:
412,204,176071,6,0,L|472:152,3,58.4999973220826,8|0|0|0,0:0|0:0|0:0|0:0,0:0:0:0:
284,88,176378,1,0,1:0:0:0:
241,69,176455,1,0,0:0:0:0:
194,62,176532,1,0,0:0:0:0:
148,74,176609,1,0,0:0:0:0:
112,104,176686,1,0,0:0:0:0:
235,211,176840,2,0,P|332:244|452:168,1,233.999989288331,4|0,0:0|0:0,0:0:0:0:
441,184,177224,1,0,0:0:0:0:
416,224,177301,5,0,0:0:0:0:
412,272,177378,1,0,0:0:0:0:
428,316,177455,1,0,0:0:0:0:
468,340,177532,1,0,0:0:0:0:
452,296,177609,2,0,P|388:280|320:292,1,116.999994644165,4|0,0:3|0:0,0:0:0:0:
112,152,178071,2,0,P|204:68|236:144,1,233.999989288331,12|0,0:1|0:0,0:0:0:0:
208,360,178532,6,0,L|192:236,1,116.999994644165,8|0,0:0|0:0,0:0:0:0:
280,120,178840,1,0,0:0:0:0:
140,176,178994,1,0,0:0:0:0:
464,184,179147,1,8,0:0:0:0:
144,52,179301,2,2,P|76:128|112:260,1,233.999989288331,8|0,0:1|0:0,1:0:0:0:
368,164,179763,6,0,P|368:232|320:284,1,116.999994644165,8|0,0:0|0:0,0:0:0:0:
228,104,180071,1,0,0:0:0:0:
128,340,180224,1,0,0:0:0:0:
436,264,180378,1,8,0:0:0:0:
132,224,180532,2,0,P|236:232|324:120,1,233.999989288331,8|0,0:1|0:0,0:0:0:0:
24,128,180994,6,0,L|12:252,1,116.999994644165,8|0,0:0|0:0,0:0:0:0:
172,324,181301,1,0,0:0:0:0:
264,136,181455,1,0,0:0:0:0:
56,340,181609,1,8,0:0:0:0:
364,304,181763,2,0,B|336:208|336:208|392:56,1,233.999989288331,8|0,0:1|0:0,0:0:0:0:
224,184,182224,6,0,P|152:200|92:180,1,116.999994644165,8|0,0:0|0:0,0:0:0:0:
216,48,182532,1,0,0:0:0:0:
360,288,182686,1,0,0:0:0:0:
220,268,182840,1,8,0:0:0:0:
476,152,182994,2,0,B|432:144|412:184|412:184|396:140|396:140|320:152|300:96,1,233.999989288331,12|0,0:1|0:0,0:0:0:0:
72,252,183455,6,0,P|112:204|184:192,1,116.999994644165,8|0,0:0|0:0,0:0:0:0:
400,228,183763,1,0,0:0:0:0:
212,360,183917,2,0,P|188:300|208:232,1,116.999994644165,0|8,0:0|0:0,0:0:0:0:
368,28,184224,2,0,P|404:128|348:240,1,233.999989288331,8|0,0:1|0:0,0:0:0:0:
98,330,184686,6,0,L|238:366,1,116.999994644165,8|0,0:0|0:0,0:0:0:0:
400,132,184994,1,0,0:0:0:0:
200,228,185147,1,0,0:0:0:0:
200,228,185224,1,0,0:0:0:0:
200,228,185301,1,8,0:0:0:0:
432,304,185455,2,0,P|384:228|244:160,1,233.999989288331,12|0,0:1|0:0,0:0:0:0:
72,284,185917,6,0,P|160:304|216:284,1,116.999994644165,8|0,0:0|0:0,0:0:0:0:
364,208,186224,1,0,0:0:0:0:
140,40,186378,2,0,P|108:88|128:164,1,116.999994644165,8|0,0:0|0:0,0:0:0:0:
284,92,186686,1,0,0:0:0:0:
176,260,186840,2,0,L|36:268,1,116.999994644165,8|0,0:0|0:0,0:0:0:0:
328,356,187147,6,0,L|464:336,1,116.999994644165,8|0,0:0|0:0,0:0:0:0:
296,56,187455,1,0,3:0:0:0:
256,91,187532,1,0,3:0:0:0:
244,142,187609,1,0,3:0:0:0:
262,191,187686,1,0,3:0:0:0:
287,236,187763,1,0,3:0:0:0:
281,288,187840,1,0,3:0:0:0:
245,326,187917,2,0,P|168:329|70:201,1,233.999989288331,12|0,0:1|0:0,0:0:0:0:
348,184,188378,6,0,P|404:164|448:96,1,116.999994644165,12|0,0:0|0:0,0:0:0:0:
108,44,188686,1,0,0:0:0:0:
328,76,188840,1,0,0:0:0:0:
48,200,188994,1,8,0:0:0:0:
276,344,189147,2,0,B|276:212|328:280|328:280|272:316|180:268,1,233.999989288331,8|0,0:1|0:0,0:0:0:0:
412,80,189609,6,0,P|336:116|252:96,1,116.999994644165,8|0,0:0|0:0,0:0:0:0:
148,68,189917,1,0,0:0:0:0:
88,316,190071,2,0,P|80:232|108:180,1,116.999994644165,0|8,0:0|0:0,0:0:0:0:
384,272,190378,2,0,P|336:200|368:284,1,233.999989288331,8|0,0:1|0:0,0:0:0:0:
476,80,190840,6,0,P|476:168|456:208,1,116.999994644165,8|0,0:0|0:0,0:0:0:0:
280,352,191147,1,0,0:0:0:0:
396,340,191301,1,0,0:0:0:0:
164,364,191455,1,8,0:0:0:0:
248,44,191609,2,0,P|308:136|288:264,1,233.999989288331,8|0,0:1|0:0,0:0:0:0:
32,160,192071,6,0,P|112:184|164:180,1,116.999994644165,8|0,0:0|0:0,0:0:0:0:
76,76,192378,1,0,0:0:0:0:
356,88,192532,1,0,0:0:0:0:
212,140,192686,1,8,0:0:0:0:
432,316,192840,2,0,B|348:352|348:352|176:328,1,233.999989288331,12|0,0:1|0:0,0:0:0:0:
312,164,193301,6,0,L|456:140,1,116.999994644165,8|0,0:0|0:0,0:0:0:0:
288,288,193609,1,0,0:0:0:0:
132,68,193763,1,0,0:0:0:0:
396,244,193917,1,8,0:0:0:0:
204,132,194071,2,0,P|276:120|332:128,1,116.999994644165
140,232,194378,1,0,0:0:0:0:
364,332,194532,6,0,P|388:268|364:200,1,116.999994644165,8|0,0:0|0:0,0:0:0:0:
248,232,194840,1,0,0:0:0:0:
480,96,194994,1,0,0:0:0:0:
204,64,195147,1,8,0:0:0:0:
376,272,195301,1,0,0:0:0:0:
376,272,195378,1,0,0:0:0:0:
376,272,195455,1,4,0:3:0:0:
148,148,195609,1,0,0:0:0:0:
392,132,195763,5,12,0:0:0:0:
144,292,195917,1,0,0:0:0:0:
152,56,196071,1,12,0:0:0:0:
100,320,196224,1,0,0:0:0:0:
320,144,196378,1,12,0:0:0:0:
52,180,196532,1,0,0:0:0:0:
288,308,196686,1,0,3:0:0:0:
288,308,196763,1,0,3:0:0:0:
288,308,196840,1,0,3:0:0:0:
424,176,196994,5,0,0:0:0:0:
172,228,197147,1,2,0:0:0:0:
444,88,197301,1,8,0:0:0:0:
188,192,197455,1,0,0:0:0:0:
348,300,197609,1,8,0:0:0:0:
288,32,197763,1,4,0:0:0:0:
