osu file format v14

[General]
AudioFilename: audio.mp3
AudioLeadIn: 0
PreviewTime: 159692
Countdown: 0
SampleSet: Soft
StackLeniency: 0.7
Mode: 0
LetterboxInBreaks: 0
WidescreenStoryboard: 0

[Editor]
DistanceSpacing: 1.8
BeatDivisor: 4
GridSize: 4
TimelineZoom: 1

[Metadata]
Title:The Foundations Of Decay
TitleUnicode:The Foundations Of Decay
Artist:My Chemical Romance
ArtistUnicode:My Chemical Romance
Creator:Blitzifyyy
Version:Canonization
Source:
Tags:gerard way mikey frank iero ray toro jarrod alexander mcr pop punk emo alternative progressive rock english
BeatmapID:3637200
BeatmapSetID:1776191

[Difficulty]
HPDrainRate:5
CircleSize:4.8
OverallDifficulty:8.4
ApproachRate:8.8
SliderMultiplier:2
SliderTickRate:1

[Events]
//Background and Video events
0,0,"aaa.jpg",0,0
//Break Periods
//Storyboard Layer 0 (Background)
//Storyboard Layer 1 (Fail)
//Storyboard Layer 2 (Pass)
//Storyboard Layer 3 (Foreground)
//Storyboard Layer 4 (Overlay)
//Storyboard Sound Samples

[TimingPoints]
492,400,4,2,1,35,1,0
18892,-100,4,2,1,5,0,0
19692,-333.333333333333,4,2,1,45,0,0
21591,-333.333333333333,4,2,1,5,0,0
21692,-333.333333333333,4,2,1,45,0,0
25591,-333.333333333333,4,2,1,5,0,0
25692,-333.333333333333,4,2,1,45,0,0
31991,-333.333333333333,4,2,1,5,0,0
32092,-333.333333333333,4,2,1,45,0,0
36691,-333.333333333333,4,2,1,15,0,0
36892,-333.333333333333,4,2,1,45,0,0
37491,-333.333333333333,4,2,1,5,0,0
37692,-333.333333333333,4,2,1,45,0,0
38291,-333.333333333333,4,2,1,15,0,0
38492,-333.333333333333,4,2,1,45,0,0
41491,-333.333333333333,4,2,1,15,0,0
41692,-333.333333333333,4,2,1,45,0,0
45292,-200,4,2,1,55,0,0
48692,-200,4,2,1,5,0,0
48892,-200,4,2,1,55,0,0
49492,-200,4,2,1,5,0,0
49692,-200,4,2,1,55,0,0
52692,-200,4,2,1,5,0,0
52892,-200,4,2,1,55,0,0
53492,-200,4,2,1,5,0,0
53692,-200,4,2,1,55,0,0
57992,-200,4,2,1,5,0,0
58092,-200,4,2,1,55,0,0
70792,-200,4,2,1,5,0,0
70892,-142.857142857143,4,2,1,65,0,0
71191,-142.857142857143,4,2,1,5,0,0
71292,-142.857142857143,4,2,1,65,0,0
74391,-142.857142857143,4,2,1,5,0,0
74492,-142.857142857143,4,2,1,65,0,0
75991,-142.857142857143,4,2,1,5,0,0
76092,-142.857142857143,4,2,1,65,0,0
76791,-142.857142857143,4,2,1,5,0,0
76892,-142.857142857143,4,2,1,65,0,0
77591,-142.857142857143,4,2,1,5,0,0
77692,-142.857142857143,4,2,1,65,0,0
78892,-111.111111111111,4,2,1,65,0,0
78991,-111.111111111111,4,2,1,5,0,0
79092,-111.111111111111,4,2,1,65,0,0
83092,-333.333333333333,4,2,1,65,0,0
83591,-333.333333333333,4,2,1,5,0,0
83692,-90.9090909090909,4,2,1,85,0,1
86192,-90.9090909090909,4,2,1,5,0,1
86292,-90.9090909090909,4,2,1,85,0,1
89392,-90.9090909090909,4,2,1,5,0,1
89492,-90.9090909090909,4,2,1,85,0,1
92592,-90.9090909090909,4,2,1,5,0,1
92692,-90.9090909090909,4,2,1,85,0,1
96992,-90.9090909090909,4,2,1,5,0,1
97092,-90.9090909090909,4,2,1,85,0,1
97992,-90.9090909090909,4,2,1,5,0,1
98092,-90.9090909090909,4,2,1,85,0,1
98192,-90.9090909090909,4,2,1,5,0,1
98292,-90.9090909090909,4,2,1,85,0,1
105392,-90.9090909090909,4,2,1,5,0,1
105492,-90.9090909090909,4,2,1,85,0,1
112792,-90.9090909090909,4,2,1,5,0,1
112892,-111.111111111111,4,2,1,85,0,1
113191,-111.111111111111,4,2,1,5,0,1
113292,-142.857142857143,4,2,1,85,0,1
113591,-142.857142857143,4,2,1,5,0,1
113692,-200,4,2,1,85,0,1
113992,-200,4,2,1,5,0,1
114092,-200,4,2,1,45,0,0
115692,-333.333333333333,4,2,1,45,0,0
118391,-333.333333333333,4,2,1,5,0,0
118492,-333.333333333333,4,2,1,45,0,0
121191,-333.333333333333,4,2,1,5,0,0
121292,-333.333333333333,4,2,1,45,0,0
122092,-200,4,2,1,55,0,0
125492,-200,4,2,1,5,0,0
125692,-200,4,2,1,55,0,0
134792,-200,4,2,1,5,0,0
134892,-200,4,2,1,55,0,0
141492,-200,4,2,1,5,0,0
141692,-200,4,2,1,55,0,0
142292,-200,4,2,1,5,0,0
142492,-200,4,2,1,55,0,0
147592,-200,4,2,1,5,0,0
147692,-142.857142857143,4,2,1,65,0,0
147991,-142.857142857143,4,2,1,5,0,0
148092,-142.857142857143,4,2,1,65,0,0
151191,-142.857142857143,4,2,1,5,0,0
151292,-142.857142857143,4,2,1,65,0,0
152791,-142.857142857143,4,2,1,5,0,0
152892,-142.857142857143,4,2,1,65,0,0
153591,-142.857142857143,4,2,1,5,0,0
153692,-142.857142857143,4,2,1,65,0,0
154391,-142.857142857143,4,2,1,5,0,0
154492,-142.857142857143,4,2,1,65,0,0
155692,-111.111111111111,4,2,1,65,0,0
155791,-111.111111111111,4,2,1,5,0,0
155892,-111.111111111111,4,2,1,65,0,0
159892,-333.333333333332,4,2,1,65,0,0
160391,-333.333333333332,4,2,1,5,0,0
160492,-90.9090909090909,4,2,1,85,0,1
162992,-90.9090909090909,4,2,1,5,0,1
163092,-90.9090909090909,4,2,1,85,0,1
166192,-90.9090909090909,4,2,1,5,0,1
166292,-90.9090909090909,4,2,1,85,0,1
169392,-90.9090909090909,4,2,1,5,0,1
169492,-90.9090909090909,4,2,1,85,0,1
173792,-90.9090909090909,4,2,1,5,0,1
173892,-90.9090909090909,4,2,1,85,0,1
174992,-90.9090909090909,4,2,1,5,0,1
175092,-90.9090909090909,4,2,1,85,0,1
182192,-90.9090909090909,4,2,1,5,0,1
182292,-90.9090909090909,4,2,1,85,0,1
192492,-111.111111111111,4,2,1,65,0,0
192791,-111.111111111111,4,2,1,5,0,0
192892,-222.222222222222,4,2,1,65,0,0
194092,-111.111111111111,4,2,1,65,0,0
194391,-111.111111111111,4,2,1,5,0,0
194492,-222.222222222222,4,2,1,65,0,0
195692,-111.111111111111,4,2,1,65,0,0
195991,-111.111111111111,4,2,1,5,0,0
196092,-222.222222222222,4,2,1,65,0,0
196491,-222.222222222222,4,2,1,45,0,0
198892,-111.111111111111,4,2,1,65,0,0
199191,-111.111111111111,4,2,1,5,0,0
199292,-222.222222222222,4,2,1,65,0,0
200492,-111.111111111111,4,2,1,65,0,0
200791,-111.111111111111,4,2,1,5,0,0
200892,-222.222222222222,4,2,1,65,0,0
202092,-111.111111111111,4,2,1,65,0,0
202391,-111.111111111111,4,2,1,5,0,0
202492,-222.222222222222,4,2,1,65,0,0
204492,-333.333333333333,4,2,1,65,0,0
205191,-333.333333333333,4,2,1,5,0,0
205292,-90.9090909090909,4,2,1,85,0,1
205392,-90.9090909090909,4,2,1,5,0,1
205492,-90.9090909090909,4,2,1,85,0,1
205892,-90.9090909090909,4,2,1,5,0,1
206092,-181.818181818182,4,2,1,85,0,1
206692,-181.818181818182,4,2,1,5,0,1
206892,-90.9090909090909,4,2,1,85,0,1
206992,-90.9090909090909,4,2,1,5,0,1
207092,-90.9090909090909,4,2,1,85,0,1
207492,-90.9090909090909,4,2,1,5,0,1
207692,-181.818181818182,4,2,1,85,0,1
208292,-181.818181818182,4,2,1,5,0,1
208492,-90.9090909090909,4,2,1,85,0,1
208592,-90.9090909090909,4,2,1,5,0,1
208692,-90.9090909090909,4,2,1,85,0,1
209092,-90.9090909090909,4,2,1,5,0,1
209292,-181.818181818182,4,2,1,85,0,1
209892,-181.818181818182,4,2,1,5,0,1
210092,-181.818181818182,4,2,1,85,0,1
211092,-333.333333333333,4,2,1,85,0,1
211692,-90.9090909090909,4,2,1,85,0,1
211792,-90.9090909090909,4,2,1,5,0,1
211892,-90.9090909090909,4,2,1,85,0,1
212292,-90.9090909090909,4,2,1,5,0,1
212492,-181.818181818182,4,2,1,85,0,1
213092,-181.818181818182,4,2,1,5,0,1
213292,-90.9090909090909,4,2,1,85,0,1
213392,-90.9090909090909,4,2,1,5,0,1
213492,-90.9090909090909,4,2,1,85,0,1
213892,-90.9090909090909,4,2,1,5,0,1
214092,-181.818181818182,4,2,1,85,0,1
214692,-181.818181818182,4,2,1,5,0,1
214892,-90.9090909090909,4,2,1,85,0,1
214992,-90.9090909090909,4,2,1,5,0,1
215092,-90.9090909090909,4,2,1,85,0,1
215492,-90.9090909090909,4,2,1,5,0,1
215692,-181.818181818182,4,2,1,85,0,1
216292,-181.818181818182,4,2,1,5,0,1
216492,-181.818181818182,4,2,1,85,0,1
217092,-90.9090909090909,4,2,1,85,0,1
217192,-90.9090909090909,4,2,1,5,0,1
217292,-90.9090909090909,4,2,1,85,0,1
217392,-90.9090909090909,4,2,1,5,0,1
217492,-90.9090909090909,4,2,1,85,0,1
218192,-90.9090909090909,4,2,1,5,0,1
218292,-90.9090909090909,4,2,1,85,0,1
218892,-181.818181818182,4,2,1,85,0,1
219692,-90.9090909090909,4,2,1,85,0,1
219792,-90.9090909090909,4,2,1,5,0,1
219892,-90.9090909090909,4,2,1,85,0,1
220292,-90.9090909090909,4,2,1,5,0,1
220492,-181.818181818182,4,2,1,85,0,1
221292,-90.9090909090909,4,2,1,85,0,1
221392,-90.9090909090909,4,2,1,5,0,1
221492,-90.9090909090909,4,2,1,85,0,1
222092,-181.818181818182,4,2,1,85,0,1
223892,-333.333333333333,4,2,1,85,0,1
224492,-90.9090909090909,4,2,1,85,0,1
224592,-90.9090909090909,4,2,1,5,0,1
224692,-90.9090909090909,4,2,1,85,0,1
225092,-90.9090909090909,4,2,1,5,0,1
225292,-181.818181818182,4,2,1,85,0,1
226092,-90.9090909090909,4,2,1,85,0,1
226192,-90.9090909090909,4,2,1,5,0,1
226292,-90.9090909090909,4,2,1,85,0,1
226692,-90.9090909090909,4,2,1,5,0,1
226892,-181.818181818182,4,2,1,85,0,1
227692,-90.9090909090909,4,2,1,85,0,1
227792,-90.9090909090909,4,2,1,5,0,1
227892,-90.9090909090909,4,2,1,85,0,1
228492,-181.818181818182,4,2,1,85,0,1
229692,-90.9090909090909,4,2,1,85,0,1
229792,-90.9090909090909,4,2,1,5,0,1
229892,-90.9090909090909,4,2,1,85,0,1
230392,-90.9090909090909,4,2,1,5,0,1
230492,-90.9090909090909,4,2,1,85,0,1
230992,-90.9090909090909,4,2,1,5,0,1
231092,-90.9090909090909,4,2,1,85,0,1
231492,-90.9090909090909,4,2,1,5,0,1
231692,-181.818181818182,4,2,1,85,0,1
232292,-181.818181818182,4,2,1,5,0,1
232492,-90.9090909090909,4,2,1,85,0,1
232592,-90.9090909090909,4,2,1,5,0,1
232692,-90.9090909090909,4,2,1,85,0,1
233092,-90.9090909090909,4,2,1,5,0,1
233292,-181.818181818182,4,2,1,85,0,1
233992,-181.818181818182,4,2,1,5,0,1
234092,-90.9090909090909,4,2,1,85,0,1
234192,-90.9090909090909,4,2,1,5,0,1
234292,-90.9090909090909,4,2,1,85,0,1
234692,-90.9090909090909,4,2,1,5,0,1
234892,-181.818181818182,4,2,1,85,0,1
236692,-333.333333333333,4,2,1,85,0,1
237292,-90.9090909090909,4,2,1,85,0,1
237392,-90.9090909090909,4,2,1,5,0,1
237492,-90.9090909090909,4,2,1,85,0,1
237892,-90.9090909090909,4,2,1,5,0,1
238092,-181.818181818182,4,2,1,85,0,1
238892,-90.9090909090909,4,2,1,85,0,1
238992,-90.9090909090909,4,2,1,5,0,1
239092,-90.9090909090909,4,2,1,85,0,1
239692,-181.818181818182,4,2,1,85,0,1
240392,-181.818181818182,4,2,1,5,0,1
240492,-90.9090909090909,4,2,1,85,0,1
240692,-90.9090909090909,4,2,1,85,0,1
241092,-90.9090909090909,4,2,1,5,0,1
241292,-181.818181818182,4,2,1,85,0,1
243692,-111.111111111111,4,2,1,75,0,0
269292,-90.9090909090909,4,2,1,85,0,1
271792,-90.9090909090909,4,2,1,5,0,1
271892,-90.9090909090909,4,2,1,85,0,1
274992,-90.9090909090909,4,2,1,5,0,1
275092,-90.9090909090909,4,2,1,85,0,1
276592,-90.9090909090909,4,2,1,5,0,1
276692,-90.9090909090909,4,2,1,85,0,1
278192,-90.9090909090909,4,2,1,5,0,1
278292,-90.9090909090909,4,2,1,85,0,1
283792,-90.9090909090909,4,2,1,5,0,1
283892,-90.9090909090909,4,2,1,85,0,1
290692,-90.9090909090909,4,2,1,5,0,1
290892,-90.9090909090909,4,2,1,85,0,1
299592,-90.9090909090909,4,2,1,5,0,1
299692,-90.9090909090909,4,2,1,85,0,1
299792,-90.9090909090909,4,2,1,5,0,1
299892,-90.9090909090909,4,2,1,85,0,1
301292,-666.666666666667,4,2,1,45,0,0
318691,-666.666666666667,4,2,1,5,0,0
318892,-666.666666666667,4,2,1,45,0,0
320291,-666.666666666667,4,2,1,5,0,0
320492,-666.666666666667,4,2,1,45,0,0
323492,-333.333333333333,4,2,1,45,0,0
326092,-666.666666666667,4,2,1,45,0,0
326791,-666.666666666667,4,2,1,5,0,0
326892,-111.111111111111,4,2,1,65,0,0
327191,-111.111111111111,4,2,1,5,0,0
327292,-222.222222222222,4,2,1,65,0,0
327591,-222.222222222222,4,2,1,5,0,0
327692,-500,4,2,1,65,0,0
328492,-111.111111111111,4,2,1,65,0,0
328791,-111.111111111111,4,2,1,5,0,0
328892,-222.222222222222,4,2,1,65,0,0
329191,-222.222222222222,4,2,1,5,0,0
329292,-500,4,2,1,65,0,0
330092,-111.111111111111,4,2,1,65,0,0
330391,-111.111111111111,4,2,1,5,0,0
330492,-222.222222222222,4,2,1,65,0,0
330791,-222.222222222222,4,2,1,5,0,0
330892,-500,4,2,1,65,0,0
355092,-500,4,2,1,5,0,0

[Colours]
Combo1 : 192,192,192
Combo2 : 65,65,65
Combo3 : 116,116,116

[HitObjects]
256,192,8492,12,0,18892,0:0:0:0:
52,100,19692,6,0,L|118:94,1,59.9999981689454,2|0,2:0|0:2,0:0:0:0:
191,30,20492,2,0,L|257:36,1,59.9999981689454,2|0,2:0|0:2,0:0:0:0:
330,99,21292,2,0,P|341:126|337:151,1,44.999998626709,2|0,2:0|0:0,0:0:0:0:
328,159,21692,1,0,0:2:0:0:
239,222,22092,2,0,L|175:218,1,59.9999981689454,2|0,2:0|0:2,0:0:0:0:
59,306,22892,6,0,P|90:297|120:306,1,59.9999981689454,2|0,2:0|0:2,0:0:0:0:
186,371,23692,2,0,P|217:380|247:371,1,59.9999981689454,2|0,2:0|0:2,0:0:0:0:
329,306,24492,2,0,L|326:236,1,59.9999981689454,2|0,2:0|0:2,0:0:0:0:
269,171,25292,2,0,L|272:115,1,44.999998626709,2|0,2:0|0:0,0:0:0:0:
276,99,25692,1,2,2:0:0:0:
340,69,25892,1,2,2:0:0:0:
400,107,26092,6,0,B|409:137|409:137|400:169,1,59.9999981689454,2|0,2:0|0:2,0:0:0:0:
332,230,26892,2,0,B|323:260|323:260|332:292,1,59.9999981689454,2|0,2:0|0:2,0:0:0:0:
388,375,27692,2,0,L|323:371,1,59.9999981689454,2|0,2:0|0:2,0:0:0:0:
239,317,28492,2,0,L|174:321,1,59.9999981689454,2|0,2:0|0:2,0:0:0:0:
101,362,29092,1,0,0:0:0:0:
101,362,29292,6,0,P|88:331|95:298,1,59.9999981689454,2|0,2:0|0:2,0:0:0:0:
154,234,30092,2,0,P|167:203|160:170,1,59.9999981689454,2|0,2:0|0:2,0:0:0:0:
98,104,30892,2,0,L|164:102,1,59.9999981689454,2|0,2:0|0:2,0:0:0:0:
244,44,31692,2,0,L|297:46,1,44.999998626709,2|0,2:0|0:0,0:0:0:0:
306,48,32092,1,2,2:0:0:0:
377,156,32292,6,0,B|345:139|304:166|328:187|291:212|245:192,1,149.999995422363,2|2,2:0|2:0,0:0:0:0:
147,102,33692,1,2,2:0:0:0:
67,204,33892,6,0,B|68:268|68:268|60:287|60:287|59:393|59:393|60:345|83:314,1,269.999991760254,2|0,2:0|0:2,0:0:0:0:
198,275,36092,5,2,2:0:0:0:
273,333,36292,2,0,L|339:331,1,59.9999981689454,2|0,2:0|0:0,0:0:0:0:
456,247,36892,1,2,2:0:0:0:
396,191,37092,2,0,P|363:185|329:197,1,59.9999981689454,2|0,2:0|0:0,0:0:0:0:
211,278,37692,1,2,2:0:0:0:
157,214,37892,2,0,L|157:142,1,59.9999981689454,2|0,2:0|0:0,0:0:0:0:
233,49,38492,1,2,2:0:0:0:
313,76,38692,6,0,B|348:78|360:109|360:109|420:110|456:65|435:14|435:14|427:54|401:63,1,269.999991760254,2|0,2:0|0:2,0:0:0:0:
286,148,40892,1,2,2:0:0:0:
227,209,41092,2,0,L|229:274,1,59.9999981689454,2|0,2:0|0:0,0:0:0:0:
305,364,41692,1,2,2:0:0:0:
363,303,41892,6,0,B|413:269|459:303|459:303|505:337|542:296|542:296|511:313|473:286,1,269.999991760254,2|2,2:0|2:0,0:0:0:0:
38,140,45292,6,0,B|77:115|123:140|104:155|152:173|197:153|197:153|180:159|162:154,1,200,6|10,1:2|2:0,0:0:0:0:
338,103,46492,1,2,2:0:0:0:
401,166,46692,1,2,2:0:0:0:
340,232,46892,2,0,L|234:231,2,100,2|2|10,1:2|1:2|2:0,0:0:0:0:
475,113,48092,1,2,2:0:0:0:
398,65,48292,6,0,P|350:50|300:69,1,100,2|0,2:0|0:0,0:0:0:0:
235,124,48892,1,2,2:0:0:0:
235,124,49092,2,0,B|236:158|236:158|240:171|240:171|242:230,1,100,2|0,2:0|0:0,0:0:0:0:
251,312,49692,1,2,2:0:0:0:
177,363,49892,1,2,2:0:0:0:
105,307,50092,2,0,P|57:290|12:309,2,100,2|2|10,1:2|1:2|2:0,0:0:0:0:
179,255,51092,1,2,1:2:0:0:
417,382,51692,6,0,L|413:266,1,100,2|2,1:2|2:0,0:0:0:0:
339,231,52292,2,0,P|291:215|242:232,1,100,2|0,2:0|0:0,0:0:0:0:
190,301,52892,1,2,2:0:0:0:
190,301,53092,2,0,P|142:317|93:300,1,100,2|0,2:0|0:0,0:0:0:0:
29,248,53692,1,2,1:2:0:0:
29,248,53892,2,0,L|30:187,1,50,2|10,2:0|2:0,0:0:0:0:
89,130,54292,2,0,L|88:69,1,50,2|0,2:0|0:0,0:0:0:0:
43,2,54692,1,2,2:0:0:0:
43,2,54892,6,0,P|91:-11|152:19,1,100,2|0,1:2|0:0,0:0:0:0:
264,132,55692,2,0,L|150:131,1,100,10|0,2:0|0:0,0:0:0:0:
100,194,56292,1,0,0:0:0:0:
100,194,56492,2,0,P|121:240|104:286,2,100,2|2|10,1:2|1:2|2:0,0:0:0:0:
32,134,57492,1,2,1:2:0:0:
86,62,57692,2,0,L|165:65,1,75,2|0,2:0|0:0,0:0:0:0:
199,87,58092,6,0,B|263:81|263:81|288:89|288:89|350:82|350:82|326:84|302:80,1,200,6|10,1:2|2:0,0:0:0:0:
464,0,59292,1,2,2:0:0:0:
510,76,59492,2,0,B|525:109|525:109|503:230,1,150,2|2,2:0|1:2,0:0:0:0:
423,382,60492,1,10,2:0:0:0:
321,233,60892,1,2,2:0:0:0:
251,289,61092,6,0,L|152:287,1,100,2|0,2:0|0:0,0:0:0:0:
65,259,61692,1,2,2:0:0:0:
65,259,61892,2,0,P|55:224|61:203,1,50,2|10,2:0|2:0,0:0:0:0:
116,143,62292,2,0,P|151:133|172:139,1,50,2|0,2:0|0:0,0:0:0:0:
239,192,62692,1,2,2:0:0:0:
239,192,62892,2,0,L|242:299,2,100,2|2|10,1:2|1:2|2:0,0:0:0:0:
274,109,63892,1,2,1:2:0:0:
21,13,64492,6,0,B|23:61|23:61|28:69|28:69|30:120,1,100,2|2,1:2|2:0,0:0:0:0:
91,184,65092,1,2,2:0:0:0:
91,184,65292,2,0,B|88:232|88:232|83:240|83:240|82:291,1,100,10|2,2:0|2:0,0:0:0:0:
33,359,65892,1,2,2:0:0:0:
33,359,66092,2,0,P|79:338|130:362,1,100,2|2,1:2|1:2,0:0:0:0:
210,327,66692,1,2,2:0:0:0:
210,327,66892,2,0,P|227:276|199:228,1,100,10|0,2:0|0:0,0:0:0:0:
150,173,67492,1,2,2:0:0:0:
150,173,67692,6,0,L|42:176,1,100,2|0,1:2|0:0,0:0:0:0:
191,65,68492,2,0,L|299:68,1,100,10|0,2:0|0:0,0:0:0:0:
461,125,69292,2,0,P|431:107|390:196,1,150,2|0,1:2|1:2,0:0:0:0:
439,253,70092,1,14,2:0:0:0:
439,253,70292,2,0,L|312:251,1,125,2|0,2:0|0:0,0:0:0:0:
475,242,70892,6,0,P|493:195|469:147,1,104.999996795654,10|0,1:3|0:0,0:0:0:0:
440,138,71292,5,10,1:3:0:0:
375,165,71492,1,2,2:0:0:0:
313,198,71692,1,10,1:3:0:0:
440,138,72092,5,10,1:3:0:0:
375,165,72292,1,2,2:0:0:0:
313,198,72492,1,10,1:3:0:0:
440,138,72892,5,10,1:3:0:0:
375,165,73092,1,2,2:0:0:0:
313,198,73292,1,10,1:3:0:0:
267,145,73492,1,2,2:0:0:0:
197,155,73692,1,10,1:3:0:0:
166,91,73892,1,2,2:0:0:0:
215,40,74092,6,0,B|263:45|263:45|275:51|275:51|321:57,1,104.999996795654,10|0,1:3|0:0,0:0:0:0:
352,61,74492,5,10,1:3:0:0:
390,119,74692,1,2,2:0:0:0:
354,179,74892,1,10,1:3:0:0:
352,61,75292,5,10,1:3:0:0:
390,119,75492,1,2,2:0:0:0:
354,179,75692,6,0,B|318:187|318:187|247:165,1,104.999996795654,10|0,1:3|0:0,0:0:0:0:
229,140,76092,2,0,L|226:103,2,34.9999989318848,10|2|2,1:3|2:0|2:0,0:0:0:0:
184,194,76492,2,0,L|189:301,1,104.999996795654,10|0,1:3|0:0,0:0:0:0:
192,333,76892,1,10,1:3:0:0:
70,269,77292,6,0,P|43:220|62:174,1,104.999996795654,10|0,1:3|0:0,0:0:0:0:
86,154,77692,5,10,1:3:0:0:
149,184,77892,1,2,2:0:0:0:
209,148,78092,1,10,1:3:0:0:
86,154,78492,5,10,1:3:0:0:
149,184,78692,1,2,2:0:0:0:
209,148,78892,6,0,L|207:90,1,44.999998626709,10|0,1:3|0:0,0:0:0:0:
308,189,79092,2,0,P|321:230|298:277,1,89.9999972534181,2|10,2:0|1:3,0:0:0:0:
145,293,79492,2,0,P|174:261|226:257,1,89.9999972534181,2|10,2:0|1:3,0:0:0:0:
316,382,79892,2,0,P|273:372|244:329,1,89.9999972534181,2|10,2:0|1:3,0:0:0:0:
231,185,80292,1,0,0:0:0:0:
311,227,80492,5,10,2:0:0:0:
132,376,80892,5,10,2:0:0:0:
27,142,81292,5,10,2:0:0:0:
267,90,81692,5,10,2:0:0:0:
246,384,82092,5,10,2:0:0:0:
23,152,82492,5,2,2:0:0:0:
23,152,82692,1,2,2:0:0:0:
56,232,82892,5,2,2:0:0:0:
137,112,83092,2,0,P|149:147|133:185,1,74.9999977111817,2|0,2:0|0:0,0:0:0:0:
105,88,83692,6,0,L|218:82,1,110.000003356934,6|2,1:2|1:2,0:0:0:0:
378,229,84092,2,0,L|265:223,1,110.000003356934,2|2,1:2|1:2,0:0:0:0:
425,69,84492,1,10,2:0:0:0:
466,285,84692,1,10,2:0:0:0:
291,151,84892,1,2,1:2:0:0:
506,108,85092,1,2,1:2:0:0:
371,295,85292,6,0,P|316:315|263:298,1,110.000003356934,6|2,1:2|1:2,0:0:0:0:
125,132,85692,1,2,1:2:0:0:
320,232,85892,1,2,1:2:0:0:
136,352,86092,2,0,L|74:346,1,55.0000016784668,10|0,2:0|0:0,0:0:0:0:
225,157,86292,1,10,2:0:0:0:
298,362,86492,1,2,1:2:0:0:
110,247,86692,1,2,1:2:0:0:
317,144,86892,6,0,P|367:124|423:150,1,110.000003356934,6|2,1:2|1:2,0:0:0:0:
259,299,87292,2,0,P|209:319|153:293,1,110.000003356934,2|2,1:2|1:2,0:0:0:0:
4,142,87692,1,10,2:0:0:0:
210,216,87892,1,10,2:0:0:0:
17,322,88092,1,2,1:2:0:0:
113,124,88292,1,2,1:2:0:0:
227,324,88492,6,0,L|116:323,1,110.000003356934,6|2,1:2|1:2,0:0:0:0:
235,137,88892,1,2,1:2:0:0:
330,335,89092,1,2,1:2:0:0:
416,130,89292,2,0,P|388:122|358:131,1,55.0000016784668,10|0,2:0|0:0,0:0:0:0:
172,246,89492,1,10,2:0:0:0:
388,285,89692,1,2,1:2:0:0:
279,93,89892,1,2,1:2:0:0:
214,314,90092,6,0,B|162:332|162:332|109:307,1,110.000003356934,6|2,1:2|1:2,0:0:0:0:
293,182,90492,2,0,B|345:164|345:164|398:189,1,110.000003356934,2|2,1:2|1:2,0:0:0:0:
506,376,90892,1,10,2:0:0:0:
497,157,91092,1,10,2:0:0:0:
357,326,91292,1,2,1:2:0:0:
359,106,91492,1,2,1:2:0:0:
511,279,91692,6,0,P|461:260|402:285,1,110.000003356934,6|2,1:2|1:2,0:0:0:0:
178,284,92092,1,2,1:2:0:0:
280,168,92292,1,2,1:2:0:0:
399,352,92492,2,0,L|456:352,1,55.0000016784668,10|0,2:0|0:0,0:0:0:0:
196,256,92692,2,0,L|79:263,1,110.000003356934,10|2,2:0|1:2,0:0:0:0:
220,89,93092,1,2,1:2:0:0:
335,288,93292,6,0,P|348:233|319:183,1,110.000003356934,6|2,1:2|1:2,0:0:0:0:
144,49,93692,2,0,P|131:104|160:154,1,110.000003356934,2|2,1:2|1:2,0:0:0:0:
336,275,94092,1,10,2:0:0:0:
220,89,94292,1,10,2:0:0:0:
154,298,94492,1,2,1:2:0:0:
350,198,94692,1,2,1:2:0:0:
135,112,94892,6,0,L|22:119,1,110.000003356934,6|2,1:2|1:2,0:0:0:0:
226,211,95292,2,0,L|339:204,1,110.000003356934,2|2,1:2|1:2,0:0:0:0:
503,54,95692,5,10,2:0:0:0:
503,54,95742,5,10,2:0:0:0:
342,14,95892,1,2,1:2:0:0:
419,224,96092,5,10,2:0:0:0:
419,224,96142,5,10,2:0:0:0:
412,59,96292,1,2,1:2:0:0:
238,211,96492,6,0,B|216:262|216:262|236:317,1,110.000003356934,6|2,1:2|1:2,0:0:0:0:
386,147,96892,2,0,L|322:142,1,55.0000016784668,2|0,1:2|0:0,0:0:0:0:
113,121,97092,1,2,1:2:0:0:
260,284,97292,1,10,2:0:0:0:
311,70,97492,1,10,2:0:0:0:
135,202,97692,1,2,1:2:0:0:
345,265,97892,2,0,L|405:262,1,55.0000016784668,2|0,1:2|0:0,0:0:0:0:
223,126,98092,6,0,L|163:123,1,55.0000016784668,6|0,1:2|0:0,0:0:0:0:
361,18,98292,2,0,P|385:77|363:123,1,110.000003356934,2|2,1:2|1:2,0:0:0:0:
214,274,98692,1,2,1:2:0:0:
298,70,98892,1,10,2:0:0:0:
399,262,99092,1,10,2:0:0:0:
189,196,99292,1,2,1:2:0:0:
377,82,99492,1,2,1:2:0:0:
327,307,99692,6,0,L|209:307,1,110.000003356934,6|2,1:2|1:2,0:0:0:0:
39,171,100092,2,0,L|157:171,1,110.000003356934,2|2,1:2|1:2,0:0:0:0:
370,168,100492,1,10,2:0:0:0:
192,297,100692,1,10,2:0:0:0:
200,77,100892,1,2,1:2:0:0:
346,241,101092,1,2,1:2:0:0:
369,11,101292,6,0,B|319:-5|319:-5|261:8,1,110.000003356934,6|2,1:2|1:2,0:0:0:0:
89,147,101692,1,2,1:2:0:0:
297,218,101892,1,2,1:2:0:0:
190,25,102092,1,10,2:0:0:0:
136,238,102292,2,0,L|140:354,1,110.000003356934,10|2,2:0|1:2,0:0:0:0:
315,213,102692,1,2,1:2:0:0:
117,92,102892,6,0,P|63:75|8:92,1,110.000003356934,6|2,1:2|1:2,0:0:0:0:
210,209,103292,2,0,P|264:226|319:209,1,110.000003356934,2|2,1:2|1:2,0:0:0:0:
472,57,103692,1,10,2:0:0:0:
408,267,103892,1,10,2:0:0:0:
284,85,104092,1,2,1:2:0:0:
489,164,104292,1,2,1:2:0:0:
272,244,104492,6,0,L|158:242,1,110.000003356934,6|2,1:2|1:2,0:0:0:0:
2,94,104892,1,2,1:2:0:0:
83,298,105092,1,2,1:2:0:0:
186,103,105292,2,0,L|116:106,1,55.0000016784668,10|0,2:0|0:0,0:0:0:0:
264,268,105492,2,0,L|378:266,1,110.000003356934,10|2,2:0|1:2,0:0:0:0:
508,91,105892,1,2,1:2:0:0:
295,0,106092,6,0,P|268:47|282:102,1,110.000003356934,6|2,1:2|1:2,0:0:0:0:
422,267,106492,2,0,P|449:220|435:165,1,110.000003356934,2|2,1:2|1:2,0:0:0:0:
219,130,106892,1,10,2:0:0:0:
434,59,107092,1,10,2:0:0:0:
344,259,107292,1,2,1:2:0:0:
264,53,107492,1,2,1:2:0:0:
477,140,107692,6,0,L|473:254,1,110.000003356934,6|2,1:2|1:2,0:0:0:0:
295,381,108092,2,0,L|291:267,1,110.000003356934,2|2,1:2|1:2,0:0:0:0:
291,53,108492,5,10,2:0:0:0:
291,53,108542,5,10,2:0:0:0:
410,166,108692,1,2,1:2:0:0:
201,234,108892,5,10,2:0:0:0:
201,234,108942,5,10,2:0:0:0:
327,128,109092,1,2,1:2:0:0:
442,328,109292,6,0,P|396:308|341:327,1,110.000003356934,6|2,1:2|1:2,0:0:0:0:
127,382,109692,1,2,1:2:0:0:
160,164,109892,1,2,1:2:0:0:
301,332,110092,1,10,2:0:0:0:
84,294,110292,1,10,2:0:0:0:
254,155,110492,2,0,P|310:137|357:156,1,110.000003356934,2|2,1:2|1:2,0:0:0:0:
187,315,110892,5,6,1:2:0:0:
94,113,111092,2,0,L|100:228,1,110.000003356934,2|2,1:2|1:2,0:0:0:0:
269,364,111492,1,2,1:2:0:0:
210,151,111692,1,10,2:0:0:0:
103,343,111892,1,10,2:0:0:0:
305,257,112092,1,2,1:2:0:0:
94,193,112292,1,2,1:2:0:0:
296,81,112492,6,0,B|339:57|395:87|365:109|417:130|458:110,1,165.000005035401,10|0,1:3|0:0,0:0:0:0:
506,47,112892,6,0,B|538:107|538:107|505:184,1,134.999995880127,10|0,1:3|0:0,0:0:0:0:
445,221,113292,6,0,B|393:218|393:218|374:228|374:228|332:225,1,104.999996795654,10|0,1:3|0:0,0:0:0:0:
273,184,113692,6,0,L|192:193,1,75,10|0,1:3|0:0,0:0:0:0:
296,163,114092,5,10,1:3:0:0:
48,324,115692,6,0,P|82:316|116:325,1,59.9999981689454,2|0,2:0|0:2,0:0:0:0:
176,380,116492,2,0,P|210:388|244:379,1,59.9999981689454,2|0,2:0|0:2,0:0:0:0:
308,324,117292,2,0,L|305:257,1,59.9999981689454,2|0,2:0|0:2,0:0:0:0:
242,189,118092,2,0,L|244:139,1,44.999998626709,2|0,2:0|0:0,0:0:0:0:
246,115,118492,1,2,2:0:0:0:
325,41,118692,6,0,B|364:22|408:52|380:66|427:89|463:70,1,149.999995422363,2|0,2:0|0:2,0:0:0:0:
374,206,120092,1,2,2:0:0:0:
288,159,120292,2,0,B|229:163|229:163|213:176|213:176|149:182,1,134.999995880127,2|0,2:0|0:0,0:0:0:0:
128,188,121292,5,10,2:0:0:0:
179,261,121492,1,10,2:0:0:0:
125,336,121692,1,10,1:3:0:0:
125,335,122092,6,0,B|153:335|170:324|170:324|197:347|197:347|257:312|313:349,1,200,6|10,1:2|2:0,0:0:0:0:
485,378,123292,1,2,2:0:0:0:
489,288,123492,1,2,2:0:0:0:
498,198,123692,2,0,P|456:183|398:202,2,100,2|2|10,1:2|1:2|2:0,0:0:0:0:
370,69,124892,1,2,2:0:0:0:
294,118,125092,6,0,L|191:116,1,100,2|0,2:0|0:0,0:0:0:0:
112,77,125692,1,2,2:0:0:0:
112,77,125892,2,0,P|101:108|103:135,1,50,2|10,2:0|2:0,0:0:0:0:
165,187,126292,2,0,P|176:218|174:245,1,50,0|2,0:0|2:0,0:0:0:0:
143,321,126692,1,2,2:0:0:0:
143,321,126892,2,0,L|42:320,1,100,2|0,1:2|0:0,0:0:0:0:
4,243,127492,1,2,1:2:0:0:
4,243,127692,1,10,2:0:0:0:
56,169,127892,1,2,1:2:0:0:
290,34,128492,6,0,L|392:37,1,100,2|2,1:2|1:2,0:0:0:0:
470,77,129092,1,2,2:0:0:0:
470,77,129292,2,0,P|491:124|480:180,1,100,10|2,2:0|2:0,0:0:0:0:
412,225,129892,1,2,2:0:0:0:
412,225,130092,2,0,L|351:223,1,50,2|2,1:2|1:2,0:0:0:0:
287,172,130492,2,0,L|226:174,1,50,2|2,1:2|2:0,0:0:0:0:
158,219,130892,2,0,B|141:270|141:270|165:326,1,100,10|2,2:0|2:0,0:0:0:0:
227,371,131492,1,2,2:0:0:0:
227,371,131692,6,0,B|275:368|275:368|290:372|290:372|338:368,1,100,2|2,1:2|1:2,0:0:0:0:
475,269,132492,2,0,P|447:287|383:268,1,100,10|0,2:0|0:0,0:0:0:0:
342,197,133092,1,0,0:0:0:0:
342,197,133292,2,0,B|317:185|294:197|306:213|276:224|234:200,1,100,2|0,1:2|0:0,0:0:0:0:
182,144,133892,1,2,1:2:0:0:
183,290,134092,1,14,2:0:0:0:
183,290,134292,1,2,1:2:0:0:
109,353,134492,2,0,B|74:363|74:363|33:353,1,75,2|0,2:0|0:0,0:0:0:0:
6,319,134892,6,0,B|6:252|6:252|17:235|17:235|17:163|17:163|16:191|5:205,1,200,6|10,1:2|2:0,0:0:0:0:
126,66,136092,1,2,2:0:0:0:
201,114,136292,2,0,B|242:136|278:111|251:101|300:71|341:97,1,150,2|2,2:0|1:2,0:0:0:0:
474,214,137292,1,10,2:0:0:0:
344,338,137692,1,2,2:0:0:0:
278,276,137892,6,0,B|244:263|244:263|183:280,1,100,2|2,2:0|2:0,0:0:0:0:
105,323,138492,1,2,1:2:0:0:
105,323,138692,2,0,P|94:297|97:265,1,50,2|10,2:0|2:0,0:0:0:0:
154,209,139092,2,0,P|165:183|162:151,1,50,2|0,2:0|0:0,0:0:0:0:
101,98,139492,2,0,L|80:100,2,16.6666666666667,10|10|10,2:0|2:0|2:0,0:0:0:0:
124,79,139692,2,0,B|169:77|169:77|183:82|183:82|226:81,1,100,2|0,1:2|0:0,0:0:0:0:
312,73,140292,1,2,1:2:0:0:
365,145,140492,1,10,2:0:0:0:
308,215,140692,2,0,L|253:218,1,50,2|0,1:2|0:0,0:0:0:0:
129,348,141292,6,0,P|147:331|181:328,1,50,2|0,1:2|0:0,0:0:0:0:
296,297,141692,1,6,1:2:0:0:
250,376,141892,2,0,L|354:371,1,100,2|0,2:0|0:0,0:0:0:0:
420,315,142492,1,2,2:0:0:0:
420,315,142692,2,0,B|428:290|428:290|405:213,1,100,2|2,2:0|2:0,0:0:0:0:
341,157,143292,1,2,1:2:0:0:
341,157,143492,2,0,B|224:157|340:160|226:162,1,100,2|0,2:0|0:0,0:0:0:0:
167,212,144092,1,2,2:0:0:0:
167,212,144292,1,2,2:0:0:0:
98,153,144492,6,0,P|80:120|100:59,1,100,2|2,1:2|1:2,0:0:0:0:
266,4,145292,2,0,L|263:117,1,100,10|0,2:0|0:0,0:0:0:0:
178,262,146092,2,0,B|214:249|214:249|281:267,1,100,2|0,1:2|0:0,0:0:0:0:
346,319,146692,1,2,1:2:0:0:
494,277,146892,1,14,2:0:0:0:
416,262,147092,2,0,L|410:132,1,125,2|0,2:0|0:0,0:0:0:0:
407,102,147692,2,0,P|374:91|316:125,1,104.999996795654,14|0,1:3|0:0,0:0:0:0:
301,148,148092,5,10,1:3:0:0:
232,142,148292,1,2,2:0:0:0:
162,131,148492,1,10,1:3:0:0:
301,148,148892,5,10,1:3:0:0:
232,142,149092,1,2,2:0:0:0:
162,131,149292,1,10,1:3:0:0:
301,148,149692,5,10,1:3:0:0:
232,142,149892,1,2,2:0:0:0:
162,131,150092,1,10,1:3:0:0:
181,198,150292,1,2,2:0:0:0:
243,228,150492,1,10,1:3:0:0:
229,296,150692,1,2,2:0:0:0:
160,283,150892,6,0,B|109:268|109:268|59:285,1,104.999996795654,10|0,1:3|0:0,0:0:0:0:
25,292,151292,5,10,1:3:0:0:
30,222,151492,1,2,2:0:0:0:
38,152,151692,1,10,1:3:0:0:
25,292,152092,5,10,1:3:0:0:
30,222,152292,1,2,2:0:0:0:
38,152,152492,6,0,P|91:132|137:156,1,104.999996795654,10|0,1:3|0:0,0:0:0:0:
157,175,152892,2,0,L|155:213,2,34.9999989318848,10|2|2,1:3|2:0|2:0,0:0:0:0:
218,140,153292,2,0,B|238:89|238:89|214:42,1,104.999996795654,10|0,1:3|0:0,0:0:0:0:
195,15,153692,1,10,1:3:0:0:
329,62,154092,6,0,B|382:59|382:59|393:63|393:63|438:60,1,104.999996795654,10|0,1:3|0:0,0:0:0:0:
468,58,154492,5,10,1:3:0:0:
457,127,154692,1,2,2:0:0:0:
443,195,154892,1,10,1:3:0:0:
468,58,155292,5,10,1:3:0:0:
457,127,155492,1,2,2:0:0:0:
443,195,155692,6,0,L|498:194,1,44.999998626709,10|0,1:3|0:0,0:0:0:0:
369,296,155892,2,0,B|326:312|326:312|282:298,1,89.9999972534181,2|10,2:0|1:3,0:0:0:0:
284,128,156292,2,0,B|319:157|319:157|329:202,1,89.9999972534181,2|10,2:0|1:3,0:0:0:0:
181,285,156692,2,0,B|188:239|188:239|222:208,1,89.9999972534181,2|10,2:0|1:3,0:0:0:0:
350,92,157092,1,2,2:0:0:0:
271,39,157292,5,10,2:0:0:0:
147,157,157692,5,10,2:0:0:0:
276,324,158092,5,10,2:0:0:0:
448,158,158492,5,10,2:0:0:0:
173,67,158892,5,10,2:0:0:0:
453,288,159692,5,2,2:0:0:0:
363,214,159892,2,0,B|351:252|351:252|365:293,1,74.9999977111817,2|0,2:0|0:0,0:0:0:0:
383,177,160492,6,0,L|265:173,1,110.000003356934,6|2,1:2|1:2,0:0:0:0:
100,37,160892,2,0,L|218:33,1,110.000003356934,2|2,1:2|1:2,0:0:0:0:
429,20,161292,1,10,2:0:0:0:
263,165,161492,1,10,2:0:0:0:
479,201,161692,1,2,1:2:0:0:
349,23,161892,1,2,1:2:0:0:
291,246,162092,6,0,P|268:300|286:350,1,110.000003356934,6|2,1:2|1:2,0:0:0:0:
452,203,162492,1,2,1:2:0:0:
238,151,162692,1,2,1:2:0:0:
362,332,162892,2,0,P|392:339|424:329,1,55.0000016784668,10|0,2:0|0:0,0:0:0:0:
359,117,163092,1,10,2:0:0:0:
234,298,163292,1,2,1:2:0:0:
444,235,163492,1,2,1:2:0:0:
234,138,163692,6,0,B|182:123|182:123|124:141,1,110.000003356934,6|2,1:2|1:2,0:0:0:0:
256,318,164092,2,0,B|308:333|308:333|366:315,1,110.000003356934,2|2,1:2|1:2,0:0:0:0:
486,135,164492,1,10,2:0:0:0:
441,350,164692,1,10,2:0:0:0:
299,181,164892,1,2,1:2:0:0:
509,244,165092,1,2,1:2:0:0:
315,348,165292,6,0,L|197:347,1,110.000003356934,6|2,1:2|1:2,0:0:0:0:
17,232,165692,1,2,1:2:0:0:
232,189,165892,1,2,1:2:0:0:
123,380,166092,2,0,L|64:381,1,55.0000016784668,10|0,2:0|0:0,0:0:0:0:
120,166,166292,1,10,2:0:0:0:
259,336,166492,1,2,1:2:0:0:
40,313,166692,1,2,1:2:0:0:
229,178,166892,6,0,P|283:160|333:176,1,110.000003356934,6|2,1:2|1:2,0:0:0:0:
473,347,167292,2,0,P|419:365|369:349,1,110.000003356934,2|2,1:2|1:2,0:0:0:0:
229,178,167692,1,10,2:0:0:0:
421,283,167892,1,10,2:0:0:0:
383,66,168092,1,2,1:2:0:0:
264,251,168292,1,2,1:2:0:0:
199,29,168492,6,0,L|311:21,1,110.000003356934,6|2,1:2|1:2,0:0:0:0:
498,149,168892,1,2,1:2:0:0:
295,235,169092,1,2,1:2:0:0:
341,20,169292,2,0,P|371:14|398:21,1,55.0000016784668,10|0,2:0|0:0,0:0:0:0:
247,175,169492,2,0,P|197:192|141:177,1,110.000003356934,10|2,2:0|1:2,0:0:0:0:
0,43,169892,1,2,1:2:0:0:
4,273,170092,6,0,L|113:266,1,110.000003356934,6|2,1:2|1:2,0:0:0:0:
312,146,170492,2,0,L|203:139,1,110.000003356934,2|2,1:2|1:2,0:0:0:0:
363,290,170892,1,10,2:0:0:0:
424,78,171092,1,10,2:0:0:0:
251,214,171292,1,2,1:2:0:0:
470,212,171492,1,2,1:2:0:0:
299,367,171692,6,0,P|248:385|183:358,1,110.000003356934,6|2,1:2|1:2,0:0:0:0:
49,205,172092,2,0,P|100:187|165:214,1,110.000003356934,2|2,1:2|1:2,0:0:0:0:
312,360,172492,5,10,2:0:0:0:
312,360,172542,5,10,2:0:0:0:
376,207,172692,1,2,1:2:0:0:
169,276,172892,5,10,2:0:0:0:
169,276,172942,5,10,2:0:0:0:
333,277,173092,1,2,1:2:0:0:
177,105,173292,6,0,L|61:109,1,110.000003356934,6|2,1:2|1:2,0:0:0:0:
263,210,173692,2,0,L|322:207,1,55.0000016784668,2|0,1:2|0:0,0:0:0:0:
484,63,173892,1,2,1:2:0:0:
447,279,174092,1,10,2:0:0:0:
286,128,174292,1,10,2:0:0:0:
502,165,174492,1,2,1:2:0:0:
322,292,174692,1,2,1:2:0:0:
354,63,174892,6,0,P|379:58|411:64,1,55.0000016784668,6|0,1:2|0:0,0:0:0:0:
258,224,175092,2,0,P|209:243|154:226,1,110.000003356934,2|2,1:2|1:2,0:0:0:0:
26,49,175492,1,2,1:2:0:0:
210,168,175692,1,10,2:0:0:0:
13,267,175892,1,10,2:0:0:0:
130,81,176092,1,2,1:2:0:0:
203,288,176292,1,2,1:2:0:0:
7,164,176492,6,0,B|60:178|60:178|113:165,1,110.000003356934,6|2,1:2|1:2,0:0:0:0:
302,31,176892,2,0,B|245:17|245:17|196:30,1,110.000003356934,2|2,1:2|1:2,0:0:0:0:
326,206,177292,1,10,2:0:0:0:
437,16,177492,1,10,2:0:0:0:
235,103,177692,1,2,1:2:0:0:
442,176,177892,1,2,1:2:0:0:
239,286,178092,6,0,L|125:284,1,110.000003356934,6|2,1:2|1:2,0:0:0:0:
1,110,178492,1,2,1:2:0:0:
213,167,178692,1,2,1:2:0:0:
22,276,178892,1,10,2:0:0:0:
72,61,179092,2,0,P|126:46|174:66,1,110.000003356934,10|2,2:0|1:2,0:0:0:0:
348,199,179492,1,2,1:2:0:0:
129,274,179692,6,0,L|123:153,1,110.000003356934,6|2,1:2|1:2,0:0:0:0:
276,6,180092,2,0,L|270:127,1,110.000003356934,2|2,1:2|1:2,0:0:0:0:
244,334,180492,1,10,2:0:0:0:
114,156,180692,1,10,2:0:0:0:
333,176,180892,1,2,1:2:0:0:
162,314,181092,1,2,1:2:0:0:
171,83,181292,6,0,P|227:64|273:81,1,110.000003356934,6|2,1:2|1:2,0:0:0:0:
444,219,181692,1,2,1:2:0:0:
224,228,181892,1,2,1:2:0:0:
395,90,182092,2,0,L|460:95,1,55.0000016784668,10|0,2:0|0:0,0:0:0:0:
269,0,182292,2,0,L|155:8,1,110.000003356934,10|2,2:0|1:2,0:0:0:0:
6,155,182692,1,2,1:2:0:0:
224,228,182892,6,0,P|246:171|223:125,1,110.000003356934,6|2,1:2|1:2,0:0:0:0:
55,268,183292,2,0,P|33:325|56:371,1,110.000003356934,2|2,1:2|1:2,0:0:0:0:
231,240,183692,1,10,2:0:0:0:
23,167,183892,1,10,2:0:0:0:
83,378,184092,1,2,1:2:0:0:
180,181,184292,1,2,1:2:0:0:
265,383,184492,6,0,L|377:374,1,110.000003356934,6|2,1:2|1:2,0:0:0:0:
512,220,184892,2,0,L|400:211,1,110.000003356934,2|2,1:2|1:2,0:0:0:0:
180,181,185292,5,10,2:0:0:0:
180,181,185342,5,10,2:0:0:0:
308,77,185492,1,2,1:2:0:0:
368,292,185692,5,10,2:0:0:0:
368,292,185742,5,10,2:0:0:0:
265,162,185892,1,2,1:2:0:0:
462,65,186092,6,0,P|488:114|470:165,1,110.000003356934,6|2,1:2|1:2,0:0:0:0:
335,337,186492,1,2,1:2:0:0:
262,129,186692,1,2,1:2:0:0:
461,222,186892,1,10,2:0:0:0:
261,314,187092,1,10,2:0:0:0:
340,108,187292,1,2,1:2:0:0:
446,300,187492,1,2,1:2:0:0:
235,236,187692,6,0,B|178:219|178:219|123:240,1,110.000003356934,6|2,1:2|1:2,0:0:0:0:
307,370,188092,2,0,B|364:387|364:387|419:366,1,110.000003356934,2|2,1:2|1:2,0:0:0:0:
305,174,188492,1,10,2:0:0:0:
188,360,188692,1,10,2:0:0:0:
126,148,188892,1,2,1:2:0:0:
296,287,189092,1,2,1:2:0:0:
90,365,189292,6,0,L|80:252,1,110.000003356934,6|2,1:2|1:2,0:0:0:0:
52,36,189692,1,2,1:2:0:0:
229,166,189892,1,2,1:2:0:0:
17,226,190092,1,10,2:0:0:0:
162,60,190292,1,10,2:0:0:0:
192,277,190492,1,2,1:2:0:0:
24,134,190692,1,2,1:2:0:0:
248,80,190892,6,0,L|357:82,1,110.000003356934,6|2,1:2|1:2,0:0:0:0:
512,229,191292,2,0,L|403:231,1,110.000003356934,2|2,1:2|1:2,0:0:0:0:
181,248,191692,1,10,2:0:0:0:
366,129,191892,1,10,2:0:0:0:
146,121,192092,1,10,2:0:0:0:
332,4,192292,1,10,2:0:0:0:
384,231,192492,6,0,B|347:211|347:211|253:242,1,134.999995880127,10|0,1:2|0:0,0:0:0:0:
405,253,192892,6,0,L|501:250,1,89.9999972534181,10|0,1:2|0:0,0:0:0:0:
89,124,194092,6,0,B|128:106|168:130|147:143|190:159|221:141,1,134.999995880127,10|0,1:2|0:0,0:0:0:0:
61,138,194492,6,0,P|42:179|60:224,1,89.9999972534181,10|0,1:2|0:0,0:0:0:0:
466,116,195692,6,0,P|424:130|403:213,1,134.999995880127,10|0,1:2|0:0,0:0:0:0:
492,116,196092,6,0,B|490:74|490:74|494:65|494:65|491:19,1,89.9999972534181,10|2,1:2|2:0,0:0:0:0:
491,27,197292,5,2,2:0:0:0:
491,27,198092,5,2,2:0:0:0:
306,261,198892,6,0,B|280:249|277:234|277:234|259:264|259:264|243:254|193:261,1,134.999995880127,10|0,1:2|0:0,0:0:0:0:
332,273,199292,6,0,L|428:273,1,89.9999972534181,10|0,1:2|0:0,0:0:0:0:
122,124,200492,6,0,B|97:159|122:206|122:206|150:219|156:244,1,134.999995880127,10|0,1:2|0:0,0:0:0:0:
117,92,200892,6,0,P|79:81|32:100,1,89.9999972534181,10|0,1:2|0:0,0:0:0:0:
349,181,202092,6,0,B|401:181|401:181|429:192|429:192|483:190,1,134.999995880127,10|0,1:2|0:0,0:0:0:0:
324,162,202492,6,0,L|228:166,1,89.9999972534181,10|0,1:2|0:0,0:0:0:0:
35,321,204292,5,2,1:2:0:0:
73,292,204392,1,2,1:2:0:0:
120,305,204492,2,0,B|150:323|182:304|164:298|196:277|226:294,1,104.999996795654,14|0,2:0|0:0,0:0:0:0:
277,324,205292,6,0,L|274:391,1,55.0000016784668,6|0,1:2|0:0,0:0:0:0:
388,289,205492,2,0,B|379:132|379:132|381:176|364:193,1,220.000006713867,2|0,1:2|0:0,0:0:0:0:
164,155,206092,6,0,B|195:135|233:148|233:148|241:142|241:142|268:153|297:142|297:142|276:144|264:135,1,165.000005035401,14|0,2:0|0:0,0:0:0:0:
121,303,206892,6,0,P|89:309|60:302,1,55.0000016784668,6|0,1:2|0:0,0:0:0:0:
207,371,207092,2,0,B|277:319|355:377|355:377|319:360|288:375,1,220.000006713867,2|0,1:2|0:0,0:0:0:0:
476,375,207692,6,0,B|474:337|474:337|482:327|482:327|479:259|479:259|473:249|473:249|472:213,1,165.000005035401,14|0,2:0|0:0,0:0:0:0:
309,56,208492,6,0,B|278:51|278:51|245:62,1,55.0000016784668,6|0,1:2|0:0,0:0:0:0:
110,160,208692,2,0,B|138:143|149:115|149:115|142:279,1,220.000006713867,2|0,1:2|0:0,0:0:0:0:
5,383,209292,6,0,B|27:378|42:363|42:363|73:383|73:383|115:367|169:386,1,165.000005035401,14|0,2:0|0:0,0:0:0:0:
284,308,210092,5,2,1:2:0:0:
284,308,210492,1,2,1:2:0:0:
284,308,210892,1,10,2:0:0:0:
189,236,211092,6,0,P|161:230|127:239,1,59.9999981689454,2|0,1:2|0:0,0:0:0:0:
9,319,211692,6,0,L|12:373,1,55.0000016784668,6|0,1:2|0:0,0:0:0:0:
123,242,211892,2,0,B|118:169|118:169|122:154|122:154|114:76|114:76|117:104|99:128,1,220.000006713867,2|0,1:2|0:0,0:0:0:0:
242,9,212492,6,0,B|269:-2|269:-2|281:4|281:4|288:14|288:14|303:11|303:11|310:4|310:4|321:4|321:4|330:9|330:9|347:3|347:3|367:14|367:14|391:13,1,165.000005035401,14|0,2:0|0:0,0:0:0:0:
438,198,213292,6,0,P|470:206|503:197,1,55.0000016784668,6|0,1:2|0:0,0:0:0:0:
358,95,213492,2,0,B|322:67|266:94|296:108|246:140|197:104|197:104|223:114|245:105,1,220.000006713867,2|0,1:2|0:0,0:0:0:0:
64,10,214092,2,0,B|78:40|78:40|65:66|65:66|72:75|72:75|53:104|53:104|70:133|70:133|70:158,1,165.000005035401,14|0,2:0|0:0,0:0:0:0:
63,274,214892,6,0,B|38:270|38:270|9:278,1,55.0000016784668,6|0,1:2|0:0,0:0:0:0:
132,370,215092,2,0,B|164:365|191:390|191:390|289:369|272:275,1,220.000006713867,2|0,1:2|0:0,0:0:0:0:
180,154,215692,6,0,B|140:157|106:185|106:185|78:158|29:154,1,165.000005035401,14|0,2:0|0:0,0:0:0:0:
268,8,216492,5,10,1:2:0:0:
390,92,216692,1,10,2:0:0:0:
440,134,216792,1,10,2:0:0:0:
437,199,216892,1,10,2:0:0:0:
387,242,216992,1,10,2:0:0:0:
324,221,217092,2,0,L|263:224,1,55.0000016784668,10|0,2:0|0:0,0:0:0:0:
132,354,217292,6,0,L|193:351,1,55.0000016784668,10|0,1:2|0:0,0:0:0:0:
404,374,217492,1,10,2:0:0:0:
435,380,217592,1,10,2:0:0:0:
467,384,217692,1,10,2:0:0:0:
510,320,217792,1,10,2:0:0:0:
493,244,217892,1,10,2:3:0:0:
419,220,217992,1,10,2:3:0:0:
354,261,218092,6,0,P|329:268|301:264,1,55.0000016784668,6|0,1:2|0:0,0:0:0:0:
150,144,218292,2,0,B|182:136|192:112|192:112|230:147|230:147|279:117|351:148,1,220.000006713867,2|0,1:2|0:0,0:0:0:0:
143,293,218892,6,0,B|122:294|122:294|113:286|113:286|94:284|94:284|83:292|83:292|57:292|57:292|51:286|51:286|26:283|26:283|4:302|4:302|-7:300,1,165.000005035401,14|0,2:0|0:0,0:0:0:0:
246,332,219692,6,0,P|257:364|251:395,1,55.0000016784668,6|0,1:2|0:0,0:0:0:0:
116,265,219892,2,0,B|69:188|124:116|124:116|109:147|123:182,1,220.000006713867,2|0,1:2|0:0,0:0:0:0:
323,168,220492,6,0,B|324:145|324:145|302:139|302:139|291:144|291:144|278:146|278:146|268:142|268:142|253:144|253:144|240:142|240:142|217:153|217:153|198:145|198:145|176:150,1,165.000005035401,14|0,2:0|0:0,0:0:0:0:
40,30,221292,6,0,B|68:23|68:23|108:32,1,55.0000016784668,6|0,1:2|0:0,0:0:0:0:
206,185,221492,2,0,B|217:166|204:148|204:148|145:151|145:151|128:162|128:162|69:164|69:164|58:143|68:123,1,220.000006713867,2|0,1:2|0:0,0:0:0:0:
287,11,222092,6,0,B|293:40|276:70|276:70|291:91|291:91|273:125|284:174,1,165.000005035401,14|0,2:0|0:0,0:0:0:0:
313,248,222892,5,2,1:2:0:0:
313,248,223292,1,2,1:2:0:0:
313,248,223692,1,10,2:0:0:0:
215,177,223892,6,0,B|183:176|183:176|176:172|176:172|142:171,1,59.9999981689454,2|0,1:2|0:0,0:0:0:0:
51,282,224492,6,0,L|122:273,1,55.0000016784668,6|0,1:2|0:0,0:0:0:0:
280,377,224692,2,0,B|211:375|211:375|194:383|194:383|124:379|124:379|162:375|183:363,1,220.000006713867,2|0,1:2|0:0,0:0:0:0:
313,224,225292,6,0,B|350:225|350:225|360:235|360:235|380:235|380:235|393:238|393:238|413:239|413:239|430:230|430:230|453:239|453:239|475:238,1,165.000005035401,14|0,2:0|0:0,0:0:0:0:
237,94,226092,6,0,P|226:123|238:154,1,55.0000016784668,6|0,1:2|0:0,0:0:0:0:
449,30,226292,2,0,B|413:55|357:24|383:22|329:-17|279:19|279:19|296:10|318:15,1,220.000006713867,2|0,1:2|0:0,0:0:0:0:
420,228,226892,6,0,B|424:206|424:206|416:197|416:197|438:189|438:189|447:197|447:197|457:194|457:194|462:185|462:185|469:189|469:189|485:192|485:192|492:185|492:185|502:193|502:193|517:201|517:201|511:218,1,165.000005035401,14|0,2:0|0:0,0:0:0:0:
335,355,227692,6,0,L|278:352,1,55.0000016784668,6|0,1:2|0:0,0:0:0:0:
138,291,227892,2,0,B|79:294|79:294|65:305|65:305|-17:310|-17:310|16:308|16:308|41:296,1,220.000006713867,2|0,1:2|0:0,0:0:0:0:
70,110,228492,6,0,B|52:112|52:112|40:132|40:132|51:153|51:153|66:163|66:163|77:183|77:183|75:207|75:207|56:217|56:217|50:234,1,165.000005035401,14|0,2:0|0:0,0:0:0:0:
306,384,229292,5,10,2:0:0:0:
335,324,229392,1,10,2:0:0:0:
307,263,229492,1,2,1:2:0:0:
241,252,229592,1,2,1:2:0:0:
187,291,229692,2,0,L|190:355,1,55.0000016784668,10|0,2:0|0:0,0:0:0:0:
58,265,229892,5,10,2:0:0:0:
23,208,229992,1,10,2:0:0:0:
41,144,230092,1,2,1:2:0:0:
102,120,230192,1,2,1:2:0:0:
163,144,230292,2,0,P|192:149|217:143,1,55.0000016784668,10|0,2:0|0:0,0:0:0:0:
360,39,230492,5,10,2:0:0:0:
429,20,230592,1,10,2:0:0:0:
487,61,230692,1,10,2:0:0:0:
490,132,230792,1,10,2:0:0:0:
438,181,230892,6,0,L|377:180,1,55.0000016784668,6|0,1:2|0:0,0:0:0:0:
205,102,231092,2,0,B|151:101|151:101|190:86|190:86|249:87|249:87|263:95|263:95|320:97,1,220.000006713867,2|0,1:2|0:0,0:0:0:0:
170,232,231692,6,0,B|158:226|158:226|139:233|139:233|119:221|119:221|104:229|104:229|94:227|94:227|89:222|89:222|75:226|75:226|62:224|62:224|51:230|51:230|33:227|33:227|18:233,1,165.000005035401,14|0,2:0|0:0,0:0:0:0:
313,97,232492,6,0,P|318:64|309:40,1,55.0000016784668,6|0,1:2|0:0,0:0:0:0:
170,127,232692,2,0,B|121:176|181:246|183:208|231:269|185:334,1,220.000006713867,2|0,1:2|0:0,0:0:0:0:
334,379,233292,6,0,B|360:372|360:372|382:380|382:380|395:390|395:390|416:389|416:389|425:384|425:384|444:378|444:378|461:384,1,110.000003356934,14|0,2:0|0:0,0:0:0:0:
301,247,233892,6,0,L|258:252,1,27.5000008392334,6|0,1:2|0:0,0:0:0:0:
184,330,234092,6,0,L|96:321,1,55.0000016784668,6|0,1:2|0:0,0:0:0:0:
20,227,234292,2,0,B|-36:164|21:91|21:91|5:132|26:167,1,220.000006713867,2|0,1:2|0:0,0:0:0:0:
242,120,234892,6,0,B|231:121|231:121|207:119|207:119|188:126|188:126|172:139|172:139|150:134|150:134|122:138|122:138|98:122|98:122|68:119,1,165.000005035401,14|0,2:0|0:0,0:0:0:0:
15,56,235692,5,2,1:2:0:0:
15,56,236092,1,2,1:2:0:0:
15,56,236492,1,10,2:0:0:0:
18,195,236692,6,0,L|21:261,1,59.9999981689454,2|2,1:2|2:0,0:0:0:0:
110,375,237292,6,0,P|137:381|175:369,1,55.0000016784668,6|0,1:2|0:0,0:0:0:0:
302,237,237492,2,0,B|264:212|211:237|233:253|189:274|136:254|136:254|164:258|183:248,1,220.000006713867,2|0,1:2|0:0,0:0:0:0:
19,129,238092,6,0,B|5:160|5:160|22:181|22:181|11:195|11:195|22:214|22:214|-1:245|20:288,1,165.000005035401,14|0,2:0|0:0,0:0:0:0:
177,20,238892,6,0,L|118:24,1,55.0000016784668,6|0,1:2|0:0,0:0:0:0:
279,110,239092,2,0,B|339:110|339:110|366:124|366:124|443:126|443:126|387:114,1,220.000006713867,2|0,1:2|0:0,0:0:0:0:
259,205,239692,6,0,B|254:228|254:228|270:260|248:262|265:291|265:291|261:325,1,110.000003356934,14|0,2:0|0:0,0:0:0:0:
427,382,240292,6,0,P|432:360|429:345,1,27.5000008392334,6|0,1:2|0:0,0:0:0:0:
378,263,240492,6,0,P|366:230|377:199,1,55.0000016784668,6|0,1:2|0:0,0:0:0:0:
486,114,240692,2,0,B|465:96|463:68|463:68|428:112|428:112|378:71|319:111,1,220.000006713867,2|0,1:2|0:0,0:0:0:0:
161,251,241292,6,0,B|193:250|209:223|209:223|240:211|240:211|266:210|266:210|294:228|294:228|313:263,1,165.000005035401,14|0,2:0|0:0,0:0:0:0:
62,364,242092,5,10,2:0:0:0:
62,364,242142,5,10,2:0:0:0:
26,222,242292,1,2,1:2:0:0:
229,242,242492,1,10,2:0:0:0:
86,278,242692,1,2,1:2:0:0:
180,109,242892,5,10,2:0:0:0:
239,69,242992,1,10,2:0:0:0:
310,76,243092,1,10,2:0:0:0:
347,136,243192,1,10,2:0:0:0:
333,206,243292,1,10,2:0:0:0:
271,242,243392,1,10,2:0:0:0:
244,314,243492,1,10,2:0:0:0:
290,375,243592,1,10,2:0:0:0:
370,380,243692,6,0,L|376:284,1,89.9999972534181,6|2,1:2|1:2,0:0:0:0:
454,129,244092,1,2,1:2:0:0:
455,308,244292,1,2,1:2:0:0:
324,186,244492,1,10,2:0:0:0:
500,211,244692,1,10,2:0:0:0:
367,334,244892,2,0,L|272:328,1,89.9999972534181,2|2,1:2|1:2,0:0:0:0:
135,217,245292,5,6,1:2:0:0:
213,379,245492,1,2,1:2:0:0:
311,228,245692,2,0,P|254:218|216:236,1,89.9999972534181,2|2,1:2|1:2,0:0:0:0:
81,337,246092,1,10,2:0:0:0:
26,160,246292,1,10,2:0:0:0:
114,245,246492,1,2,1:2:0:0:
8,274,246692,1,2,1:2:0:0:
118,128,246892,6,0,B|163:116|163:116|207:127,1,89.9999972534181,6|2,1:2|1:2,0:0:0:0:
364,212,247292,1,2,1:2:0:0:
281,51,247492,1,2,1:2:0:0:
211,217,247692,1,10,2:0:0:0:
373,139,247892,1,10,2:0:0:0:
205,73,248092,2,0,P|153:64|115:81,1,89.9999972534181,2|2,1:2|1:2,0:0:0:0:
11,221,248492,5,6,1:2:0:0:
18,41,248692,1,2,1:2:0:0:
168,140,248892,2,0,L|161:241,1,89.9999972534181,2|2,1:2|1:2,0:0:0:0:
50,371,249292,1,10,2:0:0:0:
1,197,249492,1,10,2:0:0:0:
172,251,249692,1,10,2:3:0:0:
204,251,249792,1,10,2:3:0:0:
235,250,249892,1,10,2:3:0:0:
267,250,249992,1,10,2:3:0:0:
298,250,250092,6,0,L|392:249,1,89.9999972534181,6|2,1:2|1:2,0:0:0:0:
510,116,250492,1,2,1:2:0:0:
490,294,250692,1,2,1:2:0:0:
392,142,250892,1,10,2:0:0:0:
359,319,251092,1,10,2:0:0:0:
502,210,251292,2,0,B|464:199|464:199|407:217,1,89.9999972534181,2|2,1:2|1:2,0:0:0:0:
260,304,251692,5,6,1:2:0:0:
429,364,251892,1,2,1:2:0:0:
393,187,252092,2,0,L|304:194,1,89.9999972534181,2|2,1:2|1:2,0:0:0:0:
122,205,252492,1,10,2:0:0:0:
265,96,252692,1,10,2:0:0:0:
255,275,252892,1,2,1:2:0:0:
150,128,253092,1,10,2:3:0:0:
119,119,253192,1,10,2:3:0:0:
89,130,253292,6,0,P|54:144|6:129,1,89.9999972534181,6|2,1:2|1:2,0:0:0:0:
147,18,253692,1,2,1:2:0:0:
193,191,253892,1,2,1:2:0:0:
287,37,254092,1,10,2:0:0:0:
114,87,254292,1,10,2:0:0:0:
272,171,254492,2,0,L|373:166,1,89.9999972534181,2|2,1:2|1:2,0:0:0:0:
494,44,254892,5,6,1:2:0:0:
453,219,255092,1,2,1:2:0:0:
340,78,255292,1,2,1:2:0:0:
509,137,255492,1,2,1:2:0:0:
341,203,255692,1,10,2:0:0:0:
410,36,255892,1,10,2:0:0:0:
476,203,256092,1,10,2:3:0:0:
475,234,256192,1,10,2:3:0:0:
475,265,256292,1,10,2:3:0:0:
474,297,256392,1,10,2:3:0:0:
474,328,256492,6,0,P|433:342|390:330,1,89.9999972534181,6|2,1:2|1:2,0:0:0:0:
243,224,256892,1,2,1:2:0:0:
333,379,257092,1,2,1:2:0:0:
389,208,257292,1,10,2:0:0:0:
234,301,257492,1,10,2:0:0:0:
272,125,257692,2,0,L|365:128,1,89.9999972534181,2|2,1:2|1:2,0:0:0:0:
510,229,258092,5,6,1:2:0:0:
444,61,258292,1,2,1:2:0:0:
351,215,258492,2,0,P|308:229|264:213,1,89.9999972534181,2|2,1:2|1:2,0:0:0:0:
144,83,258892,1,10,2:0:0:0:
311,149,259092,1,10,2:0:0:0:
148,226,259292,1,2,1:2:0:0:
238,70,259492,1,2,1:2:0:0:
286,243,259692,6,0,B|299:288|299:288|280:336,1,89.9999972534181,6|2,1:2|1:2,0:0:0:0:
110,378,260092,1,2,1:2:0:0:
126,198,260292,1,2,1:2:0:0:
250,328,260492,1,10,2:0:0:0:
70,313,260692,1,10,2:0:0:0:
204,192,260892,2,0,L|301:196,1,89.9999972534181,2|2,1:2|1:2,0:0:0:0:
473,207,261292,5,6,1:2:0:0:
384,50,261492,1,2,1:2:0:0:
303,210,261692,2,0,P|285:254|298:293,1,89.9999972534181,2|2,1:2|1:2,0:0:0:0:
454,382,262092,1,10,2:0:0:0:
393,212,262292,1,10,2:0:0:0:
300,366,262492,1,2,1:2:0:0:
468,301,262692,2,0,L|517:305,1,44.999998626709,10|10,2:3|2:3,0:0:0:0:
358,210,262892,6,0,P|316:200|268:220,1,89.9999972534181,6|2,1:2|1:2,0:0:0:0:
157,354,263292,1,2,1:2:0:0:
323,285,263492,1,2,1:2:0:0:
167,194,263692,1,10,2:0:0:0:
234,360,263892,1,10,2:0:0:0:
330,207,264092,2,0,P|341:156|321:122,1,89.9999972534181,2|2,1:2|1:2,0:0:0:0:
166,35,264492,5,6,1:2:0:0:
345,21,264692,1,2,1:2:0:0:
253,175,264892,2,0,L|164:170,1,89.9999972534181,2|2,1:2|1:2,0:0:0:0:
13,69,265292,1,10,2:0:0:0:
89,232,265492,1,10,2:0:0:0:
181,77,265692,1,2,1:2:0:0:
18,154,265892,1,2,1:2:0:0:
176,239,266092,6,0,L|271:234,1,89.9999972534181,6|2,1:2|1:2,0:0:0:0:
411,128,266492,1,2,1:2:0:0:
450,303,266692,1,2,1:2:0:0:
284,232,266892,2,0,B|268:187|268:187|287:145,1,89.9999972534181,10|10,2:0|2:0,0:0:0:0:
407,15,267292,1,2,1:2:0:0:
367,190,267492,1,2,1:2:0:0:
233,63,267692,5,8,2:0:0:0:
176,35,267792,1,8,2:0:0:0:
118,60,267892,1,0,1:2:0:0:
99,120,267992,1,0,1:2:0:0:
133,172,268092,2,0,L|178:173,1,44.999998626709,8|8,2:0|2:0,0:0:0:0:
373,145,268292,5,8,2:0:0:0:
440,145,268392,1,8,2:0:0:0:
484,196,268492,1,2,1:2:0:0:
481,263,268592,1,0,1:2:0:0:
435,312,268692,2,0,P|413:320|383:316,1,44.999998626709,10|8,2:0|2:0,0:0:0:0:
200,247,268892,5,8,2:0:0:0:
134,229,268992,1,8,2:0:0:0:
76,272,269092,1,10,2:0:0:0:
80,343,269192,1,8,2:0:0:0:
147,384,269292,6,0,L|261:382,1,110.000003356934,4|2,1:2|1:2,0:0:0:0:
437,255,269692,2,0,L|323:253,1,110.000003356934,2|2,1:2|1:2,0:0:0:0:
106,233,270092,1,10,2:0:0:0:
277,370,270292,1,10,2:0:0:0:
320,154,270492,1,2,1:2:0:0:
168,313,270692,1,2,1:2:0:0:
393,362,270892,6,0,P|406:308|385:259,1,110.000003356934,6|2,1:2|1:2,0:0:0:0:
206,129,271292,1,2,1:2:0:0:
319,317,271492,1,2,1:2:0:0:
401,112,271692,2,0,P|432:108|462:113,1,55.0000016784668,10|0,2:0|0:0,0:0:0:0:
236,228,271892,1,10,2:0:0:0:
299,17,272092,1,2,1:2:0:0:
434,190,272292,1,2,1:2:0:0:
432,228,272392,1,2,0:0:0:0:
429,266,272492,6,0,B|377:279|377:279|323:265,1,110.000003356934,6|2,1:2|1:2,0:0:0:0:
116,184,272892,1,2,1:2:0:0:
235,368,273092,1,2,1:2:0:0:
333,171,273292,1,10,2:0:0:0:
149,292,273492,1,10,2:0:0:0:
354,369,273692,2,0,P|371:317|351:267,1,110.000003356934,2|2,1:2|1:2,0:0:0:0:
155,142,274092,5,6,1:2:0:0:
370,185,274292,1,2,1:2:0:0:
189,311,274492,1,2,1:2:0:0:
211,92,274692,1,2,1:2:0:0:
346,265,274892,2,0,P|376:271|402:264,1,55.0000016784668,10|0,2:0|0:0,0:0:0:0:
235,116,275092,2,0,P|184:100|132:122,1,110.000003356934,10|2,2:0|1:2,0:0:0:0:
2,310,275492,1,2,1:2:0:0:
40,307,275592,1,2,0:0:0:0:
78,304,275692,6,0,L|196:298,1,110.000003356934,6|2,1:2|1:2,0:0:0:0:
395,206,276092,1,2,1:2:0:0:
261,381,276292,1,2,1:2:0:0:
200,169,276492,2,0,L|268:168,1,55.0000016784668,10|0,2:0|0:0,0:0:0:0:
474,146,276692,1,10,2:0:0:0:
318,301,276892,1,2,1:2:0:0:
294,82,277092,1,2,1:2:0:0:
470,230,277292,6,0,L|463:353,1,110.000003356934,6|2,1:2|1:2,0:0:0:0:
267,215,277692,1,2,1:2:0:0:
474,146,277892,1,2,1:2:0:0:
382,347,278092,2,0,L|320:340,1,55.0000016784668,10|0,2:0|0:0,0:0:0:0:
161,213,278292,2,0,B|214:198|214:198|270:216,1,110.000003356934,10|2,2:0|1:2,0:0:0:0:
91,366,278692,1,2,1:2:0:0:
87,327,278792,1,2,0:0:0:0:
83,288,278892,6,0,L|77:176,1,110.000003356934,6|2,1:2|1:2,0:0:0:0:
262,57,279292,1,2,1:2:0:0:
42,48,279492,1,2,1:2:0:0:
177,221,279692,1,10,2:0:0:0:
211,3,279892,1,10,2:0:0:0:
28,126,280092,2,0,P|2:173|19:225,1,110.000003356934,2|2,1:2|1:2,0:0:0:0:
206,359,280492,5,6,1:2:0:0:
88,172,280692,1,2,1:2:0:0:
10,377,280892,2,0,L|126:373,1,110.000003356934,2|2,1:2|1:2,0:0:0:0:
340,362,281292,5,10,2:0:0:0:
340,362,281342,5,10,2:0:0:0:
273,210,281492,1,2,1:2:0:0:
139,384,281692,5,10,2:0:0:0:
139,384,281742,5,10,2:0:0:0:
70,234,281892,1,10,2:3:0:0:
71,195,281992,1,10,2:3:0:0:
71,156,282092,6,0,P|120:134|173:154,1,110.000003356934,6|2,1:2|1:2,0:0:0:0:
326,307,282492,1,2,1:2:0:0:
125,216,282692,1,2,1:2:0:0:
332,142,282892,1,10,2:0:0:0:
221,332,283092,1,10,2:0:0:0:
142,126,283292,6,0,L|259:124,1,110.000003356934,2|2,1:2|1:2,0:0:0:0:
459,226,283692,2,0,P|468:256|463:282,1,55.0000016784668,6|0,1:2|0:0,0:0:0:0:
297,135,283892,2,0,P|274:81|295:27,1,110.000003356934,2|2,1:2|1:2,0:0:0:0:
486,133,284292,1,2,1:2:0:0:
291,236,284492,1,10,2:0:0:0:
358,26,284692,1,10,2:0:0:0:
455,223,284892,1,2,1:2:0:0:
246,152,285092,1,2,1:2:0:0:
341,349,285292,6,0,B|395:363|395:363|450:346,1,110.000003356934,6|2,1:2|1:2,0:0:0:0:
339,154,285692,1,2,1:2:0:0:
221,340,285892,1,2,1:2:0:0:
158,129,286092,1,10,2:0:0:0:
352,232,286292,1,10,2:0:0:0:
149,317,286492,2,0,L|34:314,1,110.000003356934,2|2,1:2|1:2,0:0:0:0:
179,143,286892,5,6,1:2:0:0:
300,326,287092,1,2,1:2:0:0:
406,133,287292,2,0,P|357:116|301:131,1,110.000003356934,2|2,1:2|1:2,0:0:0:0:
114,245,287692,5,10,2:0:0:0:
114,245,287742,5,10,2:0:0:0:
273,288,287892,1,2,1:2:0:0:
264,68,288092,5,10,2:0:0:0:
264,68,288142,5,10,2:0:0:0:
204,221,288292,1,2,1:2:0:0:
55,43,288492,5,6,1:2:0:0:
204,136,288692,1,2,1:2:0:0:
61,239,288892,2,0,L|59:118,1,110.000003356934,10|0,2:0|0:0,0:0:0:0:
202,230,289292,1,2,1:2:0:0:
49,317,289492,1,2,1:2:0:0:
224,381,289692,2,0,P|285:390|333:369,1,110.000003356934,10|2,2:0|1:2,0:0:0:0:
428,227,290092,5,6,1:2:0:0:
512,381,290292,1,2,1:2:0:0:
328,342,290492,2,0,L|325:224,1,110.000003356934,10|0,2:0|0:0,0:0:0:0:
319,33,290892,1,2,1:2:0:0:
431,196,291092,1,2,1:2:0:0:
234,217,291292,1,10,2:0:0:0:
395,102,291492,1,2,1:2:0:0:
450,292,291692,5,6,1:2:0:0:
308,153,291892,1,2,1:2:0:0:
279,360,292092,2,0,B|335:375|335:375|389:355,1,110.000003356934,10|0,2:0|0:0,0:0:0:0:
310,173,292492,1,2,1:2:0:0:
173,316,292692,1,2,1:2:0:0:
137,109,292892,2,0,L|248:113,1,110.000003356934,10|2,2:0|1:2,0:0:0:0:
394,246,293292,5,6,1:2:0:0:
508,84,293492,1,2,1:2:0:0:
311,12,293692,2,0,P|285:62|310:120,1,110.000003356934,10|0,2:0|0:0,0:0:0:0:
416,270,294092,1,2,1:2:0:0:
230,199,294292,1,2,1:2:0:0:
408,113,294492,1,10,2:0:0:0:
332,296,294692,1,2,1:2:0:0:
263,110,294892,5,14,2:0:0:0:
456,214,295092,1,2,1:2:0:0:
251,294,295292,1,10,2:0:0:0:
335,90,295492,1,2,1:2:0:0:
429,288,295692,1,10,2:0:0:0:
222,212,295892,1,2,1:2:0:0:
410,97,296092,2,0,P|463:81|520:103,1,110.000003356934,10|2,2:0|1:2,0:0:0:0:
351,246,296492,5,10,2:0:0:0:
289,34,296692,1,2,1:2:0:0:
463,167,296892,1,10,2:0:0:0:
243,161,297092,1,2,1:2:0:0:
396,319,297292,1,10,2:0:0:0:
431,101,297492,1,2,1:2:0:0:
257,236,297692,2,0,L|145:235,1,110.000003356934,10|2,2:0|1:2,0:0:0:0:
11,60,298092,5,14,2:0:0:0:
222,119,298292,1,2,1:2:0:0:
40,243,298492,1,14,2:0:0:0:
95,30,298692,1,2,1:2:0:0:
230,203,298892,1,14,2:0:0:0:
12,170,299092,1,2,1:2:0:0:
185,34,299292,1,10,2:0:0:0:
223,35,299392,1,10,2:0:0:0:
261,36,299492,2,0,L|318:37,1,55.0000016784668,2|0,1:2|0:0,0:0:0:0:
458,139,299692,6,0,L|401:140,1,55.0000016784668,6|0,1:2|0:0,0:0:0:0:
211,189,299892,1,10,2:0:0:0:
190,207,299992,1,10,2:0:0:0:
174,226,300092,2,0,P|165:252|169:278,1,55.0000016784668,2|2,1:2|1:2,0:0:0:0:
379,373,300292,1,10,2:0:0:0:
396,339,300392,1,10,2:0:0:0:
407,305,300492,5,10,2:0:0:0:
358,252,300592,1,10,2:0:0:0:
292,262,300692,1,10,2:3:0:0:
254,315,300792,1,10,2:3:0:0:
218,356,300892,1,10,2:3:0:0:
171,372,300992,1,10,2:3:0:0:
127,365,301092,1,2,1:2:0:0:
100,337,301192,1,2,1:2:0:0:
83,305,301292,6,0,B|61:256|89:211|89:211|121:220|161:211|161:211|185:227|185:227|214:217|250:227|250:227|277:176|254:142|254:142|232:120|199:131|199:131|187:126|187:126|162:138|137:130,1,479.999985351563,6|2,1:2|2:0,0:0:0:0:
256,192,307792,12,2,313692,2:0:0:0:
47,286,314092,6,0,P|73:272|128:312,1,104.999996795654,2|0,2:0|0:2,0:0:0:0:
183,367,315692,2,0,P|209:381|267:343,1,104.999996795654,2|0,2:0|0:0,0:0:0:0:
303,273,317292,6,0,B|303:228|303:228|307:220|307:220|307:168,1,104.999996795654,2|0,2:0|0:0,0:0:0:0:
251,118,318892,2,0,B|225:103|190:123|208:135|181:149|152:140,1,104.999996795654,2|0,2:0|0:0,0:0:0:0:
87,96,320492,6,0,B|90:71|113:63|113:63|131:25|96:-13|40:-3|31:29,1,179.999994506836,2|0,2:0|0:0,0:0:0:0:
225,79,323292,5,2,2:0:0:0:
225,79,323492,2,0,L|259:78,1,29.9999990844727,2|0,2:0|0:0,0:0:0:0:
323,36,323892,2,0,L|357:37,1,29.9999990844727,2|0,2:0|0:0,0:0:0:0:
417,74,324292,2,0,P|423:95|421:115,1,29.9999990844727,2|0,2:0|0:0,0:0:0:0:
385,171,324692,1,2,2:0:0:0:
270,350,325092,6,0,L|229:349,1,29.9999990844727,2|0,2:0|0:0,0:0:0:0:
176,304,325492,2,0,L|135:305,1,29.9999990844727,2|0,2:0|0:0,0:0:0:0:
59,256,325892,1,2,2:0:0:0:
59,256,326092,6,0,B|53:269|53:269|58:275|58:275|51:281|51:281|59:290|59:290|53:294|53:294|58:301,1,52.4999983978272
71,225,326892,6,0,B|120:240|120:240|211:211,1,134.999995880127,10|0,1:2|0:0,0:0:0:0:
253,168,327292,6,0,L|250:96,1,67.4999979400635,10|0,1:2|0:0,0:0:0:0:
197,46,327692,6,0,B|183:43|183:43|172:48|172:48|163:48|163:48|154:41,1,40,2|0,2:0|0:0,0:0:0:0:
0,198,328492,6,0,B|38:184|77:209|54:218|96:238|128:219,1,134.999995880127,10|0,1:2|0:0,0:0:0:0:
159,151,328892,6,0,P|193:177|202:216,1,67.4999979400635,10|0,1:2|0:0,0:0:0:0:
206,277,329292,6,0,B|200:287|200:287|203:294|203:294|200:300|200:300|203:306|203:306|203:313|203:313|204:319,1,40,2|0,2:0|0:0,0:0:0:0:
328,166,330092,6,0,P|274:158|278:73,1,134.999995880127,10|0,1:2|0:0,0:0:0:0:
316,34,330492,6,0,L|387:35,1,67.4999979400635,10|0,1:2|0:0,0:0:0:0:
458,82,330892,6,0,B|467:88|467:88|462:89|458:95|458:95|454:90|446:88|450:84|455:82,1,40,2|2,2:0|2:0,0:0:0:0:
256,192,331392,12,0,355092,0:0:0:0:
