osu file format v14

[General]
AudioFilename: audio.mp3
AudioLeadIn: 0
PreviewTime: 160204
Countdown: 1
SampleSet: Normal
StackLeniency: 0.6
Mode: 0
LetterboxInBreaks: 0
WidescreenStoryboard: 0

[Editor]
DistanceSpacing: 1
BeatDivisor: 4
GridSize: 4
TimelineZoom: 1.6

[Metadata]
Title:Thank You For The Venom
TitleUnicode:Thank You For The Venom
Artist:My Chemical Romance
ArtistUnicode:My Chemical Romance
Creator:FCL
Version:extreme
Source:
Tags:
BeatmapID:1189905
BeatmapSetID:562825

[Difficulty]
HPDrainRate:6
CircleSize:4.1
OverallDifficulty:8.5
ApproachRate:9.5
SliderMultiplier:1.8
SliderTickRate:1

[Events]
//Background and Video events
0,0,"e4007c38a215.jpg",0,0
//Break Periods
2,477,1995
2,5114,6633
2,19172,22140
2,130332,131271
2,160276,166633
//Storyboard Layer 0 (Background)
//Storyboard Layer 1 (Fail)
//Storyboard Layer 2 (Pass)
//Storyboard Layer 3 (Foreground)
//Storyboard Sound Samples

[TimingPoints]
277,289.855072463768,4,1,0,60,1,0
9552,-100,4,1,0,60,0,0
22885,-80,4,1,0,60,0,0
23465,-100,4,1,0,60,0,0
32740,-100,4,1,0,60,0,1
32958,-100,4,1,0,60,0,0
37088,-200,4,1,0,60,0,0
37378,-100,4,1,0,60,0,0
38972,-80,4,1,0,60,0,0
39552,-100,4,1,0,60,0,0
42016,-100,4,1,0,60,0,1
42233,-100,4,1,0,60,0,0
51291,-100,4,1,0,60,0,1
51508,-100,4,1,0,60,0,0
65204,-90.9090909090909,4,1,0,60,0,1
83755,-111.111111111111,4,1,0,60,0,0
85349,-80,4,1,0,60,0,0
85784,-111.111111111111,4,1,0,60,0,0
88392,-100,4,1,0,60,0,1
88682,-100,4,1,0,60,0,0
88782,-100,4,1,0,60,0,0
97668,-100,4,1,0,60,0,1
97958,-100,4,1,0,60,0,0
111581,-90.9090909090909,4,1,0,60,0,1
130132,-100,4,1,0,60,0,0
131871,-200,4,1,0,60,0,0
132450,-125,4,1,0,60,0,0
148682,-100,4,1,0,60,0,0
151001,-90.9090909090909,4,1,0,60,0,1
151291,-90.9090909090909,4,1,0,60,0,0
155639,-90.9090909090909,4,1,0,60,0,1
160276,-90.9090909090909,4,1,0,60,0,0
169552,-100,4,1,0,60,0,0
173900,-200,4,1,0,60,0,0
174190,-100,4,1,0,60,0,0
178827,-90.9090909090909,4,1,0,60,0,1
197378,-111.111111111111,4,1,0,60,0,1
211291,-90.9090909090908,4,1,0,60,0,1
215929,-90.9090909090909,4,1,0,60,0,0
218248,-66.6666666666667,4,1,0,60,0,0
218537,-66.6666666666667,4,1,0,20,0,0

[Colours]
Combo1 : 232,57,32
Combo2 : 190,38,12
Combo3 : 243,29,55
Combo4 : 254,12,18

[HitObjects]
183,72,277,5,4,0:2:0:0:
207,93,2595,5,4,0:2:0:0:
242,313,2739,1,0,0:0:0:0:
230,105,3755,5,4,0:2:0:0:
265,325,3899,1,0,0:0:0:0:
256,116,4334,5,4,0:2:0:0:
291,336,4478,1,0,0:0:0:0:
282,130,4914,5,4,0:0:0:0:
207,93,7233,5,4,0:2:0:0:
242,313,7377,1,0,0:0:0:0:
234,110,8392,5,4,0:2:0:0:
269,330,8536,1,0,0:0:0:0:
262,128,8972,5,4,0:2:0:0:
297,348,9116,1,0,0:0:0:0:
288,149,9552,6,0,L|488:137,1,180,4|8,0:0|0:0,0:0:0:0:
411,245,9987,1,0,0:0:0:0:
337,101,10132,2,0,P|330:64|346:-12,1,90
423,58,10421,1,8,0:0:0:0:
195,155,10566,1,0,0:0:0:0:
321,248,10711,6,0,L|443:243,1,90
484,292,11001,1,8,0:0:0:0:
252,353,11146,1,0,0:0:0:0:
195,155,11291,2,0,B|185:107|185:107|198:40,1,90
426,168,11581,2,0,L|336:171,1,90,8|0,0:0|0:0,0:0:0:0:
198,292,11871,5,0,0:2:0:0:
198,292,12016,1,0,0:0:0:0:
75,181,12161,5,12,0:2:0:0:
246,165,12305,1,0,0:0:0:0:
34,104,12450,5,12,0:2:0:0:
270,83,12595,1,0,0:0:0:0:
1,29,12740,5,12,0:2:0:0:
288,5,12885,1,0,0:0:0:0:
75,181,13030,6,0,L|180:176,1,90
288,5,13320,5,12,0:2:0:0:
1,29,13465,1,0,0:2:0:0:
270,83,13610,5,12,0:2:0:0:
34,104,13755,1,0,0:2:0:0:
246,165,13900,5,12,0:2:0:0:
75,181,14044,1,0,0:2:0:0:
260,342,14190,6,0,P|324:331|369:213,1,180,0|8,0:0|0:0,0:0:0:0:
246,165,14624,1,0,0:0:0:0:
426,60,14769,2,0,L|432:169,1,90
483,224,15059,1,8,0:0:0:0:
281,143,15204,1,0,0:0:0:0:
432,288,15349,6,0,P|381:308|313:288,1,90
135,360,15639,2,0,P|139:315|162:277,1,90,8|0,0:0|0:0,0:0:0:0:
224,78,15929,2,0,P|260:103|281:143,1,90
76,108,16219,1,0,0:0:0:0:
76,108,16363,1,0,0:0:0:0:
228,220,16508,5,8,0:0:0:0:
337,54,16653,1,8,0:0:0:0:
337,54,16726,1,8,0:0:0:0:
337,54,16798,1,8,0:0:0:0:
386,138,16943,1,8,0:0:0:0:
197,39,17088,1,8,0:0:0:0:
197,39,17233,1,8,0:0:0:0:
410,7,17378,1,8,0:0:0:0:
410,7,17668,5,8,0:3:0:0:
328,218,17813,1,8,0:3:0:0:
328,218,17885,1,8,0:3:0:0:
328,218,17958,1,8,0:3:0:0:
415,159,18103,1,8,0:3:0:0:
198,126,18248,1,8,0:3:0:0:
198,126,18392,1,8,0:3:0:0:
293,294,18537,2,0,B|325:305|339:291|339:291|352:297|352:297|366:286|366:286|400:303|452:278,1,135,0|0,0:0|2:0,0:0:0:0:
461,311,18827,5,8,0:0:0:0:
461,311,18972,1,8,0:0:0:0:
184,129,22740,5,0,0:0:0:0:
184,129,22885,2,0,B|248:146|294:118|294:118|312:132|312:132|328:119|328:119|368:160|434:165|488:88|461:7|358:8,1,393.75,0|0,0:0|2:0,0:0:0:0:
385,80,23465,5,0,0:0:0:0:
385,80,23610,2,0,L|388:188,1,90,0|8,0:0|0:0,0:0:0:0:
444,244,23900,1,0,0:0:0:0:
248,365,24045,2,0,P|228:317|242:257,1,90
361,67,24334,2,0,L|262:70,1,90,8|0,0:0|0:0,0:0:0:0:
146,222,24624,5,0,0:0:0:0:
146,222,24769,2,0,P|111:168|114:114,1,90,0|8,0:0|0:0,0:0:0:0:
177,54,25059,1,0,0:0:0:0:
347,202,25204,2,0,L|227:208,1,90
430,302,25494,1,8,0:0:0:0:
456,129,25639,1,0,0:0:0:0:
277,27,25784,6,0,L|285:133,1,90,4|0,0:2|0:0,0:0:0:0:
182,344,26074,2,0,L|175:254,1,90,12|0,0:2|0:0,0:0:0:0:
31,51,26363,2,0,L|40:171,1,90,4|0,0:2|0:0,0:0:0:0:
250,200,26653,1,8,0:0:0:0:
46,286,26798,6,0,B|95:303|138:277|138:277|183:250|255:281,1,180
405,364,27233,2,0,P|430:324|430:259,1,90,8|0,0:0|0:0,0:0:0:0:
315,128,27523,5,8,0:0:0:0:
315,128,27595,1,8,0:0:0:0:
315,128,27668,1,8,0:0:0:0:
219,268,27813,1,8,0:0:0:0:
187,299,27885,1,8,0:0:0:0:
143,310,27957,1,8,0:0:0:0:
100,299,28030,1,8,0:0:0:0:
68,268,28103,5,0,0:0:0:0:
68,268,28248,2,0,L|73:162,1,90,0|8,0:0|0:0,0:0:0:0:
269,41,28537,1,0,0:0:0:0:
269,41,28682,2,0,L|264:130,1,90
150,240,28972,1,8,0:0:0:0:
373,299,29117,5,0,0:0:0:0:
373,299,29262,2,0,L|377:209,1,90
200,80,29552,2,0,P|187:129|205:191,1,90,8|0,0:0|0:0,0:0:0:0:
373,299,29842,2,0,B|312:321|312:321|177:305,1,180,0|8,0:0|0:0,0:0:0:0:
44,362,30276,1,0,0:0:0:0:
175,212,30421,5,0,0:0:0:0:
175,212,30566,1,0,0:0:0:0:
27,171,30711,1,8,0:0:0:0:
86,277,30856,1,0,0:0:0:0:
200,83,31001,2,0,L|59:81,1,135,0|0,0:0|2:0,0:0:0:0:
30,82,31291,2,0,P|21:125|37:195,1,90,8|0,0:0|0:0,0:0:0:0:
222,311,31581,6,0,L|338:308,1,90
402,69,31871,2,0,L|286:66,1,90
178,235,32161,5,8,0:0:0:0:
148,201,32233,1,8,0:0:0:0:
139,157,32305,1,8,0:0:0:0:
152,115,32378,1,8,0:0:0:0:
178,86,32450,5,8,0:3:0:0:
156,79,32522,1,8,0:3:0:0:
138,66,32594,1,8,0:3:0:0:
126,47,32667,1,8,0:3:0:0:
123,25,32740,6,0,B|170:9|170:9|267:17,1,135,0|0,0:0|2:0,0:0:0:0:
278,45,33030,2,0,P|269:95|287:155,1,90,8|0,0:0|0:0,0:0:0:0:
408,232,33320,1,0,0:0:0:0:
408,232,33465,1,0,0:0:0:0:
282,339,33610,2,0,L|164:334,1,90,8|0,0:0|0:0,0:0:0:0:
83,198,33900,5,0,0:0:0:0:
171,230,34045,1,0,0:0:0:0:
24,339,34190,2,0,P|8:298|23:233,1,90,8|0,0:0|0:0,0:0:0:0:
167,79,34479,2,0,L|268:73,1,90
354,288,34769,2,0,L|253:282,1,90,8|0,0:0|0:0,0:0:0:0:
413,108,35059,6,0,P|419:147|423:227,1,90,4|0,0:2|0:0,0:0:0:0:
227,72,35349,2,0,P|221:111|217:191,1,90,12|0,0:2|0:0,0:0:0:0:
27,105,35639,2,0,P|33:144|37:224,1,90,4|0,0:2|0:0,0:0:0:0:
198,346,35929,2,0,L|287:342,1,90,8|0,0:0|0:0,0:0:0:0:
399,208,36219,5,0,0:0:0:0:
399,208,36363,1,0,0:0:0:0:
370,339,36508,1,0,0:0:0:0:
335,150,36653,1,0,0:0:0:0:
335,150,36726,1,0,0:0:0:0:
335,150,36798,1,0,0:0:0:0:
432,192,36943,1,0,0:0:0:0:
261,290,37088,6,0,L|255:204,1,67.5,8|0,0:0|2:0,0:0:0:0:
249,212,37378,6,0,L|260:364,1,135,0|0,0:0|2:0,0:0:0:0:
235,375,37668,1,8,0:0:0:0:
372,284,37813,1,0,0:0:0:0:
179,257,37958,2,0,P|168:216|184:154,1,90
241,106,38248,1,0,0:0:0:0:
40,38,38392,6,0,L|129:37,1,90
241,106,38682,1,0,0:0:0:0:
400,4,38827,1,8,0:0:0:0:
474,197,38972,6,0,L|337:202,1,112.5,4|0,0:2|0:0,0:0:0:0:
246,348,39262,2,0,L|133:343,1,112.5,4|8,0:2|0:0,0:0:0:0:
26,135,39552,6,0,B|70:109|70:109|196:117,1,135,0|0,0:0|2:0,0:0:0:0:
183,138,39842,1,0,0:0:0:0:
328,41,39987,1,8,0:0:0:0:
438,190,40132,2,0,B|389:208|346:185|346:185|306:163|240:196,1,180
157,312,40566,1,8,0:0:0:0:
157,312,40711,1,0,0:0:0:0:
50,206,40856,6,0,L|46:82,1,90
209,51,41146,2,0,L|270:51,1,45,8|0,0:0|2:0,0:0:0:0:
217,242,41291,1,0,0:0:0:0:
387,136,41436,1,8,0:0:0:0:
343,127,41508,1,8,0:0:0:0:
299,115,41581,1,8,0:0:0:0:
436,218,41726,1,8,0:0:0:0:
470,190,41798,1,8,0:0:0:0:
485,148,41870,1,8,0:0:0:0:
477,104,41943,1,8,0:0:0:0:
450,69,42016,6,0,P|379:91|292:48,1,135,0|0,0:0|2:0,0:0:0:0:
299,115,42305,2,0,L|174:120,1,90,8|0,0:0|0:0,0:0:0:0:
339,234,42595,1,0,0:0:0:0:
339,234,42740,1,0,0:0:0:0:
164,322,42885,2,0,P|139:274|152:205,1,90,8|0,0:0|0:0,0:0:0:0:
299,115,43175,5,0,0:0:0:0:
197,43,43320,1,0,0:0:0:0:
138,239,43465,2,0,L|30:237,1,90,8|0,0:0|0:0,0:0:0:0:
215,340,43755,1,0,0:0:0:0:
215,340,43900,1,0,0:0:0:0:
357,256,44045,2,0,B|372:209|372:209|353:143,1,90,8|0,0:0|0:0,0:0:0:0:
195,70,44334,6,0,L|80:64,1,90,4|0,0:2|0:0,0:0:0:0:
360,169,44624,2,0,L|449:173,1,90,12|0,0:2|0:0,0:0:0:0:
180,213,44914,2,0,L|65:207,1,90,4|0,0:2|0:0,0:0:0:0:
352,307,45204,2,0,L|441:311,1,90,12|0,0:2|0:0,0:0:0:0:
184,342,45494,6,0,P|168:302|206:180,1,135,0|0,0:0|2:0,0:0:0:0:
214,197,45784,2,0,P|230:155|209:82,1,90,8|0,0:0|0:0,0:0:0:0:
64,46,46074,5,8,0:0:0:0:
64,46,46146,1,8,0:0:0:0:
64,46,46219,1,8,0:0:0:0:
181,214,46363,1,8,0:0:0:0:
141,208,46435,1,8,0:0:0:0:
101,202,46507,1,8,0:0:0:0:
61,196,46580,1,8,0:0:0:0:
47,236,46653,5,0,0:0:0:0:
47,236,46798,2,0,L|39:354,1,90,0|8,0:0|0:0,0:0:0:0:
288,355,47088,1,0,0:0:0:0:
288,355,47233,2,0,L|281:265,1,90
156,182,47523,1,8,0:0:0:0:
349,122,47668,6,0,P|359:82|336:17,1,90
252,18,47958,1,0,0:0:0:0:
459,75,48103,1,8,0:0:0:0:
245,187,48248,2,0,L|125:180,1,90
342,348,48537,2,0,P|363:301|351:225,1,90,0|8,0:0|0:0,0:0:0:0:
218,108,48827,6,0,B|142:104|142:104|99:120|99:120|20:114,1,180,4|0,0:2|0:0,0:0:0:0:
118,340,49262,2,0,P|148:299|146:231,1,90,8|0,0:0|0:0,0:0:0:0:
41,115,49552,2,0,L|48:18,1,90
381,62,49842,2,0,L|387:151,1,90,8|0,0:0|0:0,0:0:0:0:
287,351,50132,6,0,L|138:355,1,135,0|0,0:0|2:0,0:0:0:0:
118,340,50421,2,0,P|101:283|112:214,1,90,8|0,0:0|0:0,0:0:0:0:
190,86,50711,5,8,0:0:0:0:
227,110,50783,1,8,0:0:0:0:
271,118,50855,1,8,0:0:0:0:
314,109,50928,1,8,0:0:0:0:
350,82,51000,5,8,0:3:0:0:
348,105,51073,1,8,0:3:0:0:
345,127,51145,1,8,0:3:0:0:
342,149,51218,1,8,0:3:0:0:
340,172,51291,6,0,B|400:189|400:189|490:168,1,135,0|0,0:0|2:0,0:0:0:0:
508,196,51581,2,0,L|504:291,1,90,8|0,0:0|0:0,0:0:0:0:
347,355,51871,1,0,0:0:0:0:
448,371,52016,1,0,0:0:0:0:
266,261,52161,2,0,P|249:215|263:155,1,90,8|0,0:0|0:0,0:0:0:0:
368,60,52450,5,0,0:0:0:0:
368,60,52595,1,0,0:0:0:0:
204,22,52740,2,0,L|109:28,1,90,8|0,0:0|0:0,0:0:0:0:
28,200,53030,2,0,P|29:244|49:294,1,90
239,345,53320,1,8,0:0:0:0:
283,238,53465,1,0,0:0:0:0:
466,349,53610,6,0,P|393:346|350:322,1,90,4|0,0:2|0:0,0:0:0:0:
94,222,53900,2,0,P|167:219|210:195,1,90,12|0,0:2|0:0,0:0:0:0:
450,125,54190,2,0,P|377:122|334:98,1,90,4|0,0:2|0:0,0:0:0:0:
173,16,54479,2,0,L|177:113,1,90,8|0,0:0|0:0,0:0:0:0:
284,258,54769,5,8,0:0:0:0:
241,247,54841,1,8,0:0:0:0:
219,209,54913,1,8,0:0:0:0:
232,167,54986,1,8,0:0:0:0:
255,130,55059,1,8,0:0:0:0:
255,85,55131,1,8,0:0:0:0:
232,48,55204,1,8,0:0:0:0:
192,29,55276,1,8,0:0:0:0:
147,34,55349,5,8,0:3:0:0:
140,55,55421,1,8,0:3:0:0:
138,77,55493,1,8,0:3:0:0:
142,100,55566,1,8,0:3:0:0:
168,120,55638,1,8,0:3:0:0:
175,141,55711,1,8,0:3:0:0:
177,163,55783,1,8,0:3:0:0:
174,186,55856,1,8,0:3:0:0:
152,209,55929,6,0,L|149:310,1,90,4|0,0:2|0:0,0:0:0:0:
327,377,56219,2,0,P|344:328|315:264,1,90,10|0,0:2|0:0,0:0:0:0:
159,164,56508,2,0,P|142:115|171:51,1,90,2|0,0:2|0:0,0:0:0:0:
252,26,56798,1,10,0:2:0:0:
428,149,56943,6,0,L|434:257,1,90,0|2,0:0|0:2,0:0:0:0:
336,291,57233,1,0,0:0:0:0:
159,164,57378,2,0,B|203:153|203:153|269:163,1,90,10|0,0:2|0:0,0:0:0:0:
118,358,57668,2,0,P|88:320|88:266,1,90,2|0,0:2|0:0,0:0:0:0:
149,78,57958,2,0,L|145:15,1,45,12|0,0:0|2:0,0:0:0:0:
312,109,58103,6,0,P|328:172|240:239,1,180
437,366,58537,2,0,L|439:256,1,90,10|0,0:2|0:0,0:0:0:0:
499,66,58827,1,2,0:2:0:0:
475,192,58972,1,0,0:0:0:0:
339,24,59117,2,0,P|285:34|224:59,1,90,10|0,0:2|0:0,0:0:0:0:
227,323,59407,5,8,0:0:0:0:
319,212,59552,1,8,0:0:0:0:
209,120,59697,1,8,0:0:0:0:
116,230,59842,1,8,0:0:0:0:
239,313,59987,5,8,0:3:0:0:
303,212,60132,1,8,0:3:0:0:
203,148,60277,1,8,0:3:0:0:
138,247,60422,1,8,0:3:0:0:
403,305,60566,6,0,P|434:242|426:191,1,90,4|0,0:2|0:0,0:0:0:0:
348,68,60856,2,0,L|229:61,1,90,10|0,0:2|0:0,0:0:0:0:
410,6,61146,1,2,0:2:0:0:
410,6,61291,1,0,0:0:0:0:
220,140,61436,2,0,P|177:100|174:35,1,90,10|0,0:2|0:0,0:0:0:0:
383,122,61726,5,2,0:2:0:0:
346,211,61871,1,0,0:0:0:0:
489,324,62016,2,0,L|492:211,1,90,10|0,0:2|0:0,0:0:0:0:
275,366,62305,2,0,L|272:253,1,90,2|0,0:2|0:0,0:0:0:0:
52,335,62595,2,0,L|44:222,1,90,10|0,0:2|0:0,0:0:0:0:
197,46,62885,5,0,0:0:0:0:
272,181,63030,1,0,0:0:0:0:
181,304,63175,1,8,0:0:0:0:
205,40,63465,5,0,0:0:0:0:
269,192,63610,1,0,0:0:0:0:
159,310,63755,1,8,0:0:0:0:
214,44,64045,5,0,0:0:0:0:
264,204,64190,1,0,0:0:0:0:
139,312,64334,2,0,P|94:316|35:311,1,90,8|0,0:0|0:0,0:0:0:0:
186,158,64624,5,8,0:0:0:0:
219,128,64696,1,8,0:0:0:0:
262,117,64768,1,8,0:0:0:0:
306,124,64841,1,8,0:0:0:0:
343,150,64913,1,8,0:0:0:0:
384,165,64986,1,8,0:0:0:0:
426,151,65058,1,8,0:0:0:0:
449,113,65131,1,8,0:0:0:0:
443,70,65204,6,0,L|309:63,1,99.0000030212403,4|0,0:2|0:0,0:0:0:0:
213,251,65494,2,0,P|188:192|194:115,1,99.0000030212403,8|0,0:0|0:0,0:0:0:0:
34,38,65784,1,0,0:0:0:0:
149,50,65929,1,0,0:0:0:0:
17,206,66074,2,0,L|123:199,1,99.0000030212403,8|0,0:0|0:0,0:0:0:0:
245,273,66363,5,0,0:0:0:0:
245,273,66508,1,0,0:0:0:0:
388,204,66653,5,12,0:2:0:0:
199,179,66798,1,0,0:0:0:0:
401,127,66943,5,12,0:2:0:0:
166,97,67088,1,0,0:0:0:0:
410,52,67233,6,0,L|336:42,1,49.5000015106202,8|0,0:0|2:0,0:0:0:0:
127,23,67378,6,0,L|139:231,1,198.000006042481
301,354,67813,2,0,P|322:295|305:215,1,99.0000030212403,8|0,0:0|0:0,0:0:0:0:
119,369,68103,1,0,0:0:0:0:
222,354,68248,1,0,0:0:0:0:
52,234,68392,2,0,L|45:113,1,99.0000030212403,8|0,0:0|0:0,0:0:0:0:
192,226,68682,5,0,0:0:0:0:
192,226,68827,1,0,0:0:0:0:
105,83,68972,5,12,0:2:0:0:
328,150,69117,1,0,0:0:0:0:
163,27,69262,5,12,0:2:0:0:
343,167,69407,1,0,0:0:0:0:
245,8,69552,5,12,0:2:0:0:
349,188,69697,6,0,L|341:308,1,99.0000030212403
108,366,69987,1,0,0:0:0:0:
108,366,70132,2,0,P|92:313|103:242,1,99.0000030212403,8|0,0:0|0:0,0:0:0:0:
291,115,70421,2,0,L|139:121,1,148.50000453186,0|0,0:0|2:0,0:0:0:0:
75,75,70711,2,0,P|102:133|78:190,1,99.0000030212403,8|0,0:0|0:0,0:0:0:0:
37,343,71001,5,4,0:2:0:0:
164,329,71146,1,0,0:0:0:0:
182,253,71291,5,12,0:2:0:0:
6,268,71436,1,0,0:2:0:0:
190,175,71581,5,4,0:2:0:0:
14,160,71726,1,0,0:2:0:0:
45,85,71871,5,12,0:2:0:0:
172,99,72016,2,0,B|251:95|251:95|285:120|285:120|377:113,1,198.000006042481
486,294,72450,2,0,P|406:281|368:236,1,99.0000030212403,8|0,0:0|0:0,0:0:0:0:
376,104,72740,1,0,0:0:0:0:
376,104,72885,1,0,0:0:0:0:
235,214,73030,2,0,L|241:323,1,99.0000030212403,8|0,0:0|0:0,0:0:0:0:
127,255,73320,5,0,0:0:0:0:
218,203,73465,1,8,0:3:0:0:
218,203,73537,1,8,0:3:0:0:
218,203,73610,1,8,0:3:0:0:
105,149,73755,5,8,0:0:0:0:
102,114,73827,1,8,0:0:0:0:
99,79,73899,1,8,0:0:0:0:
225,165,74045,1,8,0:0:0:0:
227,130,74117,1,8,0:0:0:0:
230,95,74189,1,8,0:0:0:0:
366,187,74334,1,8,0:0:0:0:
364,152,74406,1,8,0:0:0:0:
361,117,74479,6,0,B|340:148|340:148|359:297,1,148.50000453186,4|0,0:2|2:0,0:0:0:0:
403,332,74769,2,0,L|278:326,1,99.0000030212403,8|0,0:0|0:0,0:0:0:0:
86,366,75059,2,0,P|63:325|66:246,1,99.0000030212403
144,86,75349,2,0,B|193:74|193:74|240:83,1,99.0000030212403,8|0,0:0|0:0,0:0:0:0:
394,147,75639,5,0,0:0:0:0:
394,147,75784,1,0,0:0:0:0:
299,294,75929,5,12,0:2:0:0:
310,134,76074,1,0,0:0:0:0:
379,335,76219,5,4,0:2:0:0:
394,147,76364,1,0,0:0:0:0:
461,370,76508,6,0,L|469:286,1,49.5000015106202,12|0,0:2|2:0,0:0:0:0:
476,165,76653,6,0,P|392:178|268:144,1,198.000006042481
135,35,77088,2,0,L|144:146,1,99.0000030212403,8|0,0:0|0:0,0:0:0:0:
249,45,77378,1,0,0:0:0:0:
249,45,77523,1,0,0:0:0:0:
55,160,77668,2,0,P|94:209|152:222,1,99.0000030212403,8|0,0:0|0:0,0:0:0:0:
225,193,77958,5,0,0:0:0:0:
197,358,78103,1,0,0:0:0:0:
304,219,78248,5,12,0:2:0:0:
284,346,78392,1,0,0:0:0:0:
397,183,78537,5,4,0:2:0:0:
368,350,78682,1,0,0:0:0:0:
492,156,78827,5,12,0:2:0:0:
453,354,78972,1,0,0:0:0:0:
397,183,79117,6,0,L|399:24,1,148.50000453186,0|0,0:0|2:0,0:0:0:0:
466,0,79407,2,0,P|406:17|348:4,1,99.0000030212403,8|0,0:0|0:0,0:0:0:0:
184,148,79697,2,0,L|190:269,1,99.0000030212403
278,192,79987,1,0,0:0:0:0:
73,114,80132,2,0,L|70:36,1,49.5000015106202,0|0,0:0|2:0,0:0:0:0:
338,23,80276,6,0,P|291:67|263:110,1,99.0000030212403
421,21,80566,1,8,0:0:0:0:
189,89,80711,1,0,0:0:0:0:
361,133,80856,1,0,0:0:0:0:
317,305,81001,1,0,0:0:0:0:
270,151,81146,2,0,P|271:88|258:25,1,99.0000030212403,8|0,0:0|0:0,0:0:0:0:
173,315,81436,5,4,0:2:0:0:
420,291,81581,1,0,0:0:0:0:
142,242,81726,5,12,0:2:0:0:
373,183,81871,1,0,0:0:0:0:
76,200,82016,5,4,0:2:0:0:
289,102,82161,1,0,0:0:0:0:
0,184,82305,5,12,0:2:0:0:
206,34,82450,1,0,0:0:0:0:
72,59,82595,5,4,0:2:0:0:
220,241,82740,1,0,0:0:0:0:
289,102,82885,5,12,0:2:0:0:
73,279,83030,1,0,0:0:0:0:
172,163,83175,6,0,L|54:153,1,99.0000030212403
353,284,83465,2,0,L|471:274,1,99.0000030212403,8|0,0:0|0:0,0:0:0:0:
223,139,83755,6,0,L|231:283,1,121.499996292114,4|0,0:2|2:0,0:0:0:0:
230,261,84045,2,0,L|226:358,1,80.9999975280763
349,203,84334,2,0,L|353:300,1,80.9999975280763
485,163,84624,2,0,L|481:260,1,80.9999975280763
335,360,84914,6,0,P|296:335|271:278,1,80.9999975280763
275,164,85204,1,0,0:0:0:0:
131,302,85349,6,0,B|121:240|121:240|135:198|135:198|119:104,1,168.75,0|0,0:0|2:0,0:0:0:0:
52,103,85639,2,0,L|40:25,1,56.25,0|0,0:0|2:0,0:0:0:0:
197,92,85784,1,8,0:0:0:0:
3,204,85929,1,0,0:0:0:0:
241,260,86074,6,0,P|306:256|372:216,1,121.499996292114,0|0,0:0|2:0,0:0:0:0:
355,230,86363,2,0,P|394:277|401:317,1,80.9999975280763,8|0,0:0|0:0,0:0:0:0:
214,245,86653,2,0,P|175:198|168:158,1,80.9999975280763
349,58,86943,2,0,P|322:113|289:136,1,80.9999975280763,8|0,0:0|0:0,0:0:0:0:
106,230,87233,6,0,L|109:337,1,80.9999975280763
20,265,87523,1,8,0:0:0:0:
118,63,87668,5,8,0:0:0:0:
152,83,87740,1,8,0:0:0:0:
192,87,87812,1,8,0:0:0:0:
230,74,87885,1,8,0:0:0:0:
265,35,87958,5,8,0:0:0:0:
315,23,88030,1,8,0:0:0:0:
358,50,88102,1,8,0:0:0:0:
369,100,88175,1,8,0:0:0:0:
340,142,88247,1,8,0:0:0:0:
290,151,88320,1,8,0:0:0:0:
242,115,88392,6,0,B|269:93|269:93|402:102,1,135,4|0,0:2|2:0,0:0:0:0:
397,123,88682,2,0,P|389:186|405:224,1,90
510,326,88972,1,0,0:0:0:0:
510,326,89117,1,0,0:0:0:0:
313,374,89262,2,0,L|308:255,1,90,8|0,0:0|0:0,0:0:0:0:
397,123,89552,5,0,0:0:0:0:
316,211,89697,1,0,0:0:0:0:
510,326,89842,2,0,P|458:317|397:318,1,90,8|0,0:0|0:0,0:0:0:0:
231,384,90132,1,0,0:0:0:0:
231,384,90276,1,0,0:0:0:0:
100,306,90421,2,0,L|93:204,1,90,8|0,0:0|0:0,0:0:0:0:
282,55,90711,6,0,P|278:107|234:148,1,90,4|0,0:2|0:0,0:0:0:0:
85,294,91001,2,0,P|89:242|133:201,1,90,4|0,0:2|0:0,0:0:0:0:
296,69,91291,2,0,P|287:120|240:157,1,90,4|0,0:2|0:0,0:0:0:0:
61,294,91581,2,0,P|69:242|116:205,1,90,4|0,0:2|0:0,0:0:0:0:
312,293,91871,5,0,0:0:0:0:
312,293,92016,1,0,0:0:0:0:
435,188,92161,2,0,L|320:186,1,90,8|0,0:0|0:0,0:0:0:0:
178,66,92450,1,8,0:0:0:0:
197,106,92523,1,8,0:0:0:0:
199,150,92595,1,8,0:0:0:0:
59,220,92740,1,0,0:0:0:0:
61,251,92812,1,0,0:0:0:0:
63,282,92884,1,0,0:0:0:0:
65,314,92957,1,0,0:0:0:0:
68,345,93029,5,4,0:2:0:0:
68,345,93175,2,0,B|93:304|93:304|90:242,1,90,0|8,0:0|0:0,0:0:0:0:
197,106,93465,1,0,0:2:0:0:
197,106,93610,2,0,B|222:147|222:147|219:209,1,90
88,109,93900,1,8,0:0:0:0:
245,33,94045,6,0,L|358:29,2,90
219,188,94479,1,8,0:0:0:0:
384,107,94624,2,0,P|421:57|420:3,1,90
485,118,94914,1,0,0:0:0:0:
245,29,95059,1,8,0:0:0:0:
392,190,95204,6,0,L|401:366,1,135,4|0,0:2|2:0,0:0:0:0:
426,340,95494,1,0,0:0:0:0:
299,264,95639,1,8,0:0:0:0:
495,190,95784,1,0,0:0:0:0:
299,131,95929,2,0,P|238:126|177:150,1,90
90,274,96219,1,8,0:0:0:0:
59,162,96363,1,0,0:0:0:0:
214,248,96508,6,0,L|218:362,1,90
299,131,96798,2,0,L|302:41,1,90,8|0,0:0|0:0,0:0:0:0:
492,186,97088,5,8,0:0:0:0:
447,182,97160,1,8,0:0:0:0:
402,178,97232,1,8,0:0:0:0:
357,174,97305,1,8,0:0:0:0:
312,170,97377,1,8,0:0:0:0:
267,167,97450,1,8,0:0:0:0:
222,163,97522,1,8,0:0:0:0:
178,159,97595,1,8,0:0:0:0:
133,155,97668,6,0,L|139:324,1,135,4|0,0:2|2:0,0:0:0:0:
108,321,97958,2,0,P|149:306|220:314,1,90,8|0,0:0|0:0,0:0:0:0:
375,344,98248,1,0,0:0:0:0:
237,377,98392,1,0,0:0:0:0:
267,167,98537,2,0,L|258:49,1,90,8|0,0:0|0:0,0:0:0:0:
103,38,98827,5,0,0:0:0:0:
103,38,98972,1,0,0:0:0:0:
197,217,99117,2,0,P|255:250|305:241,1,90,8|0,0:0|0:0,0:0:0:0:
439,140,99407,1,0,0:0:0:0:
401,240,99552,1,0,0:0:0:0:
260,77,99697,2,0,L|362:75,1,90,8|0,0:0|0:0,0:0:0:0:
62,286,99987,6,0,P|53:235|58:170,1,90,4|0,0:2|0:0,0:0:0:0:
260,305,100276,2,0,P|259:253|264:189,1,90,8|0,0:0|0:0,0:0:0:0:
443,303,100566,2,0,P|452:252|447:187,1,90
210,40,100856,2,0,L|207:167,1,90,8|0,0:0|0:0,0:0:0:0:
81,265,101146,5,8,0:0:0:0:
101,304,101218,1,8,0:0:0:0:
141,321,101290,1,8,0:0:0:0:
184,310,101363,1,8,0:0:0:0:
211,275,101435,1,8,0:0:0:0:
228,234,101508,1,8,0:0:0:0:
265,211,101580,1,8,0:0:0:0:
310,215,101653,1,8,0:0:0:0:
343,244,101725,5,8,0:3:0:0:
350,239,101798,1,8,0:3:0:0:
358,236,101871,1,8,2:3:0:0:
495,325,102016,1,8,0:3:0:0:
487,319,102088,1,8,2:3:0:0:
310,378,102233,1,8,0:3:0:0:
310,378,102305,6,0,P|296:322|323:220,1,135,0|0,0:0|2:0,0:0:0:0:
284,221,102595,2,0,L|285:106,1,90,10|0,0:2|0:0,0:0:0:0:
61,33,102885,2,0,P|54:67|75:135,1,90,2|0,0:2|0:0,0:0:0:0:
275,38,103175,1,10,0:2:0:0:
194,225,103320,6,0,L|297:220,1,90,0|2,0:0|0:2,0:0:0:0:
361,278,103610,1,0,0:0:0:0:
490,106,103755,2,0,P|437:97|374:108,1,90,10|0,0:2|0:0,0:0:0:0:
202,312,104045,2,0,B|187:266|187:266|198:191,1,90,2|0,0:2|0:0,0:0:0:0:
251,39,104334,2,0,L|183:44,1,45,8|0,0:0|2:0,0:0:0:0:
333,148,104479,6,0,P|370:204|310:315,1,180,4|0,0:2|0:0,0:0:0:0:
193,224,104914,2,0,L|202:104,1,90,10|0,0:2|0:0,0:0:0:0:
14,46,105204,2,0,L|20:135,1,90,2|0,0:2|0:0,0:0:0:0:
213,51,105494,2,0,P|271:91|283:142,1,90,10|0,0:2|0:0,0:0:0:0:
141,231,105784,5,8,0:0:0:0:
264,286,105929,1,8,0:0:0:0:
387,214,106074,1,8,0:0:0:0:
504,280,106219,1,8,0:0:0:0:
342,313,106363,5,8,0:3:0:0:
387,214,106508,1,8,0:3:0:0:
217,147,106653,1,4,0:0:0:0:
256,46,106798,1,8,0:3:0:0:
387,124,106943,6,0,L|387:239,1,90
219,358,107233,2,0,P|204:304|222:238,1,90,10|0,0:2|0:0,0:0:0:0:
352,133,107523,1,2,0:2:0:0:
352,133,107668,1,0,0:0:0:0:
256,46,107813,2,0,L|137:40,1,90,10|0,0:2|0:0,0:0:0:0:
281,173,108103,5,2,0:2:0:0:
155,197,108248,1,0,0:0:0:0:
284,341,108392,2,0,P|304:285|303:239,1,90,10|0,0:2|0:0,0:0:0:0:
79,216,108682,2,0,P|45:167|34:122,1,90,2|0,0:2|0:0,0:0:0:0:
270,100,108972,2,0,P|290:44|289:-2,1,90,10|0,0:2|0:0,0:0:0:0:
135,144,109262,5,0,0:0:0:0:
318,178,109407,1,0,0:0:0:0:
284,341,109552,1,8,0:0:0:0:
128,154,109842,5,0,0:0:0:0:
323,166,109987,1,0,0:0:0:0:
308,340,110132,1,8,0:0:0:0:
119,169,110421,5,0,0:0:0:0:
321,156,110566,1,0,0:0:0:0:
328,337,110711,2,0,L|331:224,1,90,8|0,0:0|0:0,0:0:0:0:
245,81,111001,5,8,0:0:0:0:
234,124,111073,1,8,0:0:0:0:
205,158,111145,1,8,0:0:0:0:
163,174,111218,1,8,0:0:0:0:
119,169,111291,1,8,0:0:0:0:
122,213,111363,1,8,0:0:0:0:
100,252,111435,1,8,0:0:0:0:
61,274,111508,1,8,0:0:0:0:
18,271,111581,6,0,P|17:219|32:150,1,99.0000030212403,4|0,0:2|0:0,0:0:0:0:
211,59,111871,2,0,L|203:180,1,99.0000030212403,8|0,0:0|0:0,0:0:0:0:
379,329,112161,1,0,0:0:0:0:
236,317,112305,1,0,0:0:0:0:
385,158,112450,2,0,P|423:197|438:256,1,99.0000030212403,8|0,0:0|0:0,0:0:0:0:
222,306,112740,5,0,0:0:0:0:
222,306,112885,1,0,0:0:0:0:
88,216,113030,5,12,0:2:0:0:
255,195,113175,1,0,0:0:0:0:
58,138,113320,5,4,0:2:0:0:
268,210,113465,1,0,0:0:0:0:
56,55,113610,6,0,P|87:55|134:73,1,49.5000015106202,12|0,0:2|2:0,0:0:0:0:
277,227,113755,6,0,P|290:280|172:346,1,198.000006042481
386,278,114190,2,0,L|395:152,1,99.0000030212403,8|0,0:0|0:0,0:0:0:0:
497,43,114479,1,0,0:0:0:0:
497,43,114624,1,0,0:0:0:0:
268,15,114769,2,0,P|263:59|276:119,1,99.0000030212403,8|0,0:0|0:0,0:0:0:0:
485,175,115059,5,0,0:0:0:0:
485,175,115204,1,0,0:0:0:0:
329,297,115349,5,12,0:2:0:0:
311,137,115494,1,0,0:0:0:0:
251,329,115639,5,4,0:2:0:0:
231,152,115784,1,0,0:0:0:0:
170,355,115929,5,12,0:2:0:0:
149,168,116074,6,0,L|310:164,1,148.50000453186,0|0,0:0|2:0,0:0:0:0:
345,236,116363,2,0,P|394:209|462:190,1,99.0000030212403,0|8,0:0|0:0,0:0:0:0:
477,107,116653,1,0,0:0:0:0:
276,366,116798,2,0,L|274:265,1,99.0000030212403
83,164,117088,2,0,L|85:63,1,99.0000030212403,8|0,0:0|0:0,0:0:0:0:
233,142,117378,5,0,0:0:0:0:
233,142,117523,1,0,0:0:0:0:
71,298,117668,2,0,L|183:289,1,99.0000030212403,8|0,0:0|0:0,0:0:0:0:
392,379,117958,2,0,P|415:311|400:252,1,99.0000030212403
233,142,118248,1,8,0:0:0:0:
315,43,118392,1,0,0:0:0:0:
388,200,118537,5,0,0:0:0:0:
388,200,118682,1,0,0:0:0:0:
262,329,118827,2,0,L|265:199,1,99.0000030212403,12|0,0:2|0:0,0:0:0:0:
423,356,119117,1,0,0:0:0:0:
423,356,119262,1,0,0:0:0:0:
184,299,119407,2,0,L|187:169,1,99.0000030212403,12|0,0:2|0:0,0:0:0:0:
94,107,119697,5,8,0:3:0:0:
94,107,119842,1,8,0:3:0:0:
277,182,119987,1,8,0:0:0:0:
394,99,120132,5,8,0:0:0:0:
356,87,120204,1,8,0:0:0:0:
319,98,120276,1,8,0:0:0:0:
188,35,120421,1,8,0:0:0:0:
196,73,120493,1,8,0:0:0:0:
224,100,120565,1,8,0:0:0:0:
240,247,120711,1,8,0:0:0:0:
268,220,120783,1,8,0:0:0:0:
277,182,120856,6,0,L|152:177,1,99.0000030212403,4|0,0:2|0:0,0:0:0:0:
67,328,121146,1,8,0:0:0:0:
65,197,121291,1,0,0:0:0:0:
313,368,121436,2,0,P|331:326|331:263,1,99.0000030212403
450,55,121726,2,0,L|444:153,1,99.0000030212403,8|0,0:0|0:0,0:0:0:0:
252,303,122016,6,0,P|179:291|114:301,1,99.0000030212403
13,158,122305,5,12,0:2:0:0:
215,108,122450,1,0,0:0:0:0:
0,189,122595,5,4,0:2:0:0:
184,39,122740,1,0,0:0:0:0:
2,224,122885,6,0,P|31:222|76:201,1,49.5000015106202,12|0,0:2|2:0,0:0:0:0:
113,13,123030,6,0,B|107:88|107:88|129:126|129:126|120:211,1,198.000006042481,0|0,0:2|0:0,0:0:0:0:
226,335,123465,2,0,P|254:304|268:229,1,99.0000030212403,8|0,0:0|0:0,0:0:0:0:
408,115,123755,1,0,0:0:0:0:
408,115,123900,1,0,0:0:0:0:
499,257,124045,2,0,L|372:261,1,99.0000030212403,8|0,0:0|0:0,0:0:0:0:
226,335,124334,5,0,0:0:0:0:
226,335,124479,2,0,B|210:284|210:284|222:228,1,99.0000030212403,0|12,0:0|0:2,0:0:0:0:
328,140,124769,1,0,0:0:0:0:
135,242,124914,1,0,0:0:0:0:
309,299,125059,1,0,0:0:0:0:
366,67,125204,2,0,P|317:60|272:79,1,99.0000030212403,8|0,0:0|0:0,0:0:0:0:
468,247,125494,6,0,B|415:265|415:265|284:236,1,148.50000453186,0|0,0:0|2:0,0:0:0:0:
296,169,125784,2,0,L|155:171,1,99.0000030212403,10|0,0:2|0:0,0:0:0:0:
70,353,126074,2,0,P|43:304|52:234,1,99.0000030212403
150,35,126363,2,0,L|155:151,1,99.0000030212403,8|0,0:0|0:0,0:0:0:0:
290,64,126653,5,2,0:2:0:0:
290,64,126798,1,0,0:0:0:0:
163,215,126943,2,0,P|98:192|73:146,1,99.0000030212403,8|0,0:0|0:0,0:0:0:0:
305,159,127233,1,2,0:2:0:0:
260,259,127378,1,0,0:0:0:0:
392,360,127523,1,8,0:0:0:0:
437,260,127668,1,0,0:0:0:0:
343,75,127813,6,0,L|213:79,1,99.0000030212403
62,222,128103,5,12,0:2:0:0:
297,257,128248,1,0,0:0:0:0:
79,139,128392,5,4,0:2:0:0:
349,174,128537,1,0,0:0:0:0:
92,55,128682,5,12,0:2:0:0:
401,96,128827,1,0,0:0:0:0:
177,279,128972,5,4,0:2:0:0:
177,279,129117,1,0,0:0:0:0:
349,174,129262,2,0,L|342:295,1,99.0000030212403,12|0,0:2|0:0,0:0:0:0:
203,146,129552,5,8,0:0:0:0:
484,40,129697,1,8,0:0:0:0:
343,272,129842,1,8,0:0:0:0:
232,12,129987,1,8,0:0:0:0:
348,99,130132,5,2,0:3:0:0:
147,81,131871,5,4,0:2:0:0:
291,145,132016,2,0,P|244:161|169:141,1,112.5,0|0,0:0|2:0,0:0:0:0:
184,150,132450,6,0,L|190:313,1,144
96,226,132885,1,0,0:0:0:0:
257,97,133030,2,0,P|305:120|407:100,2,144,8|0|0,0:0|0:0|0:0,0:0:0:0:
257,97,133900,1,0,0:0:0:0:
135,133,134045,1,0,0:0:0:0:
12,165,134190,2,0,L|9:254,1,72,8|0,0:0|0:0,0:0:0:0:
261,183,134479,2,0,L|264:272,1,72
434,357,134769,6,0,P|459:323|435:212,1,144,4|0,0:2|0:0,0:0:0:0:
261,183,135349,2,0,L|264:34,2,144,8|0|0,0:0|0:0|0:0,0:0:0:0:
359,220,136074,5,8,0:0:0:0:
184,123,136219,1,8,0:0:0:0:
208,272,136363,1,8,0:0:0:0:
330,84,136508,1,8,0:0:0:0:
194,294,136653,1,8,0:0:0:0:
329,237,136798,1,8,0:3:0:0:
329,237,136943,1,8,0:3:0:0:
136,215,137088,6,0,P|105:256|118:359,1,144,4|0,0:2|0:0,0:0:0:0:
355,367,137668,2,0,P|365:297|328:236,1,144,8|0,0:0|0:0,0:0:0:0:
134,109,138248,2,0,L|311:103,1,144
357,162,138682,1,0,0:0:0:0:
465,24,138827,6,0,P|415:20|366:36,1,72,12|0,0:2|0:0,0:0:0:0:
459,186,139117,2,0,P|435:230|429:281,1,72,4|0,0:2|0:0,0:0:0:0:
237,351,139407,6,0,B|217:300|217:300|236:183,1,144
344,47,139987,2,0,P|286:76|193:41,2,144,8|0|0,0:0|0:0|0:0,0:0:0:0:
454,110,140711,5,8,0:0:0:0:
446,102,140856,1,8,0:0:0:0:
352,197,141001,1,8,0:0:0:0:
344,47,141146,1,8,0:0:0:0:
496,188,141291,1,8,0:0:0:0:
320,25,141436,1,8,0:0:0:0:
320,25,141581,1,8,0:0:0:0:
268,155,141726,6,0,L|177:160,1,72
60,233,142016,2,0,L|151:238,1,72
284,305,142305,2,0,P|239:318|135:309,2,144,8|0|0,0:0|0:0|0:0,0:0:0:0:
284,305,143175,1,0,0:0:0:0:
324,187,143320,1,0,0:0:0:0:
291,69,143465,6,0,L|203:74,1,72,12|0,0:2|0:0,0:0:0:0:
139,242,143755,2,0,L|67:237,1,72,4|0,0:2|0:0,0:0:0:0:
237,166,144045,6,0,P|277:211|265:294,1,144,4|0,0:2|0:0,0:0:0:0:
362,353,144479,1,0,0:0:0:0:
448,212,144624,2,0,L|297:206,2,144,8|0|0,0:0|0:0|0:0,0:0:0:0:
448,212,145494,1,0,0:0:0:0:
495,101,145639,1,0,0:0:0:0:
405,22,145784,6,0,P|385:67|383:109,1,72,12|0,0:2|0:0,0:0:0:0:
171,149,146074,2,0,P|191:194|193:236,1,72,4|0,0:2|0:0,0:0:0:0:
348,348,146363,6,0,P|374:299|358:189,1,144,4|0,0:2|0:0,0:0:0:0:
285,141,146798,1,0,0:0:0:0:
106,206,146943,2,0,L|99:364,2,144,8|0|0,0:0|0:0|0:0,0:0:0:0:
106,206,147813,1,0,0:0:0:0:
236,172,147958,1,0,0:0:0:0:
298,45,148103,2,0,L|201:39,1,72,8|0,0:0|0:0,0:0:0:0:
362,179,148392,2,0,L|459:173,1,72,8|0,0:0|0:0,0:0:0:0:
272,315,148682,5,0,0:0:0:0:
175,205,148827,1,0,0:0:0:0:
229,68,148972,1,8,0:0:0:0:
245,337,149117,5,0,0:0:0:0:
166,213,149262,1,0,0:0:0:0:
241,86,149407,1,0,0:0:0:0:
137,338,149552,5,8,0:0:0:0:
257,99,149697,1,0,0:0:0:0:
143,364,149842,5,0,0:0:0:0:
286,83,149987,1,0,0:0:0:0:
427,232,150132,5,8,0:0:0:0:
138,104,150276,1,0,0:0:0:0:
162,276,150421,5,8,0:0:0:0:
197,273,150493,1,8,0:0:0:0:
233,271,150565,1,8,0:0:0:0:
269,269,150638,1,8,0:0:0:0:
291,234,150711,5,8,0:0:0:0:
246,232,150783,1,8,0:0:0:0:
201,231,150855,1,8,0:0:0:0:
156,229,150928,1,8,0:0:0:0:
111,228,151001,6,0,L|101:54,1,148.50000453186,0|0,0:0|2:0,0:0:0:0:
128,49,151291,1,8,0:0:0:0:
58,290,151436,2,0,B|104:320|154:298|154:298|206:267|272:302,1,198.000006042481
408,364,151871,2,0,P|432:329|415:240,1,99.0000030212403,8|0,0:0|0:0,0:0:0:0:
308,115,152161,5,0,0:0:0:0:
464,83,152305,1,0,0:0:0:0:
250,18,152450,2,0,P|248:41|250:67,1,49.5000015106202,8|0,0:0|2:0,0:0:0:0:
403,177,152595,2,0,P|349:194|288:312,1,198.000006042481
87,364,153030,2,0,L|81:240,1,99.0000030212403,8|0,0:0|0:0,0:0:0:0:
258,39,153320,5,0,0:0:0:0:
200,219,153465,1,0,0:0:0:0:
67,95,153610,2,0,P|119:80|186:88,1,99.0000030212403,8|0,0:0|0:0,0:0:0:0:
383,203,153900,5,0,0:0:0:0:
364,342,154045,1,0,0:0:0:0:
280,132,154190,1,8,0:0:0:0:
290,239,154335,1,0,0:0:0:0:
450,83,154479,6,0,P|388:70|325:93,1,99.0000030212403
130,260,154769,2,0,L|119:134,1,99.0000030212403,8|0,0:0|0:0,0:0:0:0:
290,239,155059,1,0,0:0:0:0:
179,315,155204,1,0,0:0:0:0:
251,135,155349,2,0,L|353:130,1,99.0000030212403,8|0,0:0|0:0,0:0:0:0:
375,255,155639,5,8,0:0:0:0:
423,256,155711,1,0,0:0:0:0:
461,226,155783,1,0,0:0:0:0:
471,178,155856,1,0,0:0:0:0:
448,136,155928,1,8,0:0:0:0:
418,98,156001,1,0,0:0:0:0:
419,49,156073,1,0,0:0:0:0:
451,13,156146,1,0,0:0:0:0:
499,5,156219,6,0,L|496:68,1,49.5000015106202,8|0,0:0|0:0,0:0:0:0:
340,121,156363,2,0,L|343:184,1,49.5000015106202
500,224,156508,2,0,L|497:287,1,49.5000015106202,8|0,0:0|0:0,0:0:0:0:
334,343,156653,1,0,0:0:0:0:
334,343,156726,1,0,0:0:0:0:
334,343,156798,5,8,0:0:0:0:
285,337,156870,1,0,0:0:0:0:
247,307,156942,1,0,0:0:0:0:
229,261,157015,1,0,0:0:0:0:
239,213,157087,5,8,0:0:0:0:
248,251,157160,1,0,0:0:0:0:
238,289,157232,1,0,0:0:0:0:
211,318,157305,1,0,0:0:0:0:
174,331,157377,5,8,0:0:0:0:
145,328,157450,1,0,0:0:0:0:
115,325,157522,1,0,0:0:0:0:
85,322,157595,1,0,0:0:0:0:
59,294,157668,5,8,0:0:0:0:
88,291,157741,1,0,0:0:0:0:
118,288,157813,1,8,0:0:0:0:
147,285,157886,1,8,0:0:0:0:
174,283,157958,6,0,L|179:221,1,49.5000015106202,8|0,0:3|0:0,0:0:0:0:
280,314,158103,2,8,L|275:252,1,49.5000015106202,8|0,0:3|0:0,0:0:0:0:
394,338,158248,2,0,L|399:276,1,49.5000015106202,8|0,0:3|0:0,0:0:0:0:
512,356,158392,2,0,L|507:294,1,49.5000015106202,8|0,0:3|0:0,0:0:0:0:
394,196,158537,5,8,0:3:0:0:
342,98,158682,1,8,0:3:0:0:
436,49,158827,1,8,0:3:0:0:
489,140,158972,1,8,0:3:0:0:
315,90,159117,5,8,0:0:0:0:
114,112,167233,5,8,0:0:0:0:
319,159,167378,1,8,0:0:0:0:
93,233,167523,1,8,0:0:0:0:
292,283,167668,1,8,0:0:0:0:
72,88,167813,5,8,0:0:0:0:
337,149,167958,1,8,0:0:0:0:
45,245,168103,1,8,0:0:0:0:
302,309,168248,1,8,0:0:0:0:
218,58,168392,5,8,0:0:0:0:
154,325,168537,1,8,0:0:0:0:
72,88,168682,1,8,0:0:0:0:
337,149,168827,1,8,0:0:0:0:
45,245,168972,6,0,L|47:201,1,24.7500007553101,8|0,0:0|2:0,0:0:0:0:
337,149,169262,2,0,L|338:173,1,24.7500007553101,8|0,0:0|2:0,0:0:0:0:
433,264,169552,6,0,L|232:256,1,180,0|8,0:0|0:0,0:0:0:0:
306,341,169987,1,0,0:0:0:0:
385,155,170132,1,0,0:0:0:0:
385,155,170276,1,0,0:0:0:0:
219,84,170421,1,8,0:0:0:0:
219,84,170566,6,0,P|200:134|207:190,1,90
386,236,170856,2,0,P|382:289|348:340,2,90,0|8|0,0:0|0:0|0:0,0:0:0:0:
272,228,171291,5,8,0:0:0:0:
235,253,171363,1,8,0:0:0:0:
191,257,171435,1,8,0:0:0:0:
150,240,171508,1,8,0:0:0:0:
123,204,171580,1,8,0:0:0:0:
117,160,171653,1,8,0:0:0:0:
134,119,171725,1,8,0:0:0:0:
168,91,171798,1,8,0:0:0:0:
212,83,171871,6,0,P|268:102|294:156,1,90
466,247,172161,2,0,L|472:135,1,90,8|0,0:0|0:0,0:0:0:0:
341,264,172450,1,0,0:0:0:0:
341,264,172595,1,0,0:0:0:0:
466,360,172740,2,0,P|418:370|353:353,1,90,8|0,0:0|0:0,0:0:0:0:
215,339,173030,5,8,0:0:0:0:
304,214,173175,1,8,0:0:0:0:
174,132,173320,1,8,0:0:0:0:
260,5,173465,1,8,0:0:0:0:
301,188,173610,5,8,0:3:0:0:
206,126,173755,1,8,0:3:0:0:
274,23,173900,2,0,P|289:57|291:96,1,67.5,4|0,0:2|2:0,0:0:0:0:
291,86,174190,6,0,P|282:158|310:274,1,180,0|10,0:0|0:2,0:0:0:0:
383,302,174624,1,0,0:0:0:0:
185,210,174769,1,2,0:2:0:0:
143,309,174914,1,0,0:0:0:0:
28,161,175059,2,0,P|78:155|119:159,1,90,10|0,0:2|0:0,0:0:0:0:
290,82,175349,5,2,0:2:0:0:
290,82,175494,1,0,0:0:0:0:
443,160,175639,2,0,L|439:261,1,90,10|0,0:2|0:0,0:0:0:0:
263,373,175929,1,2,0:2:0:0:
384,357,176074,1,0,0:0:0:0:
181,289,176219,2,0,P|163:230|174:177,1,90,10|0,0:2|0:0,0:0:0:0:
341,45,176508,5,0,0:0:0:0:
304,202,176653,1,0,0:0:0:0:
461,164,176798,1,8,0:0:0:0:
321,48,177088,5,0,0:0:0:0:
302,216,177233,1,0,0:0:0:0:
461,156,177378,2,0,B|468:43,1,90,8|0,0:0|0:0,0:0:0:0:
117,196,177668,5,8,0:0:0:0:
157,177,177740,1,8,0:0:0:0:
201,165,177812,1,8,0:0:0:0:
245,170,177885,1,8,0:0:0:0:
285,191,177957,1,8,0:0:0:0:
328,202,178030,1,8,0:0:0:0:
372,194,178102,1,8,0:0:0:0:
413,176,178175,1,8,0:0:0:0:
457,181,178247,1,8,0:0:0:0:
496,160,178319,1,8,0:0:0:0:
512,120,178392,1,8,0:0:0:0:
508,76,178464,1,8,0:0:0:0:
476,45,178537,1,8,0:0:0:0:
432,38,178609,1,8,0:0:0:0:
393,58,178682,1,8,0:0:0:0:
372,97,178754,1,8,0:0:0:0:
387,144,178827,6,0,L|382:274,1,99.0000030212403,4|0,0:2|0:0,0:0:0:0:
88,153,179117,2,0,P|121:198|168:223,1,99.0000030212403,8|0,0:0|0:0,0:0:0:0:
345,306,179407,1,0,0:0:0:0:
329,175,179552,1,0,0:0:0:0:
179,357,179697,2,0,L|288:350,1,99.0000030212403,8|0,0:0|0:0,0:0:0:0:
453,251,179987,5,0,0:0:0:0:
453,251,180132,1,0,0:0:0:0:
263,240,180276,5,12,0:2:0:0:
303,46,180421,1,0,0:0:0:0:
328,289,180566,5,4,0:2:0:0:
229,75,180711,1,0,0:0:0:0:
277,350,180856,6,0,L|284:268,1,49.5000015106202,12|0,0:2|2:0,0:0:0:0:
292,120,181001,6,0,L|77:129,1,198.000006042481
367,13,181436,2,0,P|396:64|377:135,1,99.0000030212403,8|0,0:0|0:0,0:0:0:0:
281,300,181726,1,0,0:0:0:0:
399,360,181871,1,0,0:0:0:0:
488,213,182016,2,0,L|483:106,1,99.0000030212403,8|0,0:0|0:0,0:0:0:0:
341,216,182305,5,0,0:0:0:0:
341,216,182450,1,0,0:0:0:0:
177,90,182595,5,12,0:2:0:0:
395,64,182740,1,0,0:0:0:0:
107,37,182885,5,4,0:2:0:0:
338,7,183030,1,0,0:0:0:0:
237,142,183175,2,0,L|234:245,1,99.0000030212403,8|0,0:0|0:0,0:0:0:0:
407,319,183465,6,0,P|355:342|250:309,1,148.50000453186,0|0,0:0|2:0,0:0:0:0:
183,359,183755,2,0,L|44:351,1,99.0000030212403,8|0,0:0|0:0,0:0:0:0:
5,225,184045,2,0,P|-2:176|27:105,1,99.0000030212403
220,26,184334,2,0,L|334:21,1,99.0000030212403,8|0,0:0|0:0,0:0:0:0:
466,157,184624,5,2,0:2:0:0:
299,191,184769,1,0,0:0:0:0:
254,122,184914,5,10,0:2:0:0:
414,89,185059,1,0,0:0:0:0:
492,298,185204,5,2,0:2:0:0:
325,264,185349,1,0,0:0:0:0:
280,333,185494,5,10,0:2:0:0:
440,366,185639,2,0,L|446:163,1,198.000006042481
259,42,186074,2,0,L|266:156,1,99.0000030212403,8|0,0:0|0:0,0:0:0:0:
397,51,186363,1,0,0:0:0:0:
397,51,186508,1,0,0:0:0:0:
185,133,186653,2,0,L|178:247,1,99.0000030212403,8|0,0:0|0:0,0:0:0:0:
316,293,186943,5,8,0:3:0:0:
316,293,187088,1,8,0:3:0:0:
182,354,187233,1,8,0:3:0:0:
259,226,187378,5,8,0:0:0:0:
261,187,187450,1,8,0:0:0:0:
264,147,187522,1,8,0:0:0:0:
380,61,187668,1,8,0:0:0:0:
383,101,187740,1,8,0:0:0:0:
385,140,187812,1,8,0:0:0:0:
507,230,187958,1,8,0:0:0:0:
509,191,188030,1,8,0:0:0:0:
512,151,188103,6,0,L|394:148,1,99.0000030212403,4|0,0:2|0:0,0:0:0:0:
296,312,188392,2,0,P|263:266|269:189,1,99.0000030212403,8|0,0:0|0:0,0:0:0:0:
316,31,188682,1,0,0:0:0:0:
244,118,188827,1,0,0:0:0:0:
87,18,188972,1,8,0:0:0:0:
20,112,189117,1,0,0:0:0:0:
169,262,189262,6,0,P|183:204|172:152,1,99.0000030212403
77,308,189552,5,12,0:2:0:0:
275,338,189697,1,0,0:0:0:0:
30,372,189842,5,4,0:2:0:0:
315,275,189987,1,0,0:0:0:0:
0,299,190132,6,0,L|55:302,1,49.5000015106202,12|0,0:2|2:0,0:0:0:0:
352,343,190276,6,0,P|387:302|312:197,1,198.000006042481
159,64,190711,2,0,L|295:57,1,99.0000030212403,8|0,0:0|0:0,0:0:0:0:
424,148,191001,1,0,0:0:0:0:
413,32,191146,1,0,0:0:0:0:
243,166,191291,2,0,P|239:220|262:266,1,99.0000030212403,8|0,0:0|0:0,0:0:0:0:
431,319,191581,5,0,0:0:0:0:
431,319,191726,2,0,L|319:327,1,99.0000030212403,0|12,0:0|0:2,0:0:0:0:
252,366,192016,1,0,0:0:0:0:
339,189,192161,1,0,0:0:0:0:
339,189,192305,1,0,0:0:0:0:
154,264,192450,2,0,L|150:144,1,99.0000030212403,12|0,0:2|0:0,0:0:0:0:
273,15,192740,6,0,P|321:40|452:13,1,148.50000453186,0|0,0:0|2:0,0:0:0:0:
490,98,193030,2,0,L|480:214,1,99.0000030212403,10|0,0:2|0:0,0:0:0:0:
189,106,193320,2,0,L|193:226,1,99.0000030212403,2|0,0:2|0:0,0:0:0:0:
416,272,193610,2,0,L|412:392,1,99.0000030212403,10|0,0:2|0:0,0:0:0:0:
143,353,193900,6,0,P|84:315|74:243,1,99.0000030212403,2|0,0:2|0:0,0:0:0:0:
252,181,194190,2,0,P|237:112|280:54,1,99.0000030212403,10|0,0:2|0:0,0:0:0:0:
419,228,194479,2,0,P|457:169|529:159,1,99.0000030212403,10|0,0:2|0:0,0:0:0:0:
413,347,194769,2,0,L|286:340,1,99.0000030212403,10|0,0:2|0:0,0:0:0:0:
230,267,195059,5,4,0:2:0:0:
452,222,195204,1,0,0:0:0:0:
158,239,195349,5,12,0:2:0:0:
396,137,195494,1,0,0:0:0:0:
82,219,195639,5,4,0:2:0:0:
304,78,195784,1,0,0:0:0:0:
5,198,195929,5,12,0:2:0:0:
191,36,196074,1,0,0:0:0:0:
251,199,196219,5,8,0:0:0:0:
251,199,196363,1,8,0:0:0:0:
125,88,196508,1,8,0:0:0:0:
359,142,196653,1,8,0:0:0:0:
232,293,196798,5,8,0:0:0:0:
201,109,196943,1,8,0:0:0:0:
233,301,197088,1,8,0:0:0:0:
200,99,197233,2,0,L|209:161,1,49.5000015106202,8|0,0:0|2:0,0:0:0:0:
237,333,197378,6,0,L|415:338,1,161.999995056153
468,272,197813,1,0,0:0:0:0:
150,283,197958,2,0,P|127:244|137:96,2,161.999995056153,8|0|0,0:0|0:0|0:0,0:0:0:0:
104,355,198682,1,0,0:0:0:0:
259,218,198827,6,0,L|252:114,1,80.9999975280763,4|0,0:2|0:0,0:0:0:0:
414,46,199117,2,0,L|408:126,1,80.9999975280763,12|0,0:2|0:0,0:0:0:0:
240,258,199407,2,0,L|234:177,1,80.9999975280763,4|0,0:2|0:0,0:0:0:0:
442,25,199697,6,0,L|435:212,1,161.999995056153
505,242,200132,1,0,0:0:0:0:
331,365,200276,2,0,P|269:343|249:230,2,161.999995056153,8|0|0,0:0|0:0|0:0,0:0:0:0:
406,320,201001,1,0,0:0:0:0:
239,346,201146,5,8,0:0:0:0:
310,222,201291,1,8,0:0:0:0:
231,354,201436,1,8,0:0:0:0:
311,213,201581,1,8,0:0:0:0:
224,362,201726,1,8,0:0:0:0:
313,203,201871,1,8,0:0:0:0:
162,218,202016,5,0,0:0:0:0:
162,218,202161,2,0,P|134:167|166:65,1,161.999995056153
263,35,202595,2,0,L|435:42,2,161.999995056153,8|0|0,0:0|0:0|0:0,0:0:0:0:
443,145,203465,1,0,0:0:0:0:
443,145,203610,1,0,0:0:0:0:
443,145,203755,6,0,P|434:191|437:228,1,80.9999975280763,12|0,0:2|0:0,0:0:0:0:
258,275,204045,2,0,P|266:321|264:358,1,80.9999975280763,12|0,0:2|0:0,0:0:0:0:
138,229,204334,6,0,L|332:225,1,161.999995056153
374,169,204769,1,0,0:0:0:0:
99,305,204914,2,0,P|59:260|99:153,1,161.999995056153,8|0,0:0|0:0,0:0:0:0:
358,86,205494,5,8,0:0:0:0:
321,103,205566,1,8,0:0:0:0:
298,135,205638,1,8,0:0:0:0:
292,175,205711,1,8,0:0:0:0:
305,213,205783,1,8,0:0:0:0:
335,240,205856,1,8,0:0:0:0:
374,249,205928,1,8,0:0:0:0:
413,240,206001,1,8,0:0:0:0:
430,205,206074,5,8,0:3:0:0:
407,214,206146,1,8,0:3:0:0:
389,230,206218,1,8,0:3:0:0:
374,249,206291,1,8,0:3:0:0:
379,284,206363,1,8,0:3:0:0:
364,303,206436,1,8,0:3:0:0:
346,319,206508,1,8,0:3:0:0:
323,328,206580,1,8,0:3:0:0:
288,309,206653,5,4,0:2:0:0:
288,309,206798,2,0,P|263:235|283:140,1,161.999995056153
190,58,207233,2,0,B|127:83|127:83|14:57,2,161.999995056153,8|0|0,0:0|0:0|0:0,0:0:0:0:
381,15,208103,1,0,0:0:0:0:
381,15,208248,1,0,0:0:0:0:
381,15,208392,2,0,L|372:121,1,80.9999975280763,12|0,0:2|0:0,0:0:0:0:
222,185,208682,2,0,L|213:291,1,80.9999975280763,12|0,0:2|0:0,0:0:0:0:
417,344,208972,6,0,P|348:319|246:343,1,161.999995056153
157,346,209407,1,0,0:0:0:0:
29,186,209552,2,0,L|37:85,1,80.9999975280763,8|0,0:0|0:0,0:0:0:0:
222,185,209842,2,0,L|215:104,1,80.9999975280763
341,186,210132,5,0,0:0:0:0:
341,186,210276,1,0,0:0:0:0:
262,333,210421,2,0,P|230:285|231:239,1,80.9999975280763,8|0,0:0|0:0,0:0:0:0:
415,228,210711,5,0,0:0:0:0:
415,228,210855,1,0,0:0:0:0:
148,304,211000,2,0,P|139:246|159:205,1,80.9999975280763,8|0,0:0|0:0,0:0:0:0:
291,80,211291,6,0,L|419:75,1,99.0000030212403
125,131,211581,2,0,L|-3:126,1,99.0000030212403,8|0,0:0|0:0,0:0:0:0:
203,37,211871,1,0,0:0:0:0:
203,37,212016,1,0,0:0:0:0:
73,216,212161,2,0,P|60:265|74:310,1,99.0000030212403,8|0,0:0|0:0,0:0:0:0:
262,326,212450,5,0,0:0:0:0:
326,224,212595,1,0,0:0:0:0:
474,349,212740,2,0,L|345:345,1,99.0000030212403,8|0,0:0|0:0,0:0:0:0:
191,240,213030,1,0,0:0:0:0:
191,240,213175,1,0,0:0:0:0:
341,51,213320,2,0,P|356:101|336:171,1,99.0000030212403,8|0,0:0|0:0,0:0:0:0:
288,329,213610,5,0,0:0:0:0:
414,274,213755,1,0,0:0:0:0:
189,313,213900,5,12,0:2:0:0:
212,120,214045,1,0,0:0:0:0:
104,269,214190,5,4,0:2:0:0:
128,67,214335,1,0,0:0:0:0:
19,227,214479,5,12,0:2:0:0:
49,0,214624,1,0,0:0:0:0:
338,82,214769,6,0,L|330:182,1,99.0000030212403,4|0,0:2|0:0,0:0:0:0:
194,376,215059,2,0,L|186:277,1,99.0000030212403,12|0,0:2|0:0,0:0:0:0:
414,169,215349,5,8,0:0:0:0:
142,117,215494,1,8,0:0:0:0:
91,368,215639,1,8,0:0:0:0:
330,180,215784,1,8,0:0:0:0:
167,149,215929,5,4,0:2:0:0:
167,149,218248,2,0,B|227:176|285:143|292:82|292:82|316:75|316:75|330:56|330:56|357:64|425:23,1,270.000010299683,4|2,0:2|2:0,0:0:0:0:
