osu file format v14

[General]
AudioFilename: helena.mp3
AudioLeadIn: 0
PreviewTime: 15364
Countdown: 0
SampleSet: Normal
StackLeniency: 0.6
Mode: 0
LetterboxInBreaks: 0
WidescreenStoryboard: 0

[Editor]
DistanceSpacing: 1
BeatDivisor: 4
GridSize: 8
TimelineZoom: 1.8

[Metadata]
Title:Helena
TitleUnicode:Helena
Artist:My Chemical Romance
ArtistUnicode:My Chemical Romance
Creator:pishifat
Version:Advanced
Source:
Tags:cut three cheers for sweet revenge kyshiro gero mcr metal alternative punk
BeatmapID:714576
BeatmapSetID:320194

[Difficulty]
HPDrainRate:5
CircleSize:3.5
OverallDifficulty:5
ApproachRate:6
SliderMultiplier:1
SliderTickRate:1

[Events]
//Background and Video events
0,0,"batman.jpg",0,0
//Break Periods
//Storyboard Layer 0 (Background)
//Storyboard Layer 1 (Fail)
//Storyboard Layer 2 (Pass)
//Storyboard Layer 3 (Foreground)
//Storyboard Sound Samples

[TimingPoints]
235,238.260696912538,4,1,1,60,1,0
45981,476.519501560601,4,1,1,60,1,1
45981,-66.6666666666667,4,1,1,60,0,1
61229,-66.6666666666667,4,1,1,60,0,0
62659,-50,4,1,1,60,0,0
63135,238.260696912538,4,1,1,60,1,0
93632,476.519501560601,4,1,1,60,1,1
93632,-66.6666666666667,4,1,1,60,0,1
108880,-66.6666666666667,4,1,1,60,0,0

[Colours]
Combo1 : 241,22,22
Combo2 : 202,203,208
Combo3 : 157,172,191
Combo4 : 170,170,170
Combo5 : 163,175,163
Combo6 : 210,70,70
Combo7 : 148,54,56

[HitObjects]
78,247,15007,101,10,0:0:0:0:
99,151,15245,1,10,0:0:0:0:
89,52,15483,6,0,P|137:32|198:39,1,100,6|8,0:0|0:0,0:0:0:0:
272,81,15960,2,0,L|339:74,2,50,2|2|8,0:0|0:0|0:0,0:0:0:0:
190,139,16436,2,0,P|192:214|210:242,1,100,2|8,0:0|0:0,0:0:0:0:
300,258,16913,2,0,L|361:251,1,50,2|2,0:0|0:0,0:0:0:0:
397,265,17151,1,8,0:0:0:0:
353,355,17389,6,0,L|249:347,1,100,2|8,0:0|0:0,0:0:0:0:
163,301,17866,2,0,L|97:306,1,50,2|2,0:0|0:0,0:0:0:0:
65,319,18104,2,0,P|44:277|51:213,1,100,8|2,0:0|0:0,0:0:0:0:
105,144,18581,1,8,0:0:0:0:
198,179,18819,1,8,0:0:0:0:
185,79,19057,1,8,0:0:0:0:
277,117,19295,6,0,L|388:112,1,100,6|8,0:0|0:0,0:0:0:0:
465,64,19772,2,0,P|468:37|476:2,2,50,2|2|8,0:0|0:0|0:0,0:0:0:0:
467,163,20248,2,0,P|479:199|472:270,1,100,2|8,0:0|0:0,0:0:0:0:
401,327,20725,2,0,L|406:378,2,50,2|2|8,0:0|0:0|0:0,0:0:0:0:
355,237,21201,6,0,P|320:216|252:207,1,100,2|8,0:0|0:0,0:0:0:0:
215,226,21559,2,0,L|203:109,1,100,0|2,0:0|0:0,0:0:0:0:
167,93,21916,2,0,P|117:84|95:86,1,50,8|0,0:0|0:0,0:0:0:0:
71,103,22154,1,8,0:0:0:0:
27,194,22393,1,8,0:0:0:0:
104,256,22631,1,8,0:0:0:0:
77,352,22869,1,8,0:0:0:0:
173,326,23108,54,0,L|284:320,1,100,6|8,0:0|0:0,0:0:0:0:
368,350,23584,2,0,P|397:362|434:369,2,50,2|2|8,0:0|0:0|0:0,0:0:0:0:
346,251,24061,2,0,P|312:233|234:228,1,100,2|8,0:0|0:0,0:0:0:0:
152,234,24537,2,0,L|148:173,1,50,2|2,0:0|0:0,0:0:0:0:
133,136,24775,1,8,0:0:0:0:
181,47,25014,6,0,B|231:33|231:33|295:36,1,100,2|8,0:0|0:0,0:0:0:0:
377,55,25490,2,0,L|383:124,1,50,2|2,0:0|0:0,0:0:0:0:
402,150,25728,2,0,P|439:167|509:164,1,100,8|2,0:0|0:0,0:0:0:0:
478,265,26205,1,8,0:0:0:0:
378,253,26443,1,8,0:0:0:0:
300,315,26681,1,8,0:0:0:0:
212,265,26920,6,0,P|159:257|98:258,1,100,6|8,0:0|0:0,0:0:0:0:
24,304,27396,2,0,P|28:329|43:366,2,50,2|2|8,0:0|0:0|0:0,0:0:0:0:
27,203,27873,2,0,L|34:101,1,100,2|8,0:0|0:0,0:0:0:0:
110,39,28349,2,0,P|140:25|172:23,2,50,2|2|8,0:0|0:0|0:0,0:0:0:0:
143,133,28826,6,0,P|188:149|248:144,1,100,2|8,0:0|0:0,0:0:0:0:
321,89,29302,2,0,L|388:86,1,50,2|2,0:0|0:0,0:0:0:0:
420,96,29541,2,0,P|443:135|450:157,1,50,8|0,0:0|0:0,0:0:0:0:
453,188,29779,1,8,0:0:0:0:
371,249,30017,1,8,0:0:0:0:
274,222,30255,1,10,0:0:0:0:
175,240,30494,1,10,0:0:0:0:
220,328,30732,54,0,L|319:333,1,100,6|8,0:0|0:0,0:0:0:0:
419,336,31208,2,0,P|448:351|486:357,2,50,2|2|8,0:0|0:0|0:0,0:0:0:0:
371,249,31685,2,0,P|363:213|386:145,1,100,2|8,0:0|0:0,0:0:0:0:
414,59,32161,2,0,L|348:56,1,50,2|2,0:0|0:0,0:0:0:0:
314,46,32400,1,8,0:0:0:0:
233,104,32638,6,0,L|129:113,1,100,2|8,0:0|0:0,0:0:0:0:
42,153,33114,2,0,P|32:184|30:221,1,50,2|2,0:0|0:0,0:0:0:0:
46,248,33353,2,0,B|92:251|92:251|153:269,1,100,8|2,0:0|0:0,0:0:0:0:
217,333,33829,1,8,0:0:0:0:
299,276,34068,1,2,0:0:0:0:
314,374,34306,1,8,0:0:0:0:
390,310,34544,6,0,L|394:202,1,100,6|8,0:0|0:0,0:0:0:0:
325,136,35021,2,0,L|254:128,2,50,2|2|8,0:0|0:0|0:0,0:0:0:0:
422,112,35497,2,0,P|429:74|406:12,1,100,2|8,0:0|0:0,0:0:0:0:
309,8,35974,2,0,L|252:13,1,50,2|2,0:0|0:0,0:0:0:0:
214,34,36212,1,8,0:0:0:0:
115,18,36450,6,0,P|54:17|8:51,1,100,2|8,0:0|0:0,0:0:0:0:
84,109,36927,2,0,L|150:115,1,50,2|2,0:0|0:0,0:0:0:0:
183,121,37165,2,0,P|217:147|230:168,1,50,8|0,0:0|0:0,0:0:0:0:
241,197,37403,1,8,0:0:0:0:
205,292,37641,1,8,0:0:0:0:
304,277,37880,1,8,0:0:0:0:
269,370,38118,1,8,0:0:0:0:
169,382,38356,54,0,B|130:380|130:380|66:364,1,100,6|8,0:0|0:0,0:0:0:0:
17,279,38833,2,0,P|11:260|7:213,2,50,2|2|8,0:0|0:0|0:0,0:0:0:0:
116,274,39309,2,0,L|122:158,1,100,2|8,0:0|0:0,0:0:0:0:
171,87,39786,2,0,P|200:80|234:77,1,50,2|2,0:0|0:0,0:0:0:0:
268,90,40024,1,8,0:0:0:0:
232,183,40262,6,0,P|300:202|349:193,1,100,2|8,0:0|0:0,0:0:0:0:
427,180,40739,2,0,L|432:247,1,50,2|2,0:0|0:0,0:0:0:0:
426,279,40977,2,0,P|393:302|319:317,1,100,8|2,0:0|0:0,0:0:0:0:
239,288,41454,1,8,0:0:0:0:
177,366,41692,1,2,0:0:0:0:
78,349,41930,1,8,0:0:0:0:
142,272,42168,6,0,L|148:162,1,100,6|8,0:0|0:0,0:0:0:0:
137,72,42645,2,0,L|124:18,2,50,2|2|8,0:0|0:0|0:0,0:0:0:0:
229,109,43121,2,0,P|277:113|344:91,1,100,2|8,0:0|0:0,0:0:0:0:
416,54,43598,2,0,L|470:47,2,50,2|2|8,0:0|0:0|0:0,0:0:0:0:
420,153,44074,6,0,B|430:194|430:194|424:254,1,100,2|8,0:0|0:0,0:0:0:0:
364,332,44551,2,0,L|369:385,2,50,2|2|8,0:0|0:0|0:0,0:0:0:0:
324,239,45028,1,8,0:0:0:0:
241,304,45266,1,8,0:0:0:0:
229,205,45504,1,10,0:0:0:0:
146,272,45742,1,10,0:0:0:0:
76,335,45981,54,0,B|57:280|57:280|68:169,1,150.000005722046,6|2,0:0|0:3,0:0:0:0:
79,96,46695,1,2,0:0:0:0:
157,148,46934,1,8,0:0:0:0:
323,61,47410,2,0,L|425:51,1,75.0000028610231,2|2,0:3|0:0,0:0:0:0:
475,105,47887,5,6,0:3:0:0:
392,149,48125,2,0,P|367:188|352:242,1,75.0000028610231,0|2,0:0|0:3,0:0:0:0:
345,307,48601,1,2,0:0:0:0:
265,257,48840,2,0,B|228:251|228:251|190:249,2,75.0000028610231,12|8|8,0:0|0:0|0:0,0:0:0:0:
259,350,49554,1,2,0:0:0:0:
166,334,49793,6,0,P|111:282|134:190,1,150.000005722046,6|2,0:0|0:3,0:0:0:0:
193,160,50507,1,2,0:0:0:0:
106,121,50746,1,8,0:0:0:0:
292,142,51222,2,0,L|298:221,1,75.0000028610231,2|2,0:3|0:0,0:0:0:0:
382,257,51699,6,0,P|388:218|399:182,2,75.0000028610231,6|0|2,0:3|0:0|0:3,0:0:0:0:
424,340,52414,1,2,0:0:0:0:
330,335,52652,2,0,L|249:326,1,75.0000028610231,8|8,0:0|0:0,0:0:0:0:
166,356,53128,2,0,B|126:361|126:361|81:362,1,75.0000028610231,8|8,0:0|0:0,0:0:0:0:
25,294,53605,54,0,L|41:144,1,150.000005722046,6|2,0:0|0:3,0:0:0:0:
225,110,54558,2,0,L|307:96,2,75.0000028610231,8|8|2,0:0|0:0|0:3,0:0:0:0:
166,183,55273,1,2,0:0:0:0:
258,199,55511,6,0,P|332:201|430:217,1,150.000005722046,6|2,0:3|0:3,0:0:0:0:
483,267,56226,1,0,0:0:0:0:
494,174,56464,2,0,L|497:95,2,75.0000028610231,8|8|2,0:0|0:0|0:3,0:0:0:0:
412,342,57417,6,0,P|376:349|328:347,1,75.0000028610231,6|2,0:0|0:0,0:0:0:0:
262,292,57893,2,0,P|228:284|162:283,1,75.0000028610231,2|2,0:0|0:0,0:0:0:0:
98,309,58370,1,8,0:0:0:0:
155,130,58847,1,8,0:0:0:0:
323,210,59323,6,0,L|418:216,1,75.0000028610231,6|2,0:0|0:0,0:0:0:0:
444,132,59800,2,0,L|366:127,1,75.0000028610231,2|2,0:0|0:0,0:0:0:0:
290,77,60276,1,12,0:0:0:0:
179,229,60753,1,12,0:0:0:0:
107,56,61229,53,6,0:0:0:0:
107,56,62659,5,10,0:0:0:0:
206,64,62897,1,10,0:0:0:0:
279,131,63135,6,0,P|338:144|397:135,1,100,6|8,0:0|0:0,0:0:0:0:
459,83,63611,2,0,L|466:20,2,50,2|2|8,0:0|0:0|0:0,0:0:0:0:
465,183,64088,2,0,L|473:288,1,100,2|8,0:0|0:0,0:0:0:0:
405,357,64564,2,0,P|376:357|339:349,1,50,2|2,0:0|0:0,0:0:0:0:
308,336,64802,1,8,0:0:0:0:
209,355,65041,6,0,P|186:302|196:244,1,100,2|8,0:0|0:0,0:0:0:0:
260,191,65517,2,0,L|266:121,1,50,2|2,0:0|0:0,0:0:0:0:
248,93,65755,2,0,P|199:75|148:82,1,100,8|2,0:0|0:0,0:0:0:0:
103,167,66232,1,8,0:0:0:0:
7,136,66470,1,8,0:0:0:0:
27,233,66708,1,8,0:0:0:0:
122,263,66947,54,0,L|231:258,1,100,6|8,0:0|0:0,0:0:0:0:
315,292,67423,2,0,L|326:349,2,50,2|2|8,0:0|0:0|0:0,0:0:0:0:
304,192,67900,2,0,P|341:161|399:146,1,100,2|8,0:0|0:0,0:0:0:0:
480,178,68376,2,0,P|508:194|536:204,2,50,2|2|8,0:0|0:0|0:0,0:0:0:0:
461,79,68853,6,0,B|415:60|415:60|353:53,1,100,2|8,0:0|0:0,0:0:0:0:
319,73,69210,2,0,L|220:80,1,100,0|2,0:0|0:0,0:0:0:0:
176,52,69568,2,0,P|146:34|113:24,1,50,8|0,0:0|0:0,0:0:0:0:
82,21,69806,1,8,0:0:0:0:
11,93,70044,1,8,0:0:0:0:
62,178,70282,1,8,0:0:0:0:
159,154,70521,1,8,0:0:0:0:
252,188,70759,6,0,P|269:238|263:298,1,100,6|8,0:0|0:0,0:0:0:0:
294,380,71235,2,0,L|354:376,2,50,2|2|8,0:0|0:0|0:0,0:0:0:0:
195,360,71712,2,0,L|94:355,1,100,2|8,0:0|0:0,0:0:0:0:
20,288,72188,2,0,P|10:261|7:234,1,50,2|2,0:0|0:0,0:0:0:0:
21,190,72427,1,8,0:0:0:0:
113,230,72665,6,0,B|159:228|159:228|223:216,1,100,2|8,0:0|0:0,0:0:0:0:
278,143,73141,2,0,L|283:86,1,50,2|2,0:0|0:0,0:0:0:0:
299,45,73380,2,0,P|347:29|417:38,1,100,8|2,0:0|0:0,0:0:0:0:
476,90,73856,1,8,0:0:0:0:
412,167,74094,1,2,0:0:0:0:
473,246,74333,1,8,0:0:0:0:
399,314,74571,54,0,L|296:320,1,100,6|8,0:0|0:0,0:0:0:0:
220,258,75048,2,0,P|216:234|214:190,2,50,2|2|8,0:0|0:0|0:0,0:0:0:0:
204,356,75524,2,0,P|163:360|106:338,1,100,2|8,0:0|0:0,0:0:0:0:
50,258,76001,2,0,L|-6:253,2,50,2|2|8,0:0|0:0|0:0,0:0:0:0:
125,192,76477,6,0,B|137:150|137:150|136:91,1,100,2|8,0:0|0:0,0:0:0:0:
227,52,76954,2,0,L|231:125,1,50,2|2,0:0|0:0,0:0:0:0:
233,151,77192,2,0,P|294:164|303:165,1,50,8|0,0:0|0:0,0:0:0:0:
331,158,77430,1,8,0:0:0:0:
416,105,77668,1,8,0:0:0:0:
454,197,77907,1,10,0:0:0:0:
418,290,78145,1,10,0:0:0:0:
321,314,78383,6,0,L|205:309,1,100,6|8,0:0|0:0,0:0:0:0:
122,327,78860,2,0,L|115:394,2,50,2|2|8,0:0|0:0|0:0,0:0:0:0:
155,233,79336,2,0,P|210:213|264:220,1,100,2|8,0:0|0:0,0:0:0:0:
350,219,79813,2,0,L|354:159,1,50,2|2,0:0|0:0,0:0:0:0:
373,123,80051,1,8,0:0:0:0:
282,79,80289,6,0,L|164:70,1,100,2|8,0:0|0:0,0:0:0:0:
85,46,80766,2,0,P|55:47|30:55,1,50,2|2,0:0|0:0,0:0:0:0:
9,95,81004,2,0,B|3:129|3:129|15:202,1,100,8|2,0:0|0:0,0:0:0:0:
88,260,81481,1,8,0:0:0:0:
172,206,81719,1,2,0:0:0:0:
180,305,81957,1,8,0:0:0:0:
260,245,82195,54,0,B|303:241|303:241|370:252,1,100,6|8,0:0|0:0,0:0:0:0:
448,295,82672,2,0,L|452:356,2,50,2|2|8,0:0|0:0|0:0,0:0:0:0:
444,195,83148,2,0,P|457:136|483:97,1,100,2|8,0:0|0:0,0:0:0:0:
426,16,83625,2,0,P|399:46|384:74,1,50,2|2,0:0|0:0,0:0:0:0:
370,98,83863,1,8,0:0:0:0:
279,55,84101,6,0,L|159:52,1,100,2|8,0:0|0:0,0:0:0:0:
82,78,84578,2,0,P|73:101|73:145,1,50,2|2,0:0|0:0,0:0:0:0:
92,170,84816,2,0,P|108:220|111:237,1,50,8|0,0:0|0:0,0:0:0:0:
105,267,85054,1,8,0:0:0:0:
124,369,85293,1,8,0:0:0:0:
204,310,85531,1,8,0:0:0:0:
303,307,85769,1,8,0:0:0:0:
393,349,86008,6,0,B|405:311|405:311|403:241,1,100,6|8,0:0|0:0,0:0:0:0:
396,151,86484,2,0,P|428:140|461:133,2,50,2|2|8,0:0|0:0|0:0,0:0:0:0:
314,209,86961,2,0,P|252:208|213:188,1,100,2|8,0:0|0:0,0:0:0:0:
191,95,87437,2,0,L|126:93,1,50,2|2,0:0|0:0,0:0:0:0:
91,91,87675,1,8,0:0:0:0:
19,161,87914,6,0,P|18:224|44:265,1,100,2|8,0:0|0:0,0:0:0:0:
127,292,88390,2,0,L|192:289,1,50,2|2,0:0|0:0,0:0:0:0:
225,279,88628,2,0,B|268:286|268:286|320:317,1,100,8|2,0:0|0:0,0:0:0:0:
396,374,89105,1,8,0:0:0:0:
490,342,89343,1,2,0:0:0:0:
509,243,89581,1,8,0:0:0:0:
413,273,89820,54,0,P|399:232|406:164,1,100,6|8,0:0|0:0,0:0:0:0:
464,98,90296,2,0,L|520:92,2,50,2|2|8,0:0|0:0|0:0,0:0:0:0:
365,78,90773,2,0,P|295:64|247:65,1,100,2|8,0:0|0:0,0:0:0:0:
167,54,91249,2,0,L|160:-3,2,50,2|2|8,0:0|0:0|0:0,0:0:0:0:
211,144,91726,6,0,B|213:185|213:185|204:251,1,100,2|8,0:0|0:0,0:0:0:0:
136,315,92202,2,0,L|65:321,2,50,2|2|8,0:0|0:0|0:0,0:0:0:0:
232,340,92679,1,8,0:0:0:0:
300,267,92917,1,8,0:0:0:0:
383,321,93155,1,10,0:0:0:0:
397,221,93394,1,10,0:0:0:0:
310,167,93632,6,0,B|304:109|304:109|317:69|317:69|310:6,1,150.000005722046,6|2,0:0|0:3,0:0:0:0:
227,62,94346,1,2,0:0:0:0:
135,39,94585,1,8,0:0:0:0:
56,209,95061,2,0,P|99:212|157:222,1,75.0000028610231,2|2,0:3|0:0,0:0:0:0:
213,261,95538,5,6,0:3:0:0:
257,343,95776,2,0,P|298:344|338:338,1,75.0000028610231,0|2,0:0|0:3,0:0:0:0:
399,275,96252,1,2,0:0:0:0:
491,293,96491,2,0,L|497:367,2,75.0000028610231,8|8|8,0:0|0:0|0:0,0:0:0:0:
463,203,97205,1,2,0:0:0:0:
370,184,97444,54,0,B|316:189|316:189|190:173,1,150.000005722046,6|2,0:0|0:3,0:0:0:0:
150,115,98158,1,2,0:0:0:0:
68,161,98397,1,8,0:0:0:0:
212,280,98873,2,0,L|310:286,1,75.0000028610231,2|2,0:3|0:0,0:0:0:0:
378,299,99350,6,0,P|408:290|470:286,2,75.0000028610231,6|0|2,0:3|0:0|0:3,0:0:0:0:
325,376,100065,1,2,0:0:0:0:
231,373,100303,2,0,L|153:369,1,75.0000028610231,8|8,0:0|0:0,0:0:0:0:
62,365,100779,2,0,B|45:329|45:329|34:269,1,75.0000028610231,8|8,0:0|0:0,0:0:0:0:
54,201,101256,6,0,P|126:157|214:189,1,150.000005722046,6|2,0:0|0:3,0:0:0:0:
304,314,102209,2,0,L|392:308,2,75.0000028610231,8|8|2,0:0|0:0|0:3,0:0:0:0:
210,305,102924,1,2,0:0:0:0:
138,244,103162,6,0,B|128:189|128:189|137:92,1,150.000005722046,6|2,0:3|0:3,0:0:0:0:
191,18,103877,1,2,0:0:0:0:
283,31,104115,2,0,L|364:36,2,75.0000028610231,8|8|2,0:0|0:0|0:3,0:0:0:0:
230,211,105068,54,0,P|285:224|336:222,1,75.0000028610231,6|2,0:0|0:0,0:0:0:0:
375,165,105544,2,0,P|408:157|475:158,1,75.0000028610231,2|2,0:0|0:0,0:0:0:0:
506,229,106021,1,8,0:0:0:0:
463,46,106498,1,8,0:0:0:0:
287,111,106974,6,0,L|201:115,1,75.0000028610231,6|2,0:0|0:0,0:0:0:0:
124,79,107451,2,0,P|57:68|21:73,1,75.0000028610231,2|2,0:0|0:0,0:0:0:0:
1,148,107927,1,12,0:0:0:0:
181,200,108404,1,12,0:0:0:0:
47,335,108880,5,6,0:0:0:0:
256,192,108999,12,0,112692,0:0:0:0:
